  0
SECTION
  2
HEADER
  9
$ACADVER
  1
AC1032
  9
$ACADMAINTVER
 90
      175
  9
$DWGCODEPAGE
  3
ANSI_932
  9
$LASTSAVEDBY
  1
Kousuke
  9
$REQUIREDVERSIONS
160
                 0
  9
$INSBASE
 10
0.0
 20
0.0
 30
0.0
  9
$EXTMIN
 10
-4.686621979846648
 20
-4.708272101743148
 30
0.0
  9
$EXTMAX
 10
292.3133780201533
 20
205.2917278982568
 30
0.0
  9
$LIMMIN
 10
-9.835550498888355
 20
-9.854543293194307
  9
$LIMMAX
 10
301.7089744143381
 20
210.4380025684499
  9
$ORTHOMODE
 70
     1
  9
$REGENMODE
 70
     1
  9
$FILLMODE
 70
     1
  9
$QTEXTMODE
 70
     0
  9
$MIRRTEXT
 70
     1
  9
$LTSCALE
 40
0.25
  9
$ATTMODE
 70
     1
  9
$TEXTSIZE
 40
1.25
  9
$TRACEWID
 40
1.0
  9
$TEXTSTYLE
  7
STANDARD
  9
$CLAYER
  8
寸法線
  9
$CELTYPE
  6
ByLayer
  9
$CECOLOR
 62
   256
  9
$CELTSCALE
 40
1.0
  9
$DISPSILH
 70
     0
  9
$DIMSCALE
 40
0.5
  9
$DIMASZ
 40
2.5
  9
$DIMEXO
 40
0.625
  9
$DIMDLI
 40
3.75
  9
$DIMRND
 40
0.0
  9
$DIMDLE
 40
0.0
  9
$DIMEXE
 40
1.25
  9
$DIMTP
 40
0.0
  9
$DIMTM
 40
0.0
  9
$DIMTXT
 40
2.5
  9
$DIMCEN
 40
2.5
  9
$DIMTSZ
 40
0.0
  9
$DIMTOL
 70
     0
  9
$DIMLIM
 70
     0
  9
$DIMTIH
 70
     0
  9
$DIMTOH
 70
     0
  9
$DIMSE1
 70
     0
  9
$DIMSE2
 70
     0
  9
$DIMTAD
 70
     1
  9
$DIMZIN
 70
     8
  9
$DIMBLK
  1

  9
$DIMASO
 70
     1
  9
$DIMSHO
 70
     1
  9
$DIMPOST
  1

  9
$DIMAPOST
  1

  9
$DIMALT
 70
     0
  9
$DIMALTD
 70
     4
  9
$DIMALTF
 40
0.0394
  9
$DIMLFAC
 40
1.0
  9
$DIMTOFL
 70
     1
  9
$DIMTVP
 40
0.0
  9
$DIMTIX
 70
     0
  9
$DIMSOXD
 70
     0
  9
$DIMSAH
 70
     1
  9
$DIMBLK1
  1
OPEN
  9
$DIMBLK2
  1
OPEN
  9
$DIMSTYLE
  2
STANDARD_WS
  9
$DIMCLRD
 70
     0
  9
$DIMCLRE
 70
     0
  9
$DIMCLRT
 70
     0
  9
$DIMTFAC
 40
1.0
  9
$DIMGAP
 40
0.625
  9
$DIMJUST
 70
     0
  9
$DIMSD1
 70
     0
  9
$DIMSD2
 70
     0
  9
$DIMTOLJ
 70
     1
  9
$DIMTZIN
 70
     0
  9
$DIMALTZ
 70
     0
  9
$DIMALTTZ
 70
     0
  9
$DIMUPT
 70
     1
  9
$DIMDEC
 70
     1
  9
$DIMTDEC
 70
     1
  9
$DIMALTU
 70
     8
  9
$DIMALTTD
 70
     4
  9
$DIMTXSTY
  7
STANDARD
  9
$DIMAUNIT
 70
     0
  9
$DIMADEC
 70
     0
  9
$DIMALTRND
 40
0.0
  9
$DIMAZIN
 70
     0
  9
$DIMDSEP
 70
    46
  9
$DIMATFIT
 70
     3
  9
$DIMFRAC
 70
     0
  9
$DIMLDRBLK
  1

  9
$DIMLUNIT
 70
     2
  9
$DIMLWD
 70
    -2
  9
$DIMLWE
 70
    -2
  9
$DIMTMOVE
 70
     0
  9
$DIMFXL
 40
1.0
  9
$DIMFXLON
 70
     0
  9
$DIMJOGANG
 40
0.7853981633974483
  9
$DIMTFILL
 70
     0
  9
$DIMTFILLCLR
 70
     0
  9
$DIMARCSYM
 70
     0
  9
$DIMLTYPE
  6

  9
$DIMLTEX1
  6

  9
$DIMLTEX2
  6

  9
$DIMTXTDIRECTION
 70
     0
  9
$LUNITS
 70
     2
  9
$LUPREC
 70
     4
  9
$SKETCHINC
 40
1.0
  9
$FILLETRAD
 40
5.0
  9
$AUNITS
 70
     0
  9
$AUPREC
 70
     0
  9
$MENU
  1
.
  9
$ELEVATION
 40
0.0
  9
$PELEVATION
 40
0.0
  9
$THICKNESS
 40
0.0
  9
$LIMCHECK
 70
     0
  9
$CHAMFERA
 40
0.5
  9
$CHAMFERB
 40
0.5
  9
$CHAMFERC
 40
14.006734006734
  9
$CHAMFERD
 40
0.0
  9
$SKPOLY
 70
     0
  9
$TDCREATE
 40
2459172.370613426
  9
$TDUCREATE
 40
2459171.995613426
  9
$TDUPDATE
 40
2459172.370937500
  9
$TDUUPDATE
 40
2459171.995937500
  9
$TDINDWG
 40
0.0003125000
  9
$TDUSRTIMER
 40
0.0003125000
  9
$USRTIMER
 70
     1
  9
$ANGBASE
 50
0.0
  9
$ANGDIR
 70
     0
  9
$PDMODE
 70
     0
  9
$PDSIZE
 40
0.0
  9
$PLINEWID
 40
0.0
  9
$SPLFRAME
 70
     0
  9
$SPLINETYPE
 70
     6
  9
$SPLINESEGS
 70
     8
  9
$HANDSEED
  5
3C5
  9
$SURFTAB1
 70
     6
  9
$SURFTAB2
 70
     6
  9
$SURFTYPE
 70
     6
  9
$SURFU
 70
     6
  9
$SURFV
 70
     6
  9
$UCSBASE
  2

  9
$UCSNAME
  2

  9
$UCSORG
 10
0.0
 20
0.0
 30
0.0
  9
$UCSXDIR
 10
1.0
 20
0.0
 30
0.0
  9
$UCSYDIR
 10
0.0
 20
1.0
 30
0.0
  9
$UCSORTHOREF
  2

  9
$UCSORTHOVIEW
 70
     0
  9
$UCSORGTOP
 10
0.0
 20
0.0
 30
0.0
  9
$UCSORGBOTTOM
 10
0.0
 20
0.0
 30
0.0
  9
$UCSORGLEFT
 10
0.0
 20
0.0
 30
0.0
  9
$UCSORGRIGHT
 10
0.0
 20
0.0
 30
0.0
  9
$UCSORGFRONT
 10
0.0
 20
0.0
 30
0.0
  9
$UCSORGBACK
 10
0.0
 20
0.0
 30
0.0
  9
$PUCSBASE
  2

  9
$PUCSNAME
  2

  9
$PUCSORG
 10
0.0
 20
0.0
 30
0.0
  9
$PUCSXDIR
 10
1.0
 20
0.0
 30
0.0
  9
$PUCSYDIR
 10
0.0
 20
1.0
 30
0.0
  9
$PUCSORTHOREF
  2

  9
$PUCSORTHOVIEW
 70
     0
  9
$PUCSORGTOP
 10
0.0
 20
0.0
 30
0.0
  9
$PUCSORGBOTTOM
 10
0.0
 20
0.0
 30
0.0
  9
$PUCSORGLEFT
 10
0.0
 20
0.0
 30
0.0
  9
$PUCSORGRIGHT
 10
0.0
 20
0.0
 30
0.0
  9
$PUCSORGFRONT
 10
0.0
 20
0.0
 30
0.0
  9
$PUCSORGBACK
 10
0.0
 20
0.0
 30
0.0
  9
$USERI1
 70
     0
  9
$USERI2
 70
     0
  9
$USERI3
 70
     0
  9
$USERI4
 70
     0
  9
$USERI5
 70
     0
  9
$USERR1
 40
0.0
  9
$USERR2
 40
0.0
  9
$USERR3
 40
0.0
  9
$USERR4
 40
0.0
  9
$USERR5
 40
0.0
  9
$WORLDVIEW
 70
     1
  9
$SHADEDGE
 70
     3
  9
$SHADEDIF
 70
    70
  9
$TILEMODE
 70
     1
  9
$MAXACTVP
 70
    48
  9
$PINSBASE
 10
0.0
 20
0.0
 30
0.0
  9
$PLIMCHECK
 70
     0
  9
$PEXTMIN
 10
1.000000000000000E+20
 20
1.000000000000000E+20
 30
1.000000000000000E+20
  9
$PEXTMAX
 10
-1.000000000000000E+20
 20
-1.000000000000000E+20
 30
-1.000000000000000E+20
  9
$PLIMMIN
 10
0.0
 20
0.0
  9
$PLIMMAX
 10
12.0
 20
9.0
  9
$UNITMODE
 70
     0
  9
$VISRETAIN
 70
     1
  9
$PLINEGEN
 70
     0
  9
$PSLTSCALE
 70
     0
  9
$TREEDEPTH
 70
  3020
  9
$CMLSTYLE
  2
Standard
  9
$CMLJUST
 70
     0
  9
$CMLSCALE
 40
20.0
  9
$PROXYGRAPHICS
 70
     1
  9
$MEASUREMENT
 70
     1
  9
$CELWEIGHT
370
    -1
  9
$ENDCAPS
280
     0
  9
$JOINSTYLE
280
     0
  9
$LWDISPLAY
290
     0
  9
$INSUNITS
 70
     0
  9
$HYPERLINKBASE
  1

  9
$STYLESHEET
  1

  9
$XEDIT
290
     1
  9
$CEPSNTYPE
380
     0
  9
$PSTYLEMODE
290
     1
  9
$FINGERPRINTGUID
  2
{98ADEF9F-337F-804A-BDBF-9908E087AEE5}
  9
$VERSIONGUID
  2
{88FB68AC-B9B1-DB4E-AD0C-BD98F348E775}
  9
$EXTNAMES
290
     1
  9
$PSVPSCALE
 40
0.0
  9
$OLESTARTUP
290
     0
  9
$SORTENTS
280
   127
  9
$INDEXCTL
280
     0
  9
$HIDETEXT
280
     1
  9
$XCLIPFRAME
280
     2
  9
$HALOGAP
280
     0
  9
$OBSCOLOR
 70
   257
  9
$OBSLTYPE
280
     0
  9
$INTERSECTIONDISPLAY
280
     0
  9
$INTERSECTIONCOLOR
 70
   257
  9
$DIMASSOC
280
     1
  9
$PROJECTNAME
  1

  9
$CAMERADISPLAY
290
     0
  9
$LENSLENGTH
 40
50.0
  9
$CAMERAHEIGHT
 40
0.0
  9
$STEPSPERSEC
 40
2.0
  9
$STEPSIZE
 40
6.0
  9
$3DDWFPREC
 40
2.0
  9
$PSOLWIDTH
 40
0.25
  9
$PSOLHEIGHT
 40
4.0
  9
$LOFTANG1
 40
1.570796326794896
  9
$LOFTANG2
 40
1.570796326794896
  9
$LOFTMAG1
 40
0.0
  9
$LOFTMAG2
 40
0.0
  9
$LOFTPARAM
 70
     7
  9
$LOFTNORMALS
280
     1
  9
$LATITUDE
 40
37.795
  9
$LONGITUDE
 40
-122.394
  9
$NORTHDIRECTION
 40
0.0
  9
$TIMEZONE
 70
 -8000
  9
$LIGHTGLYPHDISPLAY
280
     1
  9
$TILEMODELIGHTSYNCH
280
     1
  9
$CMATERIAL
347
11
  9
$SOLIDHIST
280
     0
  9
$SHOWHIST
280
     1
  9
$DWFFRAME
280
     2
  9
$DGNFRAME
280
     0
  9
$REALWORLDSCALE
290
     1
  9
$INTERFERECOLOR
 62
     1
  9
$INTERFEREOBJVS
345
33
  9
$INTERFEREVPVS
346
30
  9
$CSHADOW
280
     0
  9
$SHADOWPLANELOCATION
 40
0.0
  0
ENDSEC
  0
SECTION
  2
CLASSES
  0
CLASS
  1
ACDBDICTIONARYWDFLT
  2
AcDbDictionaryWithDefault
  3
ObjectDBX Classes
 90
        0
 91
        1
280
     0
281
     0
  0
CLASS
  1
MATERIAL
  2
AcDbMaterial
  3
ObjectDBX Classes
 90
     1153
 91
        3
280
     0
281
     0
  0
CLASS
  1
VISUALSTYLE
  2
AcDbVisualStyle
  3
ObjectDBX Classes
 90
     4095
 91
       24
280
     0
281
     0
  0
CLASS
  1
SCALE
  2
AcDbScale
  3
ObjectDBX Classes
 90
     1153
 91
       17
280
     0
281
     0
  0
CLASS
  1
TABLESTYLE
  2
AcDbTableStyle
  3
ObjectDBX Classes
 90
     4095
 91
        1
280
     0
281
     0
  0
CLASS
  1
MLEADERSTYLE
  2
AcDbMLeaderStyle
  3
ACDB_MLEADERSTYLE_CLASS
 90
     4095
 91
        1
280
     0
281
     0
  0
CLASS
  1
ACDBSECTIONVIEWSTYLE
  2
AcDbSectionViewStyle
  3
ObjectDBX Classes
 90
     1025
 91
        2
280
     0
281
     0
  0
CLASS
  1
ACDBDETAILVIEWSTYLE
  2
AcDbDetailViewStyle
  3
ObjectDBX Classes
 90
     1025
 91
        2
280
     0
281
     0
  0
CLASS
  1
SORTENTSTABLE
  2
AcDbSortentsTable
  3
ObjectDBX Classes
 90
        0
 91
        1
280
     0
281
     0
  0
CLASS
  1
DICTIONARYVAR
  2
AcDbDictionaryVar
  3
ObjectDBX Classes
 90
        0
 91
       10
280
     0
281
     0
  0
CLASS
  1
CELLSTYLEMAP
  2
AcDbCellStyleMap
  3
ObjectDBX Classes
 90
     1152
 91
        1
280
     0
281
     0
  0
ENDSEC
  0
SECTION
  2
TABLES
  0
TABLE
  2
VPORT
  5
8
330
0
100
AcDbSymbolTable
 70
     1
  0
VPORT
  5
57
330
8
100
AcDbSymbolTableRecord
100
AcDbViewportTableRecord
  2
*Active
 70
     0
 10
0.0
 20
0.0
 11
1.0
 21
1.0
 12
143.821275156427
 22
100.2917301505364
 13
0.0
 23
0.0
 14
10.0
 24
10.0
 15
10.0
 25
10.0
 16
0.0
 26
0.0
 36
1.0
 17
0.0
 27
0.0
 37
0.0
 40
211.6115925423789
 41
2.370967741935483
 42
50.0
 43
0.0
 44
0.0
 50
0.0
 51
0.0
 71
     0
 72
   100
 73
     1
 74
     1
 75
     0
 76
     0
 77
     0
 78
     0
281
     0
 65
     1
110
0.0
120
0.0
130
0.0
111
1.0
121
0.0
131
0.0
112
0.0
122
1.0
132
0.0
 79
     0
146
0.0
348
2F
 60
     0
 61
     5
292
     1
282
     1
141
0.0
142
0.0
 63
   250
421
  3355443
1001
ACAD_NAV_VCDISPLAY
1070
     3
  0
ENDTAB
  0
TABLE
  2
LTYPE
  5
5
330
0
100
AcDbSymbolTable
 70
     2
  0
LTYPE
  5
5B
330
5
100
AcDbSymbolTableRecord
100
AcDbLinetypeTableRecord
  2
ByBlock
 70
     0
  3

 72
    65
 73
     0
 40
0.0
  0
LTYPE
  5
5C
330
5
100
AcDbSymbolTableRecord
100
AcDbLinetypeTableRecord
  2
ByLayer
 70
     0
  3

 72
    65
 73
     0
 40
0.0
  0
LTYPE
  5
5D
330
5
100
AcDbSymbolTableRecord
100
AcDbLinetypeTableRecord
  2
Continuous
 70
     0
  3
Solid line
 72
    65
 73
     0
 40
0.0
  0
LTYPE
  5
7A
330
5
100
AcDbSymbolTableRecord
100
AcDbLinetypeTableRecord
  2
HIDDEN2
 70
     0
  3
Hidden (.5x) _ _ _ _ _ _ _ _ _ _ _ _ _ _ _ _ _
 72
    65
 73
     2
 40
4.762499999999999
 49
3.174999999999999
 74
     0
 49
-1.587499999999999
 74
     0
  0
ENDTAB
  0
TABLE
  2
LAYER
  5
2
330
0
100
AcDbSymbolTable
 70
     7
  0
LAYER
  5
54
102
{ACAD_XDICTIONARY
360
3BF
102
}
330
2
100
AcDbSymbolTableRecord
100
AcDbLayerTableRecord
  2
0
 70
     0
 62
     7
  6
Continuous
370
    -3
390
F
347
21
348
0
1001
AcAecLayerStandard
1000

1000

  0
LAYER
  5
79
330
2
100
AcDbSymbolTableRecord
100
AcDbLayerTableRecord
  2
Defpoints
 70
     0
 62
     7
  6
Continuous
290
     0
370
    -3
390
F
347
21
348
0
1001
AcAecLayerStandard
1000

1000

  0
LAYER
  5
7D
102
{ACAD_XDICTIONARY
360
7E
102
}
330
2
100
AcDbSymbolTableRecord
100
AcDbLayerTableRecord
  2
VIEWPORT
 70
     0
 62
     7
  6
Continuous
370
    -3
390
F
347
21
348
0
  0
LAYER
  5
81
102
{ACAD_XDICTIONARY
360
82
102
}
330
2
100
AcDbSymbolTableRecord
100
AcDbLayerTableRecord
  2
基本図面
 70
     0
 62
     7
  6
Continuous
370
    -3
390
F
347
21
348
0
  0
LAYER
  5
88
102
{ACAD_XDICTIONARY
360
89
102
}
330
2
100
AcDbSymbolTableRecord
100
AcDbLayerTableRecord
  2
点線
 70
     0
 62
     9
  6
HIDDEN2
370
    -3
390
F
347
21
348
0
  0
LAYER
  5
92
102
{ACAD_XDICTIONARY
360
93
102
}
330
2
100
AcDbSymbolTableRecord
100
AcDbLayerTableRecord
  2
寸法線
 70
     0
 62
     6
  6
Continuous
370
    -3
390
F
347
21
348
0
  0
LAYER
  5
31C
102
{ACAD_XDICTIONARY
360
31D
102
}
330
2
100
AcDbSymbolTableRecord
100
AcDbLayerTableRecord
  2
図面枠
 70
     0
 62
     5
  6
Continuous
370
    -3
390
F
347
21
348
0
  0
ENDTAB
  0
TABLE
  2
STYLE
  5
3
330
0
100
AcDbSymbolTable
 70
     2
  0
STYLE
  5
55
330
3
100
AcDbSymbolTableRecord
100
AcDbTextStyleTableRecord
  2
STANDARD
 70
     0
 40
0.0
 41
1.0
 50
0.0
 71
     0
 42
1.25
  3

  4

  0
STYLE
  5
5A
330
3
100
AcDbSymbolTableRecord
100
AcDbTextStyleTableRecord
  2
Annotative
 70
     0
 40
0.0
 41
1.0
 50
0.0
 71
     0
 42
0.2
  3
txt
  4

1001
AcadAnnotative
1000
AnnotativeData
1002
{
1070
     1
1070
     1
1002
}
  0
ENDTAB
  0
TABLE
  2
VIEW
  5
6
330
0
100
AcDbSymbolTable
 70
     0
  0
ENDTAB
  0
TABLE
  2
UCS
  5
7
330
0
100
AcDbSymbolTable
 70
     0
  0
ENDTAB
  0
TABLE
  2
APPID
  5
9
330
0
100
AcDbSymbolTable
 70
     5
  0
APPID
  5
56
330
9
100
AcDbSymbolTableRecord
100
AcDbRegAppTableRecord
  2
ACAD
 70
     0
  0
APPID
  5
5E
330
9
100
AcDbSymbolTableRecord
100
AcDbRegAppTableRecord
  2
AcadAnnotative
 70
     0
  0
APPID
  5
78
330
9
100
AcDbSymbolTableRecord
100
AcDbRegAppTableRecord
  2
ACAD_PSEXT
 70
     0
  0
APPID
  5
341
330
9
100
AcDbSymbolTableRecord
100
AcDbRegAppTableRecord
  2
AcAecLayerStandard
 70
     0
  0
APPID
  5
3C1
330
9
100
AcDbSymbolTableRecord
100
AcDbRegAppTableRecord
  2
ACAD_NAV_VCDISPLAY
 70
     0
  0
ENDTAB
  0
TABLE
  2
DIMSTYLE
  5
A
330
0
100
AcDbSymbolTable
 70
     3
100
AcDbDimStyleTable
 71
     1
340
7B
  0
DIMSTYLE
105
58
330
A
100
AcDbSymbolTableRecord
100
AcDbDimStyleTableRecord
  2
Standard
 70
     0
340
55
  0
DIMSTYLE
105
59
330
A
100
AcDbSymbolTableRecord
100
AcDbDimStyleTableRecord
  2
Annotative
 70
     0
340
55
1001
AcadAnnotative
1000
AnnotativeData
1002
{
1070
     1
1070
     1
1002
}
  0
DIMSTYLE
105
7B
102
{ACAD_REACTORS
330
91
330
A7
330
B4
330
C1
330
CE
330
DA
330
E6
330
F3
330
100
330
116
330
123
330
130
102
}
330
A
100
AcDbSymbolTableRecord
100
AcDbDimStyleTableRecord
  2
STANDARD_WS
 70
     0
 40
0.7003367003367004
 41
2.5
 42
0.625
 43
3.75
 44
1.25
 73
     0
 74
     0
 77
     1
 78
     8
140
2.5
141
2.5
143
0.0394
147
0.625
171
     4
172
     1
273
     8
274
     4
340
55
  0
ENDTAB
  0
TABLE
  2
BLOCK_RECORD
  5
1
330
0
100
AcDbSymbolTable
 70
    27
  0
BLOCK_RECORD
  5
70
102
{ACAD_XDICTIONARY
360
319
102
}
330
1
100
AcDbSymbolTableRecord
100
AcDbBlockTableRecord
  2
*Model_Space
340
73
 70
     0
280
     1
281
     0
  0
BLOCK_RECORD
  5
6C
330
1
100
AcDbSymbolTableRecord
100
AcDbBlockTableRecord
  2
*Paper_Space
340
6F
 70
     0
280
     1
281
     0
  0
BLOCK_RECORD
  5
74
330
1
100
AcDbSymbolTableRecord
100
AcDbBlockTableRecord
  2
*Paper_Space0
340
77
 70
     0
280
     1
281
     0
  0
BLOCK_RECORD
  5
9B
330
1
100
AcDbSymbolTableRecord
100
AcDbBlockTableRecord
  2
_OPEN
340
0
102
{BLKREFS
331
345
331
346
331
34E
331
34F
331
357
331
358
331
360
331
361
331
368
331
369
331
370
331
371
331
379
331
37A
331
382
331
383
331
38B
331
38C
331
394
331
395
331
39D
331
39E
331
3A6
331
3A7
102
}
 70
     0
280
     1
281
     0
  0
BLOCK_RECORD
  5
14D
330
1
100
AcDbSymbolTableRecord
100
AcDbBlockTableRecord
  2
*D14
340
0
 70
     0
280
     1
281
     0
  0
BLOCK_RECORD
  5
159
330
1
100
AcDbSymbolTableRecord
100
AcDbBlockTableRecord
  2
*D15
340
0
 70
     0
280
     1
281
     0
  0
BLOCK_RECORD
  5
165
330
1
100
AcDbSymbolTableRecord
100
AcDbBlockTableRecord
  2
*D16
340
0
 70
     0
280
     1
281
     0
  0
BLOCK_RECORD
  5
171
330
1
100
AcDbSymbolTableRecord
100
AcDbBlockTableRecord
  2
*D17
340
0
 70
     0
280
     1
281
     0
  0
BLOCK_RECORD
  5
17D
330
1
100
AcDbSymbolTableRecord
100
AcDbBlockTableRecord
  2
*D18
340
0
 70
     0
280
     1
281
     0
  0
BLOCK_RECORD
  5
188
330
1
100
AcDbSymbolTableRecord
100
AcDbBlockTableRecord
  2
*D19
340
0
 70
     0
280
     1
281
     0
  0
BLOCK_RECORD
  5
193
330
1
100
AcDbSymbolTableRecord
100
AcDbBlockTableRecord
  2
*D20
340
0
 70
     0
280
     1
281
     0
  0
BLOCK_RECORD
  5
19F
330
1
100
AcDbSymbolTableRecord
100
AcDbBlockTableRecord
  2
*D21
340
0
 70
     0
280
     1
281
     0
  0
BLOCK_RECORD
  5
1AB
330
1
100
AcDbSymbolTableRecord
100
AcDbBlockTableRecord
  2
*D22
340
0
 70
     0
280
     1
281
     0
  0
BLOCK_RECORD
  5
1B7
330
1
100
AcDbSymbolTableRecord
100
AcDbBlockTableRecord
  2
*D23
340
0
 70
     0
280
     1
281
     0
  0
BLOCK_RECORD
  5
1C3
330
1
100
AcDbSymbolTableRecord
100
AcDbBlockTableRecord
  2
*D24
340
0
 70
     0
280
     1
281
     0
  0
BLOCK_RECORD
  5
1CF
330
1
100
AcDbSymbolTableRecord
100
AcDbBlockTableRecord
  2
*D25
340
0
 70
     0
280
     1
281
     0
  0
BLOCK_RECORD
  5
31F
330
1
100
AcDbSymbolTableRecord
100
AcDbBlockTableRecord
  2
TITLE_BLOCK
340
0
102
{BLKREFS
331
31B
102
}
 70
     0
280
     1
281
     0
  0
ENDTAB
  0
ENDSEC
  0
SECTION
  2
BLOCKS
  0
BLOCK
  5
71
330
70
100
AcDbEntity
  8
0
100
AcDbBlockBegin
  2
*Model_Space
 70
     0
 10
0.0
 20
0.0
 30
0.0
  3
*Model_Space
  1

  0
ENDBLK
  5
72
330
70
100
AcDbEntity
  8
0
100
AcDbBlockEnd
  0
BLOCK
  5
6D
330
6C
100
AcDbEntity
 67
     1
  8
0
100
AcDbBlockBegin
  2
*Paper_Space
 70
     0
 10
0.0
 20
0.0
 30
0.0
  3
*Paper_Space
  1

  0
ENDBLK
  5
6E
330
6C
100
AcDbEntity
 67
     1
  8
0
100
AcDbBlockEnd
  0
BLOCK
  5
75
330
74
100
AcDbEntity
 67
     1
  8
0
100
AcDbBlockBegin
  2
*Paper_Space0
 70
     0
 10
0.0
 20
0.0
 30
0.0
  3
*Paper_Space0
  1

  0
ENDBLK
  5
76
330
74
100
AcDbEntity
 67
     1
  8
0
100
AcDbBlockEnd
  0
BLOCK
  5
9C
330
9B
100
AcDbEntity
  8
0
100
AcDbBlockBegin
  2
_OPEN
 70
     0
 10
0.0
 20
0.0
 30
0.0
  3
_OPEN
  1

  0
LINE
  5
9D
330
9B
100
AcDbEntity
  8
0
  6
ByBlock
 62
     0
100
AcDbLine
 10
-1.0
 20
0.1666666666666666
 30
0.0
 11
0.0
 21
0.0
 31
0.0
  0
LINE
  5
9E
330
9B
100
AcDbEntity
  8
0
  6
ByBlock
 62
     0
100
AcDbLine
 10
0.0
 20
0.0
 30
0.0
 11
-1.0
 21
-0.1666666666666666
 31
0.0
  0
LINE
  5
9F
330
9B
100
AcDbEntity
  8
0
  6
ByBlock
 62
     0
100
AcDbLine
 10
0.0
 20
0.0
 30
0.0
 11
-1.0
 21
0.0
 31
0.0
  0
ENDBLK
  5
A0
330
9B
100
AcDbEntity
  8
0
100
AcDbBlockEnd
  0
BLOCK
  5
14E
330
14D
100
AcDbEntity
  8
0
100
AcDbBlockBegin
  2
*D14
 70
     1
 10
0.0
 20
0.0
 30
0.0
  3
*D14
  1

  0
LINE
  5
342
330
14D
100
AcDbEntity
  8
寸法線
 62
     0
440
 16777216
 48
0.9999999994487541
370
    -2
100
AcDbLine
 10
168.3069207288281
 20
110.7018065213038
 30
0.0
 11
168.3069207288281
 21
119.7821402826604
 31
0.0
  0
LINE
  5
343
330
14D
100
AcDbEntity
  8
寸法線
 62
     0
440
 16777216
 48
0.9999999994487541
370
    -2
100
AcDbLine
 10
108.3069207618973
 20
105.35903802029
 30
0.0
 11
108.3069207618973
 21
119.7821402826604
 31
0.0
  0
LINE
  5
344
330
14D
100
AcDbEntity
  8
寸法線
 62
     0
440
 16777216
 48
0.9999999994487541
370
    -2
100
AcDbLine
 10
167.0569207295171
 20
119.157140283005
 30
0.0
 11
109.5569207612083
 21
119.157140283005
 31
0.0
  0
INSERT
  5
345
330
14D
100
AcDbEntity
  8
寸法線
 62
     0
440
 16777216
 48
0.9999999994487541
370
    -2
100
AcDbBlockReference
  2
_OPEN
 10
168.3069207288281
 20
119.157140283005
 30
0.0
 41
1.249999999310942
 42
1.249999999310942
 43
1.249999999310942
  0
INSERT
  5
346
330
14D
100
AcDbEntity
  8
寸法線
 62
     0
440
 16777216
 48
0.9999999994487541
370
    -2
100
AcDbBlockReference
  2
_OPEN
 10
108.3069207618973
 20
119.157140283005
 30
0.0
 41
1.249999999310942
 42
1.249999999310942
 43
1.249999999310942
 50
180.0
  0
MTEXT
  5
347
330
14D
100
AcDbEntity
  8
寸法線
 62
     0
440
 16777216
 48
0.9999999994487541
100
AcDbMText
 10
139.1069207449254
 20
120.0946402824882
 30
0.0
 40
1.249999999310942
 41
0.0
 46
0.0
 71
     5
 72
     1
  1
\A1;60
 73
     1
 44
1.0
  0
POINT
  5
348
330
14D
100
AcDbEntity
  8
Defpoints
 62
     0
440
 16777216
 48
0.9999999994487541
100
AcDbPoint
 10
168.3069207288281
 20
110.3893065214761
 30
0.0
  0
POINT
  5
349
330
14D
100
AcDbEntity
  8
Defpoints
 62
     0
440
 16777216
 48
0.9999999994487541
100
AcDbPoint
 10
108.3069207618973
 20
105.0465380204623
 30
0.0
  0
POINT
  5
34A
330
14D
100
AcDbEntity
  8
Defpoints
 62
     0
440
 16777216
 48
0.9999999994487541
100
AcDbPoint
 10
108.3069207618973
 20
119.157140283005
 30
0.0
  0
ENDBLK
  5
14F
330
14D
100
AcDbEntity
  8
0
100
AcDbBlockEnd
  0
BLOCK
  5
15A
330
159
100
AcDbEntity
  8
0
100
AcDbBlockBegin
  2
*D15
 70
     1
 10
0.0
 20
0.0
 30
0.0
  3
*D15
  1

  0
LINE
  5
34B
330
159
100
AcDbEntity
  8
寸法線
 62
     0
440
 16777216
 48
0.9999999994487541
370
    -2
100
AcDbLine
 10
108.2744581720253
 20
57.67683521675227
 30
0.0
 11
108.2744581720253
 21
53.30803717378586
 31
0.0
  0
LINE
  5
34C
330
159
100
AcDbEntity
  8
寸法線
 62
     0
440
 16777216
 48
0.9999999994487541
370
    -2
100
AcDbLine
 10
150.3069207387525
 20
57.67683521675227
 30
0.0
 11
150.3069207387525
 21
53.30803717378586
 31
0.0
  0
LINE
  5
34D
330
159
100
AcDbEntity
  8
寸法線
 62
     0
440
 16777216
 48
0.9999999994487541
370
    -2
100
AcDbLine
 10
109.5244581713362
 20
53.93303717344133
 30
0.0
 11
149.0569207394416
 21
53.93303717344133
 31
0.0
  0
INSERT
  5
34E
330
159
100
AcDbEntity
  8
寸法線
 62
     0
440
 16777216
 48
0.9999999994487541
370
    -2
100
AcDbBlockReference
  2
_OPEN
 10
108.2744581720253
 20
53.93303717344133
 30
0.0
 41
1.249999999310942
 42
1.249999999310942
 43
1.249999999310942
 50
180.0
  0
INSERT
  5
34F
330
159
100
AcDbEntity
  8
寸法線
 62
     0
440
 16777216
 48
0.9999999994487541
370
    -2
100
AcDbBlockReference
  2
_OPEN
 10
150.3069207387525
 20
53.93303717344133
 30
0.0
 41
1.249999999310942
 42
1.249999999310942
 43
1.249999999310942
  0
MTEXT
  5
350
330
159
100
AcDbEntity
  8
寸法線
 62
     0
440
 16777216
 48
0.9999999994487541
100
AcDbMText
 10
131.5842681192007
 20
54.87053717292454
 30
0.0
 40
1.249999999310942
 41
0.0
 46
0.0
 71
     5
 72
     1
  1
\A1;42
 73
     1
 44
1.0
  0
POINT
  5
351
330
159
100
AcDbEntity
  8
Defpoints
 62
     0
440
 16777216
 48
0.9999999994487541
100
AcDbPoint
 10
108.2744581720253
 20
57.98933521658
 30
0.0
  0
POINT
  5
352
330
159
100
AcDbEntity
  8
Defpoints
 62
     0
440
 16777216
 48
0.9999999994487541
100
AcDbPoint
 10
150.3069207387525
 20
57.98933521658
 30
0.0
  0
POINT
  5
353
330
159
100
AcDbEntity
  8
Defpoints
 62
     0
440
 16777216
 48
0.9999999994487541
100
AcDbPoint
 10
150.3069207387525
 20
53.93303717344133
 30
0.0
  0
ENDBLK
  5
15B
330
159
100
AcDbEntity
  8
0
100
AcDbBlockEnd
  0
BLOCK
  5
166
330
165
100
AcDbEntity
  8
0
100
AcDbBlockBegin
  2
*D16
 70
     1
 10
0.0
 20
0.0
 30
0.0
  3
*D16
  1

  0
LINE
  5
354
330
165
100
AcDbEntity
  8
寸法線
 62
     0
440
 16777216
 48
0.9999999994487541
370
    -2
100
AcDbLine
 10
148.7496455332343
 20
59.59266403941549
 30
0.0
 11
145.3012356579591
 21
59.59266403941549
 31
0.0
  0
LINE
  5
355
330
165
100
AcDbEntity
  8
寸法線
 62
     0
440
 16777216
 48
0.9999999994487541
370
    -2
100
AcDbLine
 10
147.9548695276657
 20
109.5893065219189
 30
0.0
 11
145.3012356579591
 21
109.5893065219189
 31
0.0
  0
LINE
  5
356
330
165
100
AcDbEntity
  8
寸法線
 62
     0
440
 16777216
 48
0.9999999994487541
370
    -2
100
AcDbLine
 10
145.9262356576146
 20
60.84266403872644
 30
0.0
 11
145.9262356576146
 21
108.3393065226079
 31
0.0
  0
INSERT
  5
357
330
165
100
AcDbEntity
  8
寸法線
 62
     0
440
 16777216
 48
0.9999999994487541
370
    -2
100
AcDbBlockReference
  2
_OPEN
 10
145.9262356576146
 20
59.59266403941549
 30
0.0
 41
1.249999999310942
 42
1.249999999310942
 43
1.249999999310942
 50
270.0
  0
INSERT
  5
358
330
165
100
AcDbEntity
  8
寸法線
 62
     0
440
 16777216
 48
0.9999999994487541
370
    -2
100
AcDbBlockReference
  2
_OPEN
 10
145.9262356576146
 20
109.5893065219189
 30
0.0
 41
1.249999999310942
 42
1.249999999310942
 43
1.249999999310942
 50
90.0
  0
MTEXT
  5
359
330
165
100
AcDbEntity
  8
寸法線
 62
     0
440
 16777216
 48
0.9999999994487541
100
AcDbMText
 10
144.9887356581314
 20
83.78932086925852
 30
0.0
 40
1.249999999310942
 41
0.0
 46
0.0
 71
     5
 72
     1
  1
\A1;50
 11
0.0000000000000001
 21
1.0
 31
0.0
 73
     1
 44
1.0
  0
POINT
  5
35A
330
165
100
AcDbEntity
  8
Defpoints
 62
     0
440
 16777216
 48
0.9999999994487541
100
AcDbPoint
 10
149.062145533062
 20
59.59266403941549
 30
0.0
  0
POINT
  5
35B
330
165
100
AcDbEntity
  8
Defpoints
 62
     0
440
 16777216
 48
0.9999999994487541
100
AcDbPoint
 10
148.2673695274935
 20
109.5893065219189
 30
0.0
  0
POINT
  5
35C
330
165
100
AcDbEntity
  8
Defpoints
 62
     0
440
 16777216
 48
0.9999999994487541
100
AcDbPoint
 10
145.9262356576146
 20
109.5893065219189
 30
0.0
  0
ENDBLK
  5
167
330
165
100
AcDbEntity
  8
0
100
AcDbBlockEnd
  0
BLOCK
  5
172
330
171
100
AcDbEntity
  8
0
100
AcDbBlockBegin
  2
*D17
 70
     1
 10
0.0
 20
0.0
 30
0.0
  3
*D17
  1

  0
LINE
  5
35D
330
171
100
AcDbEntity
  8
寸法線
 62
     0
440
 16777216
 48
0.9999999994487541
370
    -2
100
AcDbLine
 10
168.6194207286559
 20
164.7563636691048
 30
0.0
 11
174.1680511611022
 21
164.7563636691048
 31
0.0
  0
LINE
  5
35E
330
171
100
AcDbEntity
  8
寸法線
 62
     0
440
 16777216
 48
0.9999999994487541
370
    -2
100
AcDbLine
 10
168.6194207286559
 20
149.7563636773739
 30
0.0
 11
174.1680511611022
 21
149.7563636773739
 31
0.0
  0
LINE
  5
35F
330
171
100
AcDbEntity
  8
寸法線
 62
     0
440
 16777216
 48
0.9999999994487541
370
    -2
100
AcDbLine
 10
173.5430511614468
 20
163.5063636697938
 30
0.0
 11
173.5430511614468
 21
151.0063636766849
 31
0.0
  0
INSERT
  5
360
330
171
100
AcDbEntity
  8
寸法線
 62
     0
440
 16777216
 48
0.9999999994487541
370
    -2
100
AcDbBlockReference
  2
_OPEN
 10
173.5430511614468
 20
164.7563636691048
 30
0.0
 41
1.249999999310942
 42
1.249999999310942
 43
1.249999999310942
 50
90.0
  0
INSERT
  5
361
330
171
100
AcDbEntity
  8
寸法線
 62
     0
440
 16777216
 48
0.9999999994487541
370
    -2
100
AcDbBlockReference
  2
_OPEN
 10
173.5430511614468
 20
149.7563636773739
 30
0.0
 41
1.249999999310942
 42
1.249999999310942
 43
1.249999999310942
 50
270.0
  0
MTEXT
  5
362
330
171
100
AcDbEntity
  8
寸法線
 62
     0
440
 16777216
 48
0.9999999994487541
100
AcDbMText
 10
172.6055511619636
 20
157.2398062649263
 30
0.0
 40
1.249999999310942
 41
0.0
 46
0.0
 71
     5
 72
     1
  1
\A1;15
 11
0.0000000000000001
 21
1.0
 31
0.0
 73
     1
 44
1.0
  0
POINT
  5
363
330
171
100
AcDbEntity
  8
Defpoints
 62
     0
440
 16777216
 48
0.9999999994487541
100
AcDbPoint
 10
168.3069207288282
 20
164.7563636691048
 30
0.0
  0
POINT
  5
364
330
171
100
AcDbEntity
  8
Defpoints
 62
     0
440
 16777216
 48
0.9999999994487541
100
AcDbPoint
 10
168.3069207288282
 20
149.7563636773739
 30
0.0
  0
POINT
  5
365
330
171
100
AcDbEntity
  8
Defpoints
 62
     0
440
 16777216
 48
0.9999999994487541
100
AcDbPoint
 10
173.5430511614468
 20
149.7563636773739
 30
0.0
  0
ENDBLK
  5
173
330
171
100
AcDbEntity
  8
0
100
AcDbBlockEnd
  0
BLOCK
  5
17E
330
17D
100
AcDbEntity
  8
0
100
AcDbBlockBegin
  2
*D18
 70
     1
 10
0.0
 20
0.0
 30
0.0
  3
*D18
  1

  0
LINE
  5
366
330
17D
100
AcDbEntity
  8
寸法線
 62
     0
440
 16777216
 48
0.9999999994487541
370
    -2
100
AcDbLine
 10
168.6194207286559
 20
139.7563636828855
 30
0.0
 11
174.1680511611607
 21
139.7563636828855
 31
0.0
  0
LINE
  5
367
330
17D
100
AcDbEntity
  8
寸法線
 62
     0
440
 16777216
 48
0.9999999994487541
370
    -2
100
AcDbLine
 10
173.5430511615052
 20
148.506363678063
 30
0.0
 11
173.5430511615052
 21
141.0063636821964
 31
0.0
  0
INSERT
  5
368
330
17D
100
AcDbEntity
  8
寸法線
 62
     0
440
 16777216
 48
0.9999999994487541
370
    -2
100
AcDbBlockReference
  2
_OPEN
 10
173.5430511615052
 20
149.7563636773739
 30
0.0
 41
1.249999999310942
 42
1.249999999310942
 43
1.249999999310942
 50
90.0
  0
INSERT
  5
369
330
17D
100
AcDbEntity
  8
寸法線
 62
     0
440
 16777216
 48
0.9999999994487541
370
    -2
100
AcDbBlockReference
  2
_OPEN
 10
173.5430511615052
 20
139.7563636828855
 30
0.0
 41
1.249999999310942
 42
1.249999999310942
 43
1.249999999310942
 50
270.0
  0
MTEXT
  5
36A
330
17D
100
AcDbEntity
  8
寸法線
 62
     0
440
 16777216
 48
0.9999999994487541
100
AcDbMText
 10
172.605551162022
 20
144.7563636801296
 30
0.0
 40
1.249999999310942
 41
0.0
 46
0.0
 71
     5
 72
     1
  1
\A1;10
 11
0.0000000000000001
 21
1.0
 31
0.0
 73
     1
 44
1.0
  0
POINT
  5
36B
330
17D
100
AcDbEntity
  8
Defpoints
 62
     0
440
 16777216
 48
0.9999999994487541
100
AcDbPoint
 10
168.3069207288282
 20
149.7563636773739
 30
0.0
  0
POINT
  5
36C
330
17D
100
AcDbEntity
  8
Defpoints
 62
     0
440
 16777216
 48
0.9999999994487541
100
AcDbPoint
 10
168.3069207288282
 20
139.7563636828855
 30
0.0
  0
POINT
  5
36D
330
17D
100
AcDbEntity
  8
Defpoints
 62
     0
440
 16777216
 48
0.9999999994487541
100
AcDbPoint
 10
173.5430511615052
 20
139.7563636828855
 30
0.0
  0
ENDBLK
  5
17F
330
17D
100
AcDbEntity
  8
0
100
AcDbBlockEnd
  0
BLOCK
  5
189
330
188
100
AcDbEntity
  8
0
100
AcDbBlockBegin
  2
*D19
 70
     1
 10
0.0
 20
0.0
 30
0.0
  3
*D19
  1

  0
LINE
  5
36E
330
188
100
AcDbEntity
  8
寸法線
 62
     0
440
 16777216
 48
0.9999999994487541
370
    -2
100
AcDbLine
 10
168.6194207286559
 20
124.7563636911528
 30
0.0
 11
174.1680511611607
 21
124.7563636911528
 31
0.0
  0
LINE
  5
36F
330
188
100
AcDbEntity
  8
寸法線
 62
     0
440
 16777216
 48
0.9999999994487541
370
    -2
100
AcDbLine
 10
173.5430511615052
 20
138.5063636835745
 30
0.0
 11
173.5430511615052
 21
126.0063636904637
 31
0.0
  0
INSERT
  5
370
330
188
100
AcDbEntity
  8
寸法線
 62
     0
440
 16777216
 48
0.9999999994487541
370
    -2
100
AcDbBlockReference
  2
_OPEN
 10
173.5430511615052
 20
139.7563636828855
 30
0.0
 41
1.249999999310942
 42
1.249999999310942
 43
1.249999999310942
 50
90.0
  0
INSERT
  5
371
330
188
100
AcDbEntity
  8
寸法線
 62
     0
440
 16777216
 48
0.9999999994487541
370
    -2
100
AcDbBlockReference
  2
_OPEN
 10
173.5430511615052
 20
124.7563636911528
 30
0.0
 41
1.249999999310942
 42
1.249999999310942
 43
1.249999999310942
 50
270.0
  0
MTEXT
  5
372
330
188
100
AcDbEntity
  8
寸法線
 62
     0
440
 16777216
 48
0.9999999994487541
100
AcDbMText
 10
172.605551162022
 20
132.256363687019
 30
0.0
 40
1.249999999310942
 41
0.0
 46
0.0
 71
     5
 72
     1
  1
\A1;15
 11
0.0000000000000001
 21
1.0
 31
0.0
 73
     1
 44
1.0
  0
POINT
  5
373
330
188
100
AcDbEntity
  8
Defpoints
 62
     0
440
 16777216
 48
0.9999999994487541
100
AcDbPoint
 10
168.3069207288282
 20
139.7563636828855
 30
0.0
  0
POINT
  5
374
330
188
100
AcDbEntity
  8
Defpoints
 62
     0
440
 16777216
 48
0.9999999994487541
100
AcDbPoint
 10
168.3069207288282
 20
124.7563636911528
 30
0.0
  0
POINT
  5
375
330
188
100
AcDbEntity
  8
Defpoints
 62
     0
440
 16777216
 48
0.9999999994487541
100
AcDbPoint
 10
173.5430511615052
 20
124.7563636911528
 30
0.0
  0
ENDBLK
  5
18A
330
188
100
AcDbEntity
  8
0
100
AcDbBlockEnd
  0
BLOCK
  5
194
330
193
100
AcDbEntity
  8
0
100
AcDbBlockBegin
  2
*D20
 70
     1
 10
0.0
 20
0.0
 30
0.0
  3
*D20
  1

  0
LINE
  5
376
330
193
100
AcDbEntity
  8
寸法線
 62
     0
440
 16777216
 48
0.9999999994487541
370
    -2
100
AcDbLine
 10
168.6194207286559
 20
124.7563636911528
 30
0.0
 11
177.390675077285
 21
124.7563636911528
 31
0.0
  0
LINE
  5
377
330
193
100
AcDbEntity
  8
寸法線
 62
     0
440
 16777216
 48
0.9999999994487541
370
    -2
100
AcDbLine
 10
168.6194207286559
 20
164.7563636691048
 30
0.0
 11
177.390675077285
 21
164.7563636691048
 31
0.0
  0
LINE
  5
378
330
193
100
AcDbEntity
  8
寸法線
 62
     0
440
 16777216
 48
0.9999999994487541
370
    -2
100
AcDbLine
 10
176.7656750776295
 20
126.0063636904637
 30
0.0
 11
176.7656750776295
 21
163.5063636697938
 31
0.0
  0
INSERT
  5
379
330
193
100
AcDbEntity
  8
寸法線
 62
     0
440
 16777216
 48
0.9999999994487541
370
    -2
100
AcDbBlockReference
  2
_OPEN
 10
176.7656750776295
 20
124.7563636911528
 30
0.0
 41
1.249999999310942
 42
1.249999999310942
 43
1.249999999310942
 50
270.0
  0
INSERT
  5
37A
330
193
100
AcDbEntity
  8
寸法線
 62
     0
440
 16777216
 48
0.9999999994487541
370
    -2
100
AcDbBlockReference
  2
_OPEN
 10
176.7656750776295
 20
164.7563636691048
 30
0.0
 41
1.249999999310942
 42
1.249999999310942
 43
1.249999999310942
 50
90.0
  0
MTEXT
  5
37B
330
193
100
AcDbEntity
  8
寸法線
 62
     0
440
 16777216
 48
0.9999999994487541
100
AcDbMText
 10
175.8281750781463
 20
144.8544465029481
 30
0.0
 40
1.249999999310942
 41
0.0
 46
0.0
 71
     5
 72
     1
  1
\A1;40
 11
0.0000000000000001
 21
1.0
 31
0.0
 73
     1
 44
1.0
  0
POINT
  5
37C
330
193
100
AcDbEntity
  8
Defpoints
 62
     0
440
 16777216
 48
0.9999999994487541
100
AcDbPoint
 10
168.3069207288282
 20
124.7563636911528
 30
0.0
  0
POINT
  5
37D
330
193
100
AcDbEntity
  8
Defpoints
 62
     0
440
 16777216
 48
0.9999999994487541
100
AcDbPoint
 10
168.3069207288282
 20
164.7563636691048
 30
0.0
  0
POINT
  5
37E
330
193
100
AcDbEntity
  8
Defpoints
 62
     0
440
 16777216
 48
0.9999999994487541
100
AcDbPoint
 10
176.7656750776295
 20
164.7563636691048
 30
0.0
  0
ENDBLK
  5
195
330
193
100
AcDbEntity
  8
0
100
AcDbBlockEnd
  0
BLOCK
  5
1A0
330
19F
100
AcDbEntity
  8
0
100
AcDbBlockBegin
  2
*D21
 70
     1
 10
0.0
 20
0.0
 30
0.0
  3
*D21
  1

  0
LINE
  5
37F
330
19F
100
AcDbEntity
  8
寸法線
 62
     0
440
 16777216
 48
0.9999999994487541
370
    -2
100
AcDbLine
 10
108.3069207619046
 20
165.0688636689325
 30
0.0
 11
108.3069207619046
 21
169.1703658349171
 31
0.0
  0
LINE
  5
380
330
19F
100
AcDbEntity
  8
寸法線
 62
     0
440
 16777216
 48
0.9999999994487541
370
    -2
100
AcDbLine
 10
168.3069207288281
 20
165.0688636689325
 30
0.0
 11
168.3069207288281
 21
169.1703658349171
 31
0.0
  0
LINE
  5
381
330
19F
100
AcDbEntity
  8
寸法線
 62
     0
440
 16777216
 48
0.9999999994487541
370
    -2
100
AcDbLine
 10
109.5569207612155
 20
168.5453658352617
 30
0.0
 11
167.0569207295171
 21
168.5453658352617
 31
0.0
  0
INSERT
  5
382
330
19F
100
AcDbEntity
  8
寸法線
 62
     0
440
 16777216
 48
0.9999999994487541
370
    -2
100
AcDbBlockReference
  2
_OPEN
 10
108.3069207619046
 20
168.5453658352617
 30
0.0
 41
1.249999999310942
 42
1.249999999310942
 43
1.249999999310942
 50
180.0
  0
INSERT
  5
383
330
19F
100
AcDbEntity
  8
寸法線
 62
     0
440
 16777216
 48
0.9999999994487541
370
    -2
100
AcDbBlockReference
  2
_OPEN
 10
168.3069207288281
 20
168.5453658352617
 30
0.0
 41
1.249999999310942
 42
1.249999999310942
 43
1.249999999310942
  0
MTEXT
  5
384
330
19F
100
AcDbEntity
  8
寸法線
 62
     0
440
 16777216
 48
0.9999999994487541
100
AcDbMText
 10
139.1069207449254
 20
169.4828658347449
 30
0.0
 40
1.249999999310942
 41
0.0
 46
0.0
 71
     5
 72
     1
  1
\A1;60
 73
     1
 44
1.0
  0
POINT
  5
385
330
19F
100
AcDbEntity
  8
Defpoints
 62
     0
440
 16777216
 48
0.9999999994487541
100
AcDbPoint
 10
108.3069207619046
 20
164.7563636691047
 30
0.0
  0
POINT
  5
386
330
19F
100
AcDbEntity
  8
Defpoints
 62
     0
440
 16777216
 48
0.9999999994487541
100
AcDbPoint
 10
168.3069207288281
 20
164.7563636691047
 30
0.0
  0
POINT
  5
387
330
19F
100
AcDbEntity
  8
Defpoints
 62
     0
440
 16777216
 48
0.9999999994487541
100
AcDbPoint
 10
168.3069207288281
 20
168.5453658352617
 30
0.0
  0
ENDBLK
  5
1A1
330
19F
100
AcDbEntity
  8
0
100
AcDbBlockEnd
  0
BLOCK
  5
1AC
330
1AB
100
AcDbEntity
  8
0
100
AcDbBlockBegin
  2
*D22
 70
     1
 10
0.0
 20
0.0
 30
0.0
  3
*D22
  1

  0
LINE
  5
388
330
1AB
100
AcDbEntity
  8
寸法線
 62
     0
440
 16777216
 48
0.9999999994487541
370
    -2
100
AcDbLine
 10
108.3069207619046
 20
165.0688636689325
 30
0.0
 11
108.3069207619046
 21
167.0777750170247
 31
0.0
  0
LINE
  5
389
330
1AB
100
AcDbEntity
  8
寸法線
 62
     0
440
 16777216
 48
0.9999999994487541
370
    -2
100
AcDbLine
 10
150.3069207387598
 20
165.0688636689325
 30
0.0
 11
150.3069207387598
 21
167.0777750170247
 31
0.0
  0
LINE
  5
38A
330
1AB
100
AcDbEntity
  8
寸法線
 62
     0
440
 16777216
 48
0.9999999994487541
370
    -2
100
AcDbLine
 10
109.5569207612155
 20
166.4527750173693
 30
0.0
 11
149.0569207394488
 21
166.4527750173693
 31
0.0
  0
INSERT
  5
38B
330
1AB
100
AcDbEntity
  8
寸法線
 62
     0
440
 16777216
 48
0.9999999994487541
370
    -2
100
AcDbBlockReference
  2
_OPEN
 10
108.3069207619046
 20
166.4527750173693
 30
0.0
 41
1.249999999310942
 42
1.249999999310942
 43
1.249999999310942
 50
180.0
  0
INSERT
  5
38C
330
1AB
100
AcDbEntity
  8
寸法線
 62
     0
440
 16777216
 48
0.9999999994487541
370
    -2
100
AcDbBlockReference
  2
_OPEN
 10
150.3069207387598
 20
166.4527750173693
 30
0.0
 41
1.249999999310942
 42
1.249999999310942
 43
1.249999999310942
  0
MTEXT
  5
38D
330
1AB
100
AcDbEntity
  8
寸法線
 62
     0
440
 16777216
 48
0.9999999994487541
100
AcDbMText
 10
129.3069207503285
 20
167.3902750168525
 30
0.0
 40
1.249999999310942
 41
0.0
 46
0.0
 71
     5
 72
     1
  1
\A1;42
 73
     1
 44
1.0
  0
POINT
  5
38E
330
1AB
100
AcDbEntity
  8
Defpoints
 62
     0
440
 16777216
 48
0.9999999994487541
100
AcDbPoint
 10
108.3069207619046
 20
164.7563636691047
 30
0.0
  0
POINT
  5
38F
330
1AB
100
AcDbEntity
  8
Defpoints
 62
     0
440
 16777216
 48
0.9999999994487541
100
AcDbPoint
 10
150.3069207387598
 20
164.7563636691047
 30
0.0
  0
POINT
  5
390
330
1AB
100
AcDbEntity
  8
Defpoints
 62
     0
440
 16777216
 48
0.9999999994487541
100
AcDbPoint
 10
150.3069207387598
 20
166.4527750173693
 30
0.0
  0
ENDBLK
  5
1AD
330
1AB
100
AcDbEntity
  8
0
100
AcDbBlockEnd
  0
BLOCK
  5
1B8
330
1B7
100
AcDbEntity
  8
0
100
AcDbBlockBegin
  2
*D23
 70
     1
 10
0.0
 20
0.0
 30
0.0
  3
*D23
  1

  0
LINE
  5
391
330
1B7
100
AcDbEntity
  8
寸法線
 62
     0
440
 16777216
 48
0.9999999994487541
370
    -2
100
AcDbLine
 10
108.2616155021824
 20
57.67683521675227
 30
0.0
 11
108.2616155021824
 21
53.32716308991695
 31
0.0
  0
LINE
  5
392
330
1B7
100
AcDbEntity
  8
寸法線
 62
     0
440
 16777216
 48
0.9999999994487541
370
    -2
100
AcDbLine
 10
83.30692077568528
 20
57.67683521675227
 30
0.0
 11
83.30692077568528
 21
53.32716308991695
 31
0.0
  0
LINE
  5
393
330
1B7
100
AcDbEntity
  8
寸法線
 62
     0
440
 16777216
 48
0.9999999994487541
370
    -2
100
AcDbLine
 10
107.0116155028714
 20
53.95216308957242
 30
0.0
 11
84.55692077499623
 21
53.95216308957242
 31
0.0
  0
INSERT
  5
394
330
1B7
100
AcDbEntity
  8
寸法線
 62
     0
440
 16777216
 48
0.9999999994487541
370
    -2
100
AcDbBlockReference
  2
_OPEN
 10
108.2616155021824
 20
53.95216308957242
 30
0.0
 41
1.249999999310942
 42
1.249999999310942
 43
1.249999999310942
  0
INSERT
  5
395
330
1B7
100
AcDbEntity
  8
寸法線
 62
     0
440
 16777216
 48
0.9999999994487541
370
    -2
100
AcDbBlockReference
  2
_OPEN
 10
83.30692077568528
 20
53.95216308957242
 30
0.0
 41
1.249999999310942
 42
1.249999999310942
 43
1.249999999310942
 50
180.0
  0
MTEXT
  5
396
330
1B7
100
AcDbEntity
  8
寸法線
 62
     0
440
 16777216
 48
0.9999999994487541
100
AcDbMText
 10
95.7842681389302
 20
54.88966308905563
 30
0.0
 40
1.249999999310942
 41
0.0
 46
0.0
 71
     5
 72
     1
  1
\A1;25
 73
     1
 44
1.0
  0
POINT
  5
397
330
1B7
100
AcDbEntity
  8
Defpoints
 62
     0
440
 16777216
 48
0.9999999994487541
100
AcDbPoint
 10
108.2616155021824
 20
57.98933521658
 30
0.0
  0
POINT
  5
398
330
1B7
100
AcDbEntity
  8
Defpoints
 62
     0
440
 16777216
 48
0.9999999994487541
100
AcDbPoint
 10
83.30692077568528
 20
57.98933521658
 30
0.0
  0
POINT
  5
399
330
1B7
100
AcDbEntity
  8
Defpoints
 62
     0
440
 16777216
 48
0.9999999994487541
100
AcDbPoint
 10
83.30692077568528
 20
53.95216308957242
 30
0.0
  0
ENDBLK
  5
1B9
330
1B7
100
AcDbEntity
  8
0
100
AcDbBlockEnd
  0
BLOCK
  5
1C4
330
1C3
100
AcDbEntity
  8
0
100
AcDbBlockBegin
  2
*D24
 70
     1
 10
0.0
 20
0.0
 30
0.0
  3
*D24
  1

  0
LINE
  5
39A
330
1C3
100
AcDbEntity
  8
寸法線
 62
     0
440
 16777216
 48
0.9999999994487541
370
    -2
100
AcDbLine
 10
83.61942077551304
 20
57.98933521658003
 30
0.0
 11
88.32079256509059
 21
57.98933521658003
 31
0.0
  0
LINE
  5
39B
330
1C3
100
AcDbEntity
  8
寸法線
 62
     0
440
 16777216
 48
0.9999999994487541
370
    -2
100
AcDbLine
 10
83.61942077551304
 20
42.98933522484914
 30
0.0
 11
88.32079256509059
 21
42.98933522484914
 31
0.0
  0
LINE
  5
39C
330
1C3
100
AcDbEntity
  8
寸法線
 62
     0
440
 16777216
 48
0.9999999994487541
370
    -2
100
AcDbLine
 10
87.69579256543512
 20
56.73933521726908
 30
0.0
 11
87.69579256543512
 21
44.23933522416009
 31
0.0
  0
INSERT
  5
39D
330
1C3
100
AcDbEntity
  8
寸法線
 62
     0
440
 16777216
 48
0.9999999994487541
370
    -2
100
AcDbBlockReference
  2
_OPEN
 10
87.69579256543512
 20
57.98933521658003
 30
0.0
 41
1.249999999310942
 42
1.249999999310942
 43
1.249999999310942
 50
90.0
  0
INSERT
  5
39E
330
1C3
100
AcDbEntity
  8
寸法線
 62
     0
440
 16777216
 48
0.9999999994487541
370
    -2
100
AcDbBlockReference
  2
_OPEN
 10
87.69579256543512
 20
42.98933522484914
 30
0.0
 41
1.249999999310942
 42
1.249999999310942
 43
1.249999999310942
 50
270.0
  0
MTEXT
  5
39F
330
1C3
100
AcDbEntity
  8
寸法線
 62
     0
440
 16777216
 48
0.9999999994487541
100
AcDbMText
 10
86.75829256595191
 20
50.48933522072184
 30
0.0
 40
1.249999999310942
 41
0.0
 46
0.0
 71
     5
 72
     1
  1
\A1;15
 11
0.0000000000000001
 21
1.0
 31
0.0
 73
     1
 44
1.0
  0
POINT
  5
3A0
330
1C3
100
AcDbEntity
  8
Defpoints
 62
     0
440
 16777216
 48
0.9999999994487541
100
AcDbPoint
 10
83.30692077568532
 20
57.98933521658003
 30
0.0
  0
POINT
  5
3A1
330
1C3
100
AcDbEntity
  8
Defpoints
 62
     0
440
 16777216
 48
0.9999999994487541
100
AcDbPoint
 10
83.30692077568532
 20
42.98933522484914
 30
0.0
  0
POINT
  5
3A2
330
1C3
100
AcDbEntity
  8
Defpoints
 62
     0
440
 16777216
 48
0.9999999994487541
100
AcDbPoint
 10
87.69579256543512
 20
42.98933522484914
 30
0.0
  0
ENDBLK
  5
1C5
330
1C3
100
AcDbEntity
  8
0
100
AcDbBlockEnd
  0
BLOCK
  5
1D0
330
1CF
100
AcDbEntity
  8
0
100
AcDbBlockBegin
  2
*D25
 70
     1
 10
0.0
 20
0.0
 30
0.0
  3
*D25
  1

  0
LINE
  5
3A3
330
1CF
100
AcDbEntity
  8
寸法線
 62
     0
440
 16777216
 48
0.9999999994487541
370
    -2
100
AcDbLine
 10
81.39442077673214
 20
149.7563636773866
 30
0.0
 11
78.82975980683366
 21
149.7563636773866
 31
0.0
  0
LINE
  5
3A4
330
1CF
100
AcDbEntity
  8
寸法線
 62
     0
440
 16777216
 48
0.9999999994487541
370
    -2
100
AcDbLine
 10
81.39442077673942
 20
139.7563636829164
 30
0.0
 11
78.82975980683366
 21
139.7563636829164
 31
0.0
  0
LINE
  5
3A5
330
1CF
100
AcDbEntity
  8
寸法線
 62
     0
440
 16777216
 48
0.9999999994487541
370
    -2
100
AcDbLine
 10
79.45475980648914
 20
148.5063636780757
 30
0.0
 11
79.45475980648914
 21
141.0063636822273
 31
0.0
  0
INSERT
  5
3A6
330
1CF
100
AcDbEntity
  8
寸法線
 62
     0
440
 16777216
 48
0.9999999994487541
370
    -2
100
AcDbBlockReference
  2
_OPEN
 10
79.45475980648914
 20
149.7563636773866
 30
0.0
 41
1.249999999310942
 42
1.249999999310942
 43
1.249999999310942
 50
90.0
  0
INSERT
  5
3A7
330
1CF
100
AcDbEntity
  8
寸法線
 62
     0
440
 16777216
 48
0.9999999994487541
370
    -2
100
AcDbBlockReference
  2
_OPEN
 10
79.45475980648914
 20
139.7563636829164
 30
0.0
 41
1.249999999310942
 42
1.249999999310942
 43
1.249999999310942
 50
270.0
  0
MTEXT
  5
3A8
330
1CF
100
AcDbEntity
  8
寸法線
 62
     0
440
 16777216
 48
0.9999999994487541
100
AcDbMText
 10
78.51725980700596
 20
144.7563636801533
 30
0.0
 40
1.249999999310942
 41
0.0
 46
0.0
 71
     5
 72
     1
  1
\A1;10
 11
0.0000000000000001
 21
1.0
 31
0.0
 73
     1
 44
1.0
  0
POINT
  5
3A9
330
1CF
100
AcDbEntity
  8
Defpoints
 62
     0
440
 16777216
 48
0.9999999994487541
100
AcDbPoint
 10
81.70692077655989
 20
149.7563636773866
 30
0.0
  0
POINT
  5
3AA
330
1CF
100
AcDbEntity
  8
Defpoints
 62
     0
440
 16777216
 48
0.9999999994487541
100
AcDbPoint
 10
81.70692077656715
 20
139.7563636829164
 30
0.0
  0
POINT
  5
3AB
330
1CF
100
AcDbEntity
  8
Defpoints
 62
     0
440
 16777216
 48
0.9999999994487541
100
AcDbPoint
 10
79.45475980648914
 20
139.7563636829164
 30
0.0
  0
ENDBLK
  5
1D1
330
1CF
100
AcDbEntity
  8
0
100
AcDbBlockEnd
  0
BLOCK
  5
320
330
31F
100
AcDbEntity
  8
0
100
AcDbBlockBegin
  2
TITLE_BLOCK
 70
     0
 10
0.0
 20
0.0
 30
0.0
  3
TITLE_BLOCK
  1

  0
LINE
  5
321
330
31F
100
AcDbEntity
  8
0
 62
     5
100
AcDbLine
 10
10.0
 20
200.0
 30
0.0
 11
10.0
 21
10.0
 31
0.0
  0
LINE
  5
322
330
31F
100
AcDbEntity
  8
0
 62
     5
100
AcDbLine
 10
10.0
 20
10.0
 30
0.0
 11
287.0
 21
10.0
 31
0.0
  0
LINE
  5
323
330
31F
100
AcDbEntity
  8
0
 62
     5
100
AcDbLine
 10
287.0
 20
200.0
 30
0.0
 11
287.0
 21
10.0
 31
0.0
  0
LINE
  5
324
330
31F
100
AcDbEntity
  8
0
 62
     5
100
AcDbLine
 10
10.0
 20
200.0
 30
0.0
 11
287.0
 21
200.0
 31
0.0
  0
ENDBLK
  5
325
330
31F
100
AcDbEntity
  8
0
100
AcDbBlockEnd
  0
ENDSEC
  0
SECTION
  2
ENTITIES
  0
LWPOLYLINE
  5
7C
330
70
100
AcDbEntity
  8
VIEWPORT
  6
Continuous
100
AcDbPolyline
 90
        4
 70
     1
 43
0.0
 10
-4.686621979846648
 20
-4.708272101743148
 10
292.3133780201533
 20
-4.708272101743148
 10
292.3133780201533
 20
205.2917278982568
 10
-4.686621979846648
 20
205.2917278982568
  0
LINE
  5
80
330
70
100
AcDbEntity
  8
基本図面
 48
0.9999999994487541
100
AcDbLine
 10
108.3069207619046
 20
164.7563636691047
 30
0.0
 11
158.5931837096796
 21
164.7563636691047
 31
0.0
  0
LINE
  5
84
330
70
100
AcDbEntity
  8
基本図面
 48
0.9999999994487541
100
AcDbLine
 10
108.3069207619046
 20
124.7563636911763
 30
0.0
 11
158.5931837096796
 21
124.7563636911527
 31
0.0
  0
LINE
  5
85
330
70
100
AcDbEntity
  8
基本図面
 48
0.9999999994487541
100
AcDbLine
 10
81.7069207765744
 20
149.7563636773848
 30
0.0
 11
108.3069207619119
 21
149.7563636773975
 31
0.0
  0
LINE
  5
86
330
70
100
AcDbEntity
  8
基本図面
 48
0.9999999994487541
100
AcDbLine
 10
81.70692077656713
 20
139.7563636829181
 30
0.0
 11
108.3069207619046
 21
139.7563636828981
 31
0.0
  0
LINE
  5
87
330
70
100
AcDbEntity
  8
点線
 48
0.9999999994487541
100
AcDbLine
 10
150.3069207387671
 20
124.7563636911509
 30
0.0
 11
150.3069207387671
 21
139.7563636828836
 31
0.0
  0
LINE
  5
8B
330
70
100
AcDbEntity
  8
点線
 48
0.9999999994487541
100
AcDbLine
 10
108.3069207619119
 20
139.7563636829181
 30
0.0
 11
150.3069207387671
 21
139.756363682929
 31
0.0
  0
LINE
  5
8C
330
70
100
AcDbEntity
  8
点線
 48
0.9999999994487541
100
AcDbLine
 10
109.90692076103
 20
139.7563636829181
 30
0.0
 11
109.90692076103
 21
149.7563636773666
 31
0.0
  0
LINE
  5
8D
330
70
100
AcDbEntity
  8
点線
 48
0.9999999994487541
100
AcDbLine
 10
150.3069207387598
 20
149.7563636773648
 30
0.0
 11
108.3069207619191
 21
149.7563636773975
 31
0.0
  0
LINE
  5
8E
330
70
100
AcDbEntity
  8
基本図面
 48
0.9999999994487541
100
AcDbLine
 10
109.9069207610227
 20
105.7893065240168
 30
0.0
 11
109.9069207610227
 21
105.7893065240187
 31
0.0
  0
LINE
  5
8F
330
70
100
AcDbEntity
  8
基本図面
 48
0.9999999994487541
100
AcDbLine
 10
109.9069412840181
 20
109.6209164483953
 30
0.0
 11
158.5931837096868
 21
109.5893065219188
 31
0.0
  0
LINE
  5
90
330
70
100
AcDbEntity
  8
基本図面
 48
0.9999999994487541
100
AcDbLine
 10
109.0616155017414
 20
57.98933521658
 30
0.0
 11
150.3069207387525
 21
57.98933521658
 31
0.0
  0
DIMENSION
  5
91
330
70
100
AcDbEntity
  8
寸法線
 48
0.9999999994487541
100
AcDbDimension
280
     0
  2
*D14
 10
108.3069207618973
 20
119.157140283005
 30
0.0
 11
139.1069207449254
 21
119.157140283005
 31
0.0
 70
   160
 71
     5
 42
60.00000000000551
 73
     0
 74
     0
 75
     0
  3
STANDARD_WS
100
AcDbAlignedDimension
 13
168.3069207288281
 23
110.3893065214761
 33
0.0
 14
108.3069207618973
 24
105.0465380204623
 34
0.0
100
AcDbRotatedDimension
1001
ACAD
1000
DSTYLE
1002
{
1070
   144
1040
1.000000000551245
1070
    40
1040
0.4999999997243771
1070
   173
1070
     1
1070
   271
1070
     1
1070
   272
1070
     1
1070
   288
1070
     1
1070
   343
1005
9B
1070
   344
1005
9B
1002
}
  0
DIMENSION
  5
A7
330
70
100
AcDbEntity
  8
寸法線
 48
0.9999999994487541
100
AcDbDimension
280
     0
  2
*D15
 10
150.3069207387525
 20
53.93303717344133
 30
0.0
 11
131.5842681192007
 21
53.93303717344133
 31
0.0
 70
   160
 71
     5
 42
42.0324625898974
 73
     0
 74
     0
 75
     0
  3
STANDARD_WS
100
AcDbAlignedDimension
 13
108.2744581720253
 23
57.98933521658
 33
0.0
 14
150.3069207387525
 24
57.98933521658
 34
0.0
100
AcDbRotatedDimension
1001
ACAD
1000
DSTYLE
1002
{
1070
   144
1040
1.000000000551245
1070
    40
1040
0.4999999997243771
1070
   173
1070
     1
1070
   271
1070
     1
1070
   272
1070
     1
1070
   288
1070
     1
1070
   343
1005
9B
1070
   344
1005
9B
1002
}
  0
DIMENSION
  5
B4
330
70
100
AcDbEntity
  8
寸法線
 48
0.9999999994487541
100
AcDbDimension
280
     0
  2
*D16
 10
145.9262356576146
 20
109.5893065219189
 30
0.0
 11
145.9262356576146
 21
83.78932086925852
 31
0.0
 70
   160
 71
     5
 42
49.99664251006382
 73
     0
 74
     0
 75
     0
  3
STANDARD_WS
100
AcDbAlignedDimension
 13
149.062145533062
 23
59.59266403941547
 33
0.0
 14
148.2673695274934
 24
109.5893065219188
 34
0.0
 50
90.0
100
AcDbRotatedDimension
1001
ACAD
1000
DSTYLE
1002
{
1070
   144
1040
1.000000000551245
1070
    40
1040
0.4999999997243771
1070
   173
1070
     1
1070
   271
1070
     1
1070
   272
1070
     1
1070
   288
1070
     1
1070
   343
1005
9B
1070
   344
1005
9B
1002
}
  0
DIMENSION
  5
C1
330
70
100
AcDbEntity
  8
寸法線
 48
0.9999999994487541
100
AcDbDimension
280
     0
  2
*D17
 10
173.5430511614468
 20
149.7563636773739
 30
0.0
 11
173.5430511614468
 21
157.2398062649263
 31
0.0
 70
   160
 71
     5
 42
14.99999999999956
 73
     0
 74
     0
 75
     0
  3
STANDARD_WS
100
AcDbAlignedDimension
 13
168.3069207288281
 23
164.7563636691047
 33
0.0
 14
168.3069207288281
 24
149.7563636773739
 34
0.0
 50
90.0
100
AcDbRotatedDimension
1001
ACAD
1000
DSTYLE
1002
{
1070
   144
1040
1.000000000551245
1070
    40
1040
0.4999999997243771
1070
   173
1070
     1
1070
   271
1070
     1
1070
   272
1070
     1
1070
   288
1070
     1
1070
   343
1005
9B
1070
   344
1005
9B
1002
}
  0
DIMENSION
  5
CE
330
70
100
AcDbEntity
  8
寸法線
 48
0.9999999994487541
100
AcDbDimension
280
     0
  2
*D18
 10
173.5430511615052
 20
139.7563636828855
 30
0.0
 11
172.605551162022
 21
144.7563636801296
 31
0.0
 70
    32
 71
     5
 42
10.00000000000092
 73
     0
 74
     0
 75
     0
  3
STANDARD_WS
100
AcDbAlignedDimension
 13
168.3069207288281
 23
149.7563636773739
 33
0.0
 14
168.3069207288281
 24
139.7563636828854
 34
0.0
 50
90.0
100
AcDbRotatedDimension
1001
ACAD
1000
DSTYLE
1002
{
1070
   144
1040
1.000000000551245
1070
    40
1040
0.4999999997243771
1070
    75
1070
     1
1070
   173
1070
     1
1070
   271
1070
     1
1070
   272
1070
     1
1070
   279
1070
     1
1070
   288
1070
     1
1070
   343
1005
9B
1070
   344
1005
9B
1002
}
  0
DIMENSION
  5
DA
330
70
100
AcDbEntity
  8
寸法線
 48
0.9999999994487541
100
AcDbDimension
280
     0
  2
*D19
 10
173.5430511615052
 20
124.7563636911528
 30
0.0
 11
172.605551162022
 21
132.256363687019
 31
0.0
 70
    32
 71
     5
 42
15.00000000000139
 73
     0
 74
     0
 75
     0
  3
STANDARD_WS
100
AcDbAlignedDimension
 13
168.3069207288281
 23
139.7563636828854
 33
0.0
 14
168.3069207288281
 24
124.7563636911527
 34
0.0
 50
90.0
100
AcDbRotatedDimension
1001
ACAD
1000
DSTYLE
1002
{
1070
   144
1040
1.000000000551245
1070
    40
1040
0.4999999997243771
1070
    75
1070
     1
1070
   173
1070
     1
1070
   271
1070
     1
1070
   272
1070
     1
1070
   279
1070
     1
1070
   288
1070
     1
1070
   343
1005
9B
1070
   344
1005
9B
1002
}
  0
DIMENSION
  5
E6
330
70
100
AcDbEntity
  8
寸法線
 48
0.9999999994487541
100
AcDbDimension
280
     0
  2
*D20
 10
176.7656750776295
 20
164.7563636691048
 30
0.0
 11
176.7656750776295
 21
144.8544465029481
 31
0.0
 70
   160
 71
     5
 42
40.00000000000187
 73
     0
 74
     0
 75
     0
  3
STANDARD_WS
100
AcDbAlignedDimension
 13
168.3069207288281
 23
124.7563636911527
 33
0.0
 14
168.3069207288281
 24
164.7563636691047
 34
0.0
 50
90.0
100
AcDbRotatedDimension
1001
ACAD
1000
DSTYLE
1002
{
1070
   144
1040
1.000000000551245
1070
    40
1040
0.4999999997243771
1070
   173
1070
     1
1070
   271
1070
     1
1070
   272
1070
     1
1070
   288
1070
     1
1070
   343
1005
9B
1070
   344
1005
9B
1002
}
  0
DIMENSION
  5
F3
330
70
100
AcDbEntity
  8
寸法線
 48
0.9999999994487541
100
AcDbDimension
280
     0
  2
*D21
 10
168.3069207288281
 20
168.5453658352617
 30
0.0
 11
139.1069207449254
 21
168.5453658352617
 31
0.0
 70
   160
 71
     5
 42
59.99999999999824
 73
     0
 74
     0
 75
     0
  3
STANDARD_WS
100
AcDbAlignedDimension
 13
108.3069207619046
 23
164.7563636691047
 33
0.0
 14
168.3069207288281
 24
164.7563636691047
 34
0.0
100
AcDbRotatedDimension
1001
ACAD
1000
DSTYLE
1002
{
1070
   144
1040
1.000000000551245
1070
    40
1040
0.4999999997243771
1070
   173
1070
     1
1070
   271
1070
     1
1070
   272
1070
     1
1070
   288
1070
     1
1070
   343
1005
9B
1070
   344
1005
9B
1002
}
  0
DIMENSION
  5
100
330
70
100
AcDbEntity
  8
寸法線
 48
0.9999999994487541
100
AcDbDimension
280
     0
  2
*D22
 10
150.3069207387598
 20
166.4527750173693
 30
0.0
 11
129.3069207503285
 21
166.4527750173693
 31
0.0
 70
   160
 71
     5
 42
42.00000000000749
 73
     0
 74
     0
 75
     0
  3
STANDARD_WS
100
AcDbAlignedDimension
 13
108.3069207619046
 23
164.7563636691047
 33
0.0
 14
150.3069207387598
 24
164.7563636691047
 34
0.0
100
AcDbRotatedDimension
1001
ACAD
1000
DSTYLE
1002
{
1070
   144
1040
1.000000000551245
1070
    40
1040
0.4999999997243771
1070
   173
1070
     1
1070
   271
1070
     1
1070
   272
1070
     1
1070
   288
1070
     1
1070
   343
1005
9B
1070
   344
1005
9B
1002
}
  0
LEADER
  5
10D
330
70
100
AcDbEntity
  8
寸法線
 48
0.9999999994487541
100
AcDbLeader
  3
STANDARD_WS
 73
     0
 75
     1
 40
1.249999999310942
 41
3.333333331495847
 76
     3
 10
108.3069207618973
 20
107.289306523191
 30
0.0
 10
99.16466391485025
 20
113.1732434758653
 30
0.0
 10
97.91466391553932
 20
113.1732434758653
 30
0.0
340
10E
1001
ACAD
1000
DSTYLE
1002
{
1070
   341
1005
9B
1070
    40
1040
0.4999999997243771
1070
   173
1070
     1
1070
   271
1070
     1
1070
   272
1070
     1
1070
   288
1070
     1
1070
   343
1005
9B
1070
   344
1005
9B
1002
}
  0
MTEXT
  5
10E
102
{ACAD_REACTORS
330
10D
102
}
330
70
100
AcDbEntity
  8
寸法線
 48
0.9999999994487541
100
AcDbMText
 10
97.60216391571157
 20
114.1107434753485
 30
0.0
 40
1.249999999310942
 41
0.0
 46
0.0
 71
     6
 72
     1
  1
\A1;t1.6
 73
     1
 44
1.0
  0
LINE
  5
10F
330
70
100
AcDbEntity
  8
基本図面
 48
0.9999999994487541
100
AcDbLine
 10
158.5931837096796
 20
164.7563636691047
 30
0.0
 11
168.3069207288281
 21
164.7563636691047
 31
0.0
  0
LINE
  5
110
330
70
100
AcDbEntity
  8
基本図面
 48
0.9999999994487541
100
AcDbLine
 10
158.5931837096796
 20
124.7563636911527
 30
0.0
 11
168.3069207288281
 21
124.7563636911527
 31
0.0
  0
LINE
  5
111
330
70
100
AcDbEntity
  8
基本図面
 48
0.9999999994487541
100
AcDbLine
 10
158.5931837096868
 20
109.5893065219188
 30
0.0
 11
168.3069207288281
 21
109.5893065219188
 31
0.0
  0
LINE
  5
112
330
70
100
AcDbEntity
  8
基本図面
 48
0.9999999994487541
100
AcDbLine
 10
150.3069207387525
 20
59.58933504154993
 30
0.0
 11
150.3069207387525
 21
57.98933521658
 31
0.0
  0
LINE
  5
113
330
70
100
AcDbEntity
  8
点線
 48
0.9999999994487541
100
AcDbLine
 10
150.3069207387452
 20
149.7563636773648
 30
0.0
 11
150.3069207387598
 21
164.7563636691047
 31
0.0
  0
LINE
  5
114
330
70
100
AcDbEntity
  8
基本図面
 48
0.9999999994487541
100
AcDbLine
 10
109.0616155017414
 20
57.98933521658
 30
0.0
 11
83.30692077568528
 21
57.98933521658
 31
0.0
  0
LINE
  5
115
330
70
100
AcDbEntity
  8
基本図面
 48
0.9999999994487541
100
AcDbLine
 10
83.30692077568528
 20
57.98933521658
 30
0.0
 11
83.30692077568528
 21
42.98933522484913
 31
0.0
  0
DIMENSION
  5
116
330
70
100
AcDbEntity
  8
寸法線
 48
0.9999999994487541
100
AcDbDimension
280
     0
  2
*D23
 10
83.30692077568528
 20
53.95216308957242
 30
0.0
 11
95.7842681389302
 21
53.95216308957242
 31
0.0
 70
   160
 71
     5
 42
24.95469474025328
 73
     0
 74
     0
 75
     0
  3
STANDARD_WS
100
AcDbAlignedDimension
 13
108.2616155021824
 23
57.98933521658
 33
0.0
 14
83.30692077568528
 24
57.98933521658
 34
0.0
100
AcDbRotatedDimension
1001
ACAD
1000
DSTYLE
1002
{
1070
   144
1040
1.000000000551245
1070
    40
1040
0.4999999997243771
1070
   173
1070
     1
1070
   271
1070
     1
1070
   272
1070
     1
1070
   288
1070
     1
1070
   343
1005
9B
1070
   344
1005
9B
1002
}
  0
DIMENSION
  5
123
330
70
100
AcDbEntity
  8
寸法線
 48
0.9999999994487541
100
AcDbDimension
280
     0
  2
*D24
 10
87.69579256543512
 20
42.98933522484914
 30
0.0
 11
87.69579256543512
 21
50.48933522072184
 31
0.0
 70
   160
 71
     5
 42
14.99999999999956
 73
     0
 74
     0
 75
     0
  3
STANDARD_WS
100
AcDbAlignedDimension
 13
83.30692077568528
 23
57.98933521658
 33
0.0
 14
83.30692077568528
 24
42.98933522484913
 34
0.0
 50
90.0
100
AcDbRotatedDimension
1001
ACAD
1000
DSTYLE
1002
{
1070
   144
1040
1.000000000551245
1070
    40
1040
0.4999999997243771
1070
   173
1070
     1
1070
   271
1070
     1
1070
   272
1070
     1
1070
   288
1070
     1
1070
   343
1005
9B
1070
   344
1005
9B
1002
}
  0
DIMENSION
  5
130
330
70
100
AcDbEntity
  8
寸法線
 48
0.9999999994487541
100
AcDbDimension
280
     0
  2
*D25
 10
79.45475980648914
 20
139.7563636829164
 30
0.0
 11
79.45475980648916
 21
144.7563636801533
 31
0.0
 70
   160
 71
     5
 42
9.999999999982728
 73
     0
 74
     0
 75
     0
  3
STANDARD_WS
100
AcDbAlignedDimension
 13
81.70692077655985
 23
149.7563636773866
 33
0.0
 14
81.70692077656713
 24
139.7563636829163
 34
0.0
 50
90.0
100
AcDbRotatedDimension
1001
ACAD
1000
DSTYLE
1002
{
1070
   144
1040
1.000000000551245
1070
    40
1040
0.4999999997243771
1070
   173
1070
     1
1070
   271
1070
     1
1070
   272
1070
     1
1070
   288
1070
     1
1070
   343
1005
9B
1070
   344
1005
9B
1002
}
  0
LINE
  5
13D
330
70
100
AcDbEntity
  8
基本図面
 48
0.9999999994487541
100
AcDbLine
 10
81.70692077655985
 20
42.98933522484913
 30
0.0
 11
83.30692077568528
 21
42.98933522484913
 31
0.0
  0
LINE
  5
13E
330
70
100
AcDbEntity
  8
基本図面
 48
0.9999999994487541
100
AcDbLine
 10
108.3069207618973
 20
111.189306521026
 30
0.0
 11
108.3069207619046
 21
59.58933521569633
 31
0.0
  0
LINE
  5
13F
330
70
100
AcDbEntity
  8
基本図面
 48
0.9999999994487541
100
AcDbLine
 10
108.3069207619046
 20
59.58933521569633
 30
0.0
 11
81.70692077655985
 21
59.58933521569633
 31
0.0
  0
LINE
  5
140
330
70
100
AcDbEntity
  8
基本図面
 48
0.9999999994487541
100
AcDbLine
 10
81.70692077655985
 20
59.58933521569633
 30
0.0
 11
81.70692077655985
 21
42.98933522484913
 31
0.0
  0
LINE
  5
141
330
70
100
AcDbEntity
  8
基本図面
 48
0.9999999994487541
100
AcDbLine
 10
109.9069400042062
 20
59.61849947370137
 30
0.0
 11
150.3069207387525
 21
59.58933504154993
 31
0.0
  0
LINE
  5
142
330
70
100
AcDbEntity
  8
基本図面
 48
0.9999999994487541
100
AcDbLine
 10
108.3069207619046
 20
124.7563636911527
 30
0.0
 11
108.3069207619119
 21
139.756363682889
 31
0.0
  0
LINE
  5
143
330
70
100
AcDbEntity
  8
基本図面
 48
0.9999999994487541
100
AcDbLine
 10
108.3069207619119
 20
139.7563636828909
 30
0.0
 11
108.3069207619191
 21
149.7563636773666
 31
0.0
  0
LINE
  5
144
330
70
100
AcDbEntity
  8
基本図面
 48
0.9999999994487541
100
AcDbLine
 10
108.3069207619119
 20
149.7563636773739
 30
0.0
 11
108.3069207619046
 21
164.7563636691047
 31
0.0
  0
LINE
  5
145
330
70
100
AcDbEntity
  8
基本図面
 48
0.9999999994487541
100
AcDbLine
 10
81.70692077656713
 20
139.756363682909
 30
0.0
 11
81.7069207765744
 21
149.7563636773848
 31
0.0
  0
LINE
  5
146
330
70
100
AcDbEntity
  8
点線
 48
0.9999999994487541
100
AcDbLine
 10
83.30692077569256
 20
139.7563636828981
 30
0.0
 11
83.30692077568528
 21
149.7563636773866
 31
0.0
  0
LINE
  5
147
330
70
100
AcDbEntity
  8
基本図面
 48
0.9999999994487541
100
AcDbLine
 10
168.3069207288281
 20
124.7563636911527
 30
0.0
 11
168.3069207288281
 21
164.7563636691047
 31
0.0
  0
LINE
  5
148
330
70
100
AcDbEntity
  8
基本図面
 48
0.9999999994487541
100
AcDbLine
 10
168.3069207288281
 20
111.1893065210352
 30
0.0
 11
168.3069207288281
 21
109.589306521917
 31
0.0
  0
LINE
  5
149
330
70
100
AcDbEntity
  8
基本図面
 48
0.9999999994487541
100
AcDbLine
 10
108.3069207618973
 20
111.189306521026
 30
0.0
 11
168.3069207288281
 21
111.1893065210352
 31
0.0
  0
LINE
  5
14A
330
70
100
AcDbEntity
  8
基本図面
 48
0.9999999994487541
100
AcDbLine
 10
109.9069412840181
 20
109.6209164483953
 30
0.0
 11
109.9069400042062
 21
59.61849947370137
 31
0.0
  0
LINE
  5
14B
330
70
100
AcDbEntity
  8
寸法線
 48
0.9999999994487541
100
AcDbLine
 10
108.3069207619046
 20
59.58933521569633
 30
0.0
 11
108.3069207619046
 21
57.98933521658
 31
0.0
  0
LINE
  5
14C
330
70
100
AcDbEntity
  8
寸法線
 48
0.9999999994487541
100
AcDbLine
 10
150.3069207387525
 20
59.58933521569633
 30
0.0
 11
150.3069207387525
 21
57.98933521658
 31
0.0
  0
INSERT
  5
31B
330
70
100
AcDbEntity
  8
図面枠
100
AcDbBlockReference
  2
TITLE_BLOCK
 10
-4.686621979846677
 20
-4.708272101743148
 30
0.0
  0
LINE
  5
326
330
70
100
AcDbEntity
  8
図面枠
100
AcDbLine
 10
182.3133780201534
 20
5.291727903512253
 30
0.0
 11
182.3133780201534
 21
45.29172790351224
 31
0.0
  0
LINE
  5
327
330
70
100
AcDbEntity
  8
図面枠
100
AcDbLine
 10
282.3133780201533
 20
15.29172790351225
 30
0.0
 11
182.3133780201534
 21
15.29172790351225
 31
0.0
  0
LINE
  5
328
330
70
100
AcDbEntity
  8
図面枠
100
AcDbLine
 10
282.3133780201533
 20
25.29172790351225
 30
0.0
 11
243.3133780201534
 21
25.29172790351225
 31
0.0
  0
LINE
  5
329
330
70
100
AcDbEntity
  8
図面枠
100
AcDbLine
 10
282.3133780201533
 20
35.29172790351225
 30
0.0
 11
182.3133780201534
 21
35.29172790351225
 31
0.0
  0
LINE
  5
32A
330
70
100
AcDbEntity
  8
図面枠
100
AcDbLine
 10
282.3133780201533
 20
45.29172790351225
 30
0.0
 11
182.3133780201534
 21
45.29172790351225
 31
0.0
  0
LINE
  5
32B
330
70
100
AcDbEntity
  8
図面枠
100
AcDbLine
 10
197.3133780201534
 20
35.29172790351225
 30
0.0
 11
197.3133780201534
 21
45.29172790351224
 31
0.0
  0
LINE
  5
32C
330
70
100
AcDbEntity
  8
図面枠
100
AcDbLine
 10
187.3133780201533
 20
15.29172790351225
 30
0.0
 11
187.3133780201533
 21
35.29172790351225
 31
0.0
  0
LINE
  5
32D
330
70
100
AcDbEntity
  8
図面枠
100
AcDbLine
 10
200.3133780201534
 20
15.29172790351225
 30
0.0
 11
200.3133780201534
 21
35.29172790351225
 31
0.0
  0
LINE
  5
32E
330
70
100
AcDbEntity
  8
図面枠
100
AcDbLine
 10
205.3133780201534
 20
15.29172790351225
 30
0.0
 11
205.3133780201534
 21
35.29172790351225
 31
0.0
  0
LINE
  5
32F
330
70
100
AcDbEntity
  8
図面枠
100
AcDbLine
 10
218.3133780201534
 20
15.29172790351225
 30
0.0
 11
218.3133780201534
 21
25.29172790351225
 31
0.0
  0
LINE
  5
330
330
70
100
AcDbEntity
  8
図面枠
100
AcDbLine
 10
223.3133780201534
 20
15.29172790351225
 30
0.0
 11
223.3133780201534
 21
25.29172790351225
 31
0.0
  0
LINE
  5
331
330
70
100
AcDbEntity
  8
図面枠
100
AcDbLine
 10
236.3133780201534
 20
5.291727903512253
 30
0.0
 11
236.3133780201534
 21
35.29172790351225
 31
0.0
  0
LINE
  5
332
330
70
100
AcDbEntity
  8
図面枠
100
AcDbLine
 10
243.3133780201534
 20
5.291727903512253
 30
0.0
 11
243.3133780201534
 21
35.29172790351225
 31
0.0
  0
LINE
  5
333
330
70
100
AcDbEntity
  8
図面枠
100
AcDbLine
 10
236.3133780201534
 20
25.29172790351225
 30
0.0
 11
182.3133780201534
 21
25.29172790351225
 31
0.0
  0
MTEXT
  5
334
330
70
100
AcDbEntity
  8
図面枠
100
AcDbMText
 10
183.7448862891493
 20
43.30304212884811
 30
0.0
 40
4.0
 41
12.03643143182296
 46
0.0
 71
     1
 72
     5
  1
\fMS UI Gothic|b0|i0|c128|p2;名称
 73
     1
 44
1.0
  0
MTEXT
  5
335
330
70
100
AcDbEntity
  8
図面枠
100
AcDbMText
 10
184.8067255505119
 20
20.29172790351225
 30
0.0
 40
2.5
 41
4.98669506071708
 46
10.0
 71
     5
 72
     5
  1
{\fMS UI Gothic|b0|i0|c128|p50;縮尺}
 73
     1
 44
1.0
  0
MTEXT
  5
336
330
70
100
AcDbEntity
  8
図面枠
100
AcDbMText
 10
184.8067255505119
 20
30.29172790351225
 30
0.0
 40
2.5
 41
4.986695060717108
 46
9.999999999999998
 71
     5
 72
     5
  1
{\fMS UI Gothic|b0|i0|c128|p50;製図}
 73
     1
 44
1.0
  0
MTEXT
  5
337
330
70
100
AcDbEntity
  8
図面枠
100
AcDbMText
 10
202.8067255505119
 20
20.29172790351225
 30
0.0
 40
2.5
 41
4.986695060717108
 46
10.0
 71
     5
 72
     5
  1
{\fMS UI Gothic|b0|i0|c128|p50;検図}
 73
     1
 44
1.0
  0
MTEXT
  5
338
330
70
100
AcDbEntity
  8
図面枠
100
AcDbMText
 10
220.8133780201534
 20
20.29172790351225
 30
0.0
 40
2.5
 41
5.000000000000012
 46
10.0
 71
     5
 72
     5
  1
{\fMS UI Gothic|b0|i0|c128|p50;承認}
 73
     1
 44
1.0
  0
MTEXT
  5
339
330
70
100
AcDbEntity
  8
図面枠
100
AcDbMText
 10
239.8133780201534
 20
25.29172790351225
 30
0.0
 40
2.5
 41
7.00000000000004
 46
20.0
 71
     5
 72
     5
  1
{\fMS UI Gothic|b0|i0|c128|p50;訂　正}
 73
     1
 44
1.0
  0
MTEXT
  5
33A
330
70
100
AcDbEntity
  8
図面枠
100
AcDbMText
 10
209.3133780201534
 20
10.29172790351225
 30
0.0
 40
4.0
 41
53.99999999999995
 46
10.0
 71
     5
 72
     5
  1
{\fMS UI Gothic|b0|i0|c128|p50;株式会社キョーワ}
 73
     1
 44
1.0
  0
MTEXT
  5
33B
330
70
100
AcDbEntity
  8
図面枠
100
AcDbMText
 10
200.9737887032704
 20
42.98879028116442
 30
0.0
 40
4.0
 41
81.33958931688296
 46
0.0
 71
     1
 72
     5
  1
{\fMS UI Gothic|b0|i0|c128|p50;下部取付部品　BB-50MA}
 73
     1
 44
1.0
  0
MTEXT
  5
33C
330
70
100
AcDbEntity
  8
図面枠
100
AcDbMText
 10
202.8133780201534
 20
30.29172790351225
 30
0.0
 40
2.5
 41
5.000000000000012
 46
10.0
 71
     5
 72
     5
  1
{\fMS UI Gothic|b0|i0|c128|p50;日付}
 73
     1
 44
1.0
  0
MTEXT
  5
33D
330
70
100
AcDbEntity
  8
図面枠
100
AcDbMText
 10
239.8133780201535
 20
10.29172790351225
 30
0.0
 40
2.5
 41
7.000000000000069
 46
10.0
 71
     5
 72
     5
  1
{\fMS UI Gothic|b0|i0|c128|p50;図\P番}
 73
     1
 44
1.0
  0
MTEXT
  5
33E
330
70
100
AcDbEntity
  8
図面枠
100
AcDbMText
 10
262.8133780201534
 20
10.29172790351225
 30
0.0
 40
4.0
 41
38.99999999999995
 46
10.0
 71
     5
 72
     5
  1
{\fMS UI Gothic|b0|i0|c128|p50;N1076C　1}
 73
     1
 44
1.0
  0
MTEXT
  5
33F
330
70
100
AcDbEntity
  8
図面枠
100
AcDbMText
 10
193.8133780201534
 20
20.4141313877312
 30
0.0
 40
4.0
 41
13.0
 46
10.2448069684379
 71
     5
 72
     5
  1
{\fMS UI Gothic|b0|i0|c128|p50;1：1}
 73
     1
 44
1.0
  0
MTEXT
  5
340
330
70
100
AcDbEntity
  8
図面枠
100
AcDbMText
 10
200.9737887032704
 20
65.11821348206751
 30
0.0
 40
4.0
 41
81.33958931688296
 46
0.0
 71
     1
 72
     5
  1
{\fMS UI Gothic|b0|i0|c128|p50;材料：ガルバリウム鋼板　t1.6}
 73
     1
 44
1.0
  0
ENDSEC
  0
SECTION
  2
OBJECTS
  0
DICTIONARY
  5
C
330
0
100
AcDbDictionary
281
     1
  3
ACAD_CIP_PREVIOUS_PRODUCT_INFO
350
3BE
  3
ACAD_COLOR
350
63
  3
ACAD_DETAILVIEWSTYLE
350
6A
  3
ACAD_GROUP
350
D
  3
ACAD_LAYOUT
350
62
  3
ACAD_MATERIAL
350
10
  3
ACAD_MLEADERSTYLE
350
66
  3
ACAD_MLINESTYLE
350
5F
  3
ACAD_PLOTSETTINGS
350
61
  3
ACAD_PLOTSTYLENAME
350
E
  3
ACAD_SCALELIST
350
42
  3
ACAD_SECTIONVIEWSTYLE
350
68
  3
ACAD_TABLESTYLE
350
64
  3
ACAD_VISUALSTYLE
350
29
  3
ACDB_RECOMPOSE_DATA
350
3C4
  3
AcDbVariableDictionary
350
3AC
  0
DICTIONARY
  5
3BF
330
54
100
AcDbDictionary
280
     1
281
     1
  3
ADSK_XREC_LAYER_RECONCILED
360
3C0
  0
DICTIONARY
  5
7E
330
7D
100
AcDbDictionary
280
     1
281
     1
  3
ADSK_XREC_LAYER_RECONCILED
360
7F
  0
DICTIONARY
  5
82
330
81
100
AcDbDictionary
280
     1
281
     1
  3
ADSK_XREC_LAYER_RECONCILED
360
83
  0
DICTIONARY
  5
89
330
88
100
AcDbDictionary
280
     1
281
     1
  3
ADSK_XREC_LAYER_RECONCILED
360
8A
  0
DICTIONARY
  5
93
330
92
100
AcDbDictionary
280
     1
281
     1
  3
ADSK_XREC_LAYER_RECONCILED
360
94
  0
DICTIONARY
  5
31D
330
31C
100
AcDbDictionary
280
     1
281
     1
  3
ADSK_XREC_LAYER_RECONCILED
360
31E
  0
DICTIONARY
  5
319
330
70
100
AcDbDictionary
280
     1
281
     1
  3
ACAD_SORTENTS
360
31A
  0
XRECORD
  5
3BE
102
{ACAD_REACTORS
330
C
102
}
330
C
100
AcDbXrecord
280
     1
300
ACDLT
300
2021
300

  0
DICTIONARY
  5
63
102
{ACAD_REACTORS
330
C
102
}
330
C
100
AcDbDictionary
281
     1
  0
DICTIONARY
  5
6A
102
{ACAD_REACTORS
330
C
102
}
330
C
100
AcDbDictionary
281
     1
  3
Imperial24
350
6B
  3
Metric50
350
3B9
  0
DICTIONARY
  5
D
102
{ACAD_REACTORS
330
C
102
}
330
C
100
AcDbDictionary
281
     1
  0
DICTIONARY
  5
62
102
{ACAD_REACTORS
330
C
102
}
330
C
100
AcDbDictionary
281
     1
  3
Model
350
73
  3
レイアウト1
350
6F
  3
レイアウト2
350
77
  0
DICTIONARY
  5
10
102
{ACAD_REACTORS
330
C
102
}
330
C
100
AcDbDictionary
281
     1
  3
ByBlock
350
19
  3
ByLayer
350
11
  3
Global
350
21
  0
DICTIONARY
  5
66
102
{ACAD_REACTORS
330
C
102
}
330
C
100
AcDbDictionary
281
     1
  3
Standard
350
67
  0
DICTIONARY
  5
5F
102
{ACAD_REACTORS
330
C
102
}
330
C
100
AcDbDictionary
281
     1
  3
Standard
350
60
  0
DICTIONARY
  5
61
102
{ACAD_REACTORS
330
C
102
}
330
C
100
AcDbDictionary
281
     1
  0
ACDBDICTIONARYWDFLT
  5
E
102
{ACAD_REACTORS
330
C
102
}
330
C
100
AcDbDictionary
281
     1
  3
Normal
350
F
100
AcDbDictionaryWithDefault
340
F
  0
DICTIONARY
  5
42
102
{ACAD_REACTORS
330
C
102
}
330
C
100
AcDbDictionary
281
     1
  3
A0
350
43
  3
A1
350
44
  3
A2
350
45
  3
A3
350
46
  3
A4
350
47
  3
A5
350
48
  3
A6
350
49
  3
A7
350
4A
  3
A8
350
4B
  3
A9
350
4C
  3
B0
350
4D
  3
B1
350
4E
  3
B2
350
4F
  3
B3
350
50
  3
B4
350
51
  3
B5
350
52
  3
B6
350
53
  0
DICTIONARY
  5
68
102
{ACAD_REACTORS
330
C
102
}
330
C
100
AcDbDictionary
281
     1
  3
Imperial24
350
69
  3
Metric50
350
3B8
  0
DICTIONARY
  5
64
102
{ACAD_REACTORS
330
C
102
}
330
C
100
AcDbDictionary
281
     1
  3
Standard
350
65
  0
DICTIONARY
  5
29
102
{ACAD_REACTORS
330
C
102
}
330
C
100
AcDbDictionary
281
     1
  3
2dWireframe
350
2F
  3
Basic
350
2E
  3
Brighten
350
35
  3
ColorChange
350
39
  3
Conceptual
350
32
  3
Dim
350
34
  3
EdgeColorOff
350
41
  3
Facepattern
350
38
  3
Flat
350
2A
  3
FlatWithEdges
350
2B
  3
Gouraud
350
2C
  3
GouraudWithEdges
350
2D
  3
Hidden
350
31
  3
JitterOff
350
3F
  3
Linepattern
350
37
  3
OverhangOff
350
40
  3
Realistic
350
33
  3
Shaded
350
3E
  3
Shaded with edges
350
3D
  3
Shades of Gray
350
3A
  3
Sketchy
350
3B
  3
Thicken
350
36
  3
Wireframe
350
30
  3
X-Ray
350
3C
  0
XRECORD
  5
3C4
102
{ACAD_REACTORS
330
C
102
}
330
C
100
AcDbXrecord
280
     1
 90
        1
330
65
  0
DICTIONARY
  5
3AC
102
{ACAD_REACTORS
330
C
102
}
330
C
100
AcDbDictionary
281
     1
  3
ANNOALLVISIBLE
350
3B2
  3
CANNOSCALE
350
3B3
  3
CMLEADERSTYLE
350
3AE
  3
CTABLESTYLE
350
3AD
  3
CVIEWDETAILSTYLE
350
3AF
  3
CVIEWSECTIONSTYLE
350
3B0
  3
LAYEREVAL
350
3B5
  3
LAYERNOTIFY
350
3B6
  3
LIGHTINGUNITS
350
3B4
  3
MSLTSCALE
350
3B1
  0
XRECORD
  5
3C0
102
{ACAD_REACTORS
330
3BF
102
}
330
3BF
100
AcDbXrecord
280
     1
290
     1
  0
XRECORD
  5
7F
102
{ACAD_REACTORS
330
7E
102
}
330
7E
100
AcDbXrecord
280
     1
290
     1
  0
XRECORD
  5
83
102
{ACAD_REACTORS
330
82
102
}
330
82
100
AcDbXrecord
280
     1
290
     1
  0
XRECORD
  5
8A
102
{ACAD_REACTORS
330
89
102
}
330
89
100
AcDbXrecord
280
     1
290
     1
  0
XRECORD
  5
94
102
{ACAD_REACTORS
330
93
102
}
330
93
100
AcDbXrecord
280
     1
290
     1
  0
XRECORD
  5
31E
102
{ACAD_REACTORS
330
31D
102
}
330
31D
100
AcDbXrecord
280
     1
290
     1
  0
SORTENTSTABLE
  5
31A
102
{ACAD_REACTORS
330
319
102
}
330
319
100
AcDbSortentsTable
330
70
331
80
  5
84
331
84
  5
86
331
85
  5
8B
331
86
  5
8C
331
87
  5
8D
331
8B
  5
90
331
8C
  5
C1
331
8D
  5
CE
331
8E
  5
F3
331
8F
  5
100
331
90
  5
110
331
91
  5
112
331
A7
  5
113
331
B4
  5
114
331
C1
  5
115
331
CE
  5
116
331
DA
  5
123
331
E6
  5
130
331
F3
  5
13D
331
100
  5
13E
331
10D
  5
13F
331
10E
  5
140
331
10F
  5
85
331
110
  5
87
331
111
  5
10E
331
112
  5
111
331
113
  5
DA
331
114
  5
143
331
115
  5
145
331
116
  5
147
331
123
  5
148
331
130
  5
14A
331
13D
  5
149
331
13E
  5
141
331
13F
  5
144
331
140
  5
146
331
141
  5
10F
331
142
  5
80
331
143
  5
A7
331
144
  5
91
331
145
  5
B4
331
146
  5
8F
331
147
  5
8E
331
148
  5
E6
331
149
  5
10D
331
14A
  5
142
  0
ACDBDETAILVIEWSTYLE
  5
6B
102
{ACAD_REACTORS
330
6A
102
}
330
6A
100
AcDbModelDocViewStyle
 70
     0
  3
Imperial24
290
     1
300
Imperial24
 90
        0
100
AcDbDetailViewStyle
 70
     0
 71
     0
 90
        3
 71
     1
340
55
 62
   256
 40
0.24
340
0
 62
   256
 40
0.24
300

 40
0.36
280
     3
 71
     2
340
5D
 90
       25
 62
   256
 71
     3
340
55
 62
   256
 40
0.24
 90
        1
 40
0.75
 90
        1
300
%<\AcVar ViewType \f "%tc1">% %<\AcVar ViewDetailId>%\PSCALE %<\AcVar ViewScale \f "%sn">%
 71
     4
340
5D
 90
       25
 62
   256
340
5D
 90
       25
 62
   256
280
     0
  0
ACDBDETAILVIEWSTYLE
  5
3B9
102
{ACAD_REACTORS
330
6A
102
}
330
6A
100
AcDbModelDocViewStyle
 70
     0
  3
Metric50
290
     1
300
Metric50
 90
        0
100
AcDbDetailViewStyle
 70
     0
 71
     0
 90
        3
 71
     1
340
55
 62
   256
 40
5.0
340
0
 62
   256
 40
5.0
300

 40
0.0
280
     1
 71
     2
340
5D
 90
       25
 62
   256
 71
     3
340
55
 62
   256
 40
5.0
 90
        0
 40
15.0
 90
        1
300
%<\AcVar ViewDetailId>% (%<\AcVar ViewScale \f "%sn">%)
 71
     4
340
5D
 90
       25
 62
   256
340
5D
 90
       25
 62
   256
280
     0
  0
LAYOUT
  5
73
102
{ACAD_REACTORS
330
62
102
}
330
62
100
AcDbPlotSettings
  1

  2
RICOH MP C3003 JPN RPCS V2
  4
A4
  6

 40
5.079999923706054
 41
5.154022216796875
 42
5.106658935546875
 43
5.079986572265625
 44
210.0
 45
297.0
 46
0.0
 47
0.0
 48
0.0
 49
0.0
140
0.0
141
0.0
142
1.0
143
1.749346752393717
 70
 11952
 72
     1
 73
     1
 74
     0
  7

 75
     0
147
0.5716419564226764
 76
     0
 77
     2
 78
   300
148
107.0053025544824
149
5.499071332976413
100
AcDbLayout
  1
Model
 70
     1
 71
     0
 10
0.0
 20
0.0
 11
12.0
 21
9.0
 12
0.0
 22
0.0
 32
0.0
 14
0.0
 24
0.0
 34
0.0
 15
0.0
 25
0.0
 35
0.0
146
0.0
 13
0.0
 23
0.0
 33
0.0
 16
1.0
 26
0.0
 36
0.0
 17
0.0
 27
1.0
 37
0.0
 76
     0
330
70
331
57
1001
ACAD_PSEXT
1000
RICOH MP C3003 JPN RPCS V2
1000
RICOH MP C3003 JPN RPCS V2
1000
IP_192.168.1.100
1000
RPCS Driver (For Windows)
1070
     0
  0
LAYOUT
  5
6F
102
{ACAD_REACTORS
330
62
102
}
330
62
100
AcDbPlotSettings
  1

  2
RICOH MP C3003 JPN RPCS V2
  4

  6

 40
0.0
 41
0.0
 42
0.0
 43
0.0
 44
0.0
 45
0.0
 46
0.0
 47
0.0
 48
0.0
 49
0.0
140
0.0
141
0.0
142
1.0
143
1.0
 70
   688
 72
     0
 73
     0
 74
     5
  7

 75
    16
147
1.0
 76
     0
 77
     2
 78
   300
148
0.0
149
0.0
100
AcDbLayout
  1
レイアウト1
 70
     0
 71
     1
 10
0.0
 20
0.0
 11
12.0
 21
9.0
 12
0.0
 22
0.0
 32
0.0
 14
1.000000000000000E+20
 24
1.000000000000000E+20
 34
1.000000000000000E+20
 15
-1.000000000000000E+20
 25
-1.000000000000000E+20
 35
-1.000000000000000E+20
146
0.0
 13
0.0
 23
0.0
 33
0.0
 16
1.0
 26
0.0
 36
0.0
 17
0.0
 27
1.0
 37
0.0
 76
     0
330
6C
  0
LAYOUT
  5
77
102
{ACAD_REACTORS
330
62
102
}
330
62
100
AcDbPlotSettings
  1

  2
RICOH MP C3003 JPN RPCS V2
  4

  6

 40
0.0
 41
0.0
 42
0.0
 43
0.0
 44
0.0
 45
0.0
 46
0.0
 47
0.0
 48
0.0
 49
0.0
140
0.0
141
0.0
142
1.0
143
1.0
 70
   688
 72
     0
 73
     0
 74
     5
  7

 75
    16
147
1.0
 76
     0
 77
     2
 78
   300
148
0.0
149
0.0
100
AcDbLayout
  1
レイアウト2
 70
     1
 71
     2
 10
0.0
 20
0.0
 11
12.0
 21
9.0
 12
0.0
 22
0.0
 32
0.0
 14
0.0
 24
0.0
 34
0.0
 15
0.0
 25
0.0
 35
0.0
146
0.0
 13
0.0
 23
0.0
 33
0.0
 16
1.0
 26
0.0
 36
0.0
 17
0.0
 27
1.0
 37
0.0
 76
     0
330
74
  0
MATERIAL
  5
19
102
{ACAD_XDICTIONARY
360
1A
102
}
102
{ACAD_REACTORS
330
10
102
}
330
10
100
AcDbMaterial
  1
ByBlock
 72
     0
 43
0.0208333333333333
 43
0.0
 43
0.0
 43
0.0
 43
0.0
 43
0.0208333333333333
 43
0.0
 43
0.0
 43
0.0
 43
0.0
 43
1.0
 43
0.0
 43
0.0
 43
0.0
 43
0.0
 43
1.0
 77
     0
 47
0.0208333333333333
 47
0.0
 47
0.0
 47
0.0
 47
0.0
 47
0.0208333333333333
 47
0.0
 47
0.0
 47
0.0
 47
0.0
 47
1.0
 47
0.0
 47
0.0
 47
0.0
 47
0.0
 47
1.0
171
     0
 49
0.0208333333333333
 49
0.0
 49
0.0
 49
0.0
 49
0.0
 49
0.0208333333333333
 49
0.0
 49
0.0
 49
0.0
 49
0.0
 49
1.0
 49
0.0
 49
0.0
 49
0.0
 49
0.0
 49
1.0
175
     0
142
0.0208333333333333
142
0.0
142
0.0
142
0.0
142
0.0
142
0.0208333333333333
142
0.0
142
0.0
142
0.0
142
0.0
142
1.0
142
0.0
142
0.0
142
0.0
142
0.0
142
1.0
179
     0
144
0.0208333333333333
144
0.0
144
0.0
144
0.0
144
0.0
144
0.0208333333333333
144
0.0
144
0.0
144
0.0
144
0.0
144
1.0
144
0.0
144
0.0
144
0.0
144
0.0
144
1.0
147
0.0208333333333333
147
0.0
147
0.0
147
0.0
147
0.0
147
0.0208333333333333
147
0.0
147
0.0
147
0.0
147
0.0
147
1.0
147
0.0
147
0.0
147
0.0
147
0.0
147
1.0
  0
MATERIAL
  5
11
102
{ACAD_XDICTIONARY
360
12
102
}
102
{ACAD_REACTORS
330
10
102
}
330
10
100
AcDbMaterial
  1
ByLayer
 72
     0
 43
0.0208333333333333
 43
0.0
 43
0.0
 43
0.0
 43
0.0
 43
0.0208333333333333
 43
0.0
 43
0.0
 43
0.0
 43
0.0
 43
1.0
 43
0.0
 43
0.0
 43
0.0
 43
0.0
 43
1.0
 77
     0
 47
0.0208333333333333
 47
0.0
 47
0.0
 47
0.0
 47
0.0
 47
0.0208333333333333
 47
0.0
 47
0.0
 47
0.0
 47
0.0
 47
1.0
 47
0.0
 47
0.0
 47
0.0
 47
0.0
 47
1.0
171
     0
 49
0.0208333333333333
 49
0.0
 49
0.0
 49
0.0
 49
0.0
 49
0.0208333333333333
 49
0.0
 49
0.0
 49
0.0
 49
0.0
 49
1.0
 49
0.0
 49
0.0
 49
0.0
 49
0.0
 49
1.0
175
     0
142
0.0208333333333333
142
0.0
142
0.0
142
0.0
142
0.0
142
0.0208333333333333
142
0.0
142
0.0
142
0.0
142
0.0
142
1.0
142
0.0
142
0.0
142
0.0
142
0.0
142
1.0
179
     0
144
0.0208333333333333
144
0.0
144
0.0
144
0.0
144
0.0
144
0.0208333333333333
144
0.0
144
0.0
144
0.0
144
0.0
144
1.0
144
0.0
144
0.0
144
0.0
144
0.0
144
1.0
147
0.0208333333333333
147
0.0
147
0.0
147
0.0
147
0.0
147
0.0208333333333333
147
0.0
147
0.0
147
0.0
147
0.0
147
1.0
147
0.0
147
0.0
147
0.0
147
0.0
147
1.0
  0
MATERIAL
  5
21
102
{ACAD_XDICTIONARY
360
22
102
}
102
{ACAD_REACTORS
330
10
102
}
330
10
100
AcDbMaterial
  1
Global
 72
     0
 43
0.0208333333333333
 43
0.0
 43
0.0
 43
0.0
 43
0.0
 43
0.0208333333333333
 43
0.0
 43
0.0
 43
0.0
 43
0.0
 43
1.0
 43
0.0
 43
0.0
 43
0.0
 43
0.0
 43
1.0
 77
     0
 47
0.0208333333333333
 47
0.0
 47
0.0
 47
0.0
 47
0.0
 47
0.0208333333333333
 47
0.0
 47
0.0
 47
0.0
 47
0.0
 47
1.0
 47
0.0
 47
0.0
 47
0.0
 47
0.0
 47
1.0
171
     0
 49
0.0208333333333333
 49
0.0
 49
0.0
 49
0.0
 49
0.0
 49
0.0208333333333333
 49
0.0
 49
0.0
 49
0.0
 49
0.0
 49
1.0
 49
0.0
 49
0.0
 49
0.0
 49
0.0
 49
1.0
175
     0
142
0.0208333333333333
142
0.0
142
0.0
142
0.0
142
0.0
142
0.0208333333333333
142
0.0
142
0.0
142
0.0
142
0.0
142
1.0
142
0.0
142
0.0
142
0.0
142
0.0
142
1.0
179
     0
144
0.0208333333333333
144
0.0
144
0.0
144
0.0
144
0.0
144
0.0208333333333333
144
0.0
144
0.0
144
0.0
144
0.0
144
1.0
144
0.0
144
0.0
144
0.0
144
0.0
144
1.0
147
0.0208333333333333
147
0.0
147
0.0
147
0.0
147
0.0
147
0.0208333333333333
147
0.0
147
0.0
147
0.0
147
0.0
147
1.0
147
0.0
147
0.0
147
0.0
147
0.0
147
1.0
  0
MLEADERSTYLE
  5
67
102
{ACAD_REACTORS
330
66
102
}
330
66
100
AcDbMLeaderStyle
179
     2
170
     2
171
     1
172
     0
 90
        2
 40
0.0
 41
0.0
173
     1
 91
-1056964608
340
5B
 92
       -2
290
     1
 42
0.09
291
     1
 43
0.36
  3
Standard
 44
0.18
300

342
55
174
     1
178
     6
175
     1
176
     0
 93
-1056964608
 45
0.18
292
     0
297
     0
 46
0.18
 94
-1056964608
 47
1.0
 49
1.0
140
1.0
293
     1
141
0.0
294
     1
177
     0
142
1.0
295
     1
296
     0
143
0.125
271
     0
272
     9
273
     9
298
     1
  0
MLINESTYLE
  5
60
102
{ACAD_REACTORS
330
5F
102
}
330
5F
100
AcDbMlineStyle
  2
STANDARD
 70
     0
  3

 62
   256
 51
90.0
 52
90.0
 71
     2
 49
0.5
 62
   256
  6
BYLAYER
 49
-0.5
 62
   256
  6
BYLAYER
  0
ACDBPLACEHOLDER
  5
F
102
{ACAD_REACTORS
330
E
102
}
330
E
  0
SCALE
  5
43
102
{ACAD_REACTORS
330
42
102
}
330
42
100
AcDbScale
 70
     0
300
1:1
140
1.0
141
1.0
290
     1
  0
SCALE
  5
44
102
{ACAD_REACTORS
330
42
102
}
330
42
100
AcDbScale
 70
     0
300
1:2
140
1.0
141
2.0
290
     0
  0
SCALE
  5
45
102
{ACAD_REACTORS
330
42
102
}
330
42
100
AcDbScale
 70
     0
300
1:4
140
1.0
141
4.0
290
     0
  0
SCALE
  5
46
102
{ACAD_REACTORS
330
42
102
}
330
42
100
AcDbScale
 70
     0
300
1:5
140
1.0
141
5.0
290
     0
  0
SCALE
  5
47
102
{ACAD_REACTORS
330
42
102
}
330
42
100
AcDbScale
 70
     0
300
1:8
140
1.0
141
8.0
290
     0
  0
SCALE
  5
48
102
{ACAD_REACTORS
330
42
102
}
330
42
100
AcDbScale
 70
     0
300
1:10
140
1.0
141
10.0
290
     0
  0
SCALE
  5
49
102
{ACAD_REACTORS
330
42
102
}
330
42
100
AcDbScale
 70
     0
300
1:16
140
1.0
141
16.0
290
     0
  0
SCALE
  5
4A
102
{ACAD_REACTORS
330
42
102
}
330
42
100
AcDbScale
 70
     0
300
1:20
140
1.0
141
20.0
290
     0
  0
SCALE
  5
4B
102
{ACAD_REACTORS
330
42
102
}
330
42
100
AcDbScale
 70
     0
300
1:30
140
1.0
141
30.0
290
     0
  0
SCALE
  5
4C
102
{ACAD_REACTORS
330
42
102
}
330
42
100
AcDbScale
 70
     0
300
1:40
140
1.0
141
40.0
290
     0
  0
SCALE
  5
4D
102
{ACAD_REACTORS
330
42
102
}
330
42
100
AcDbScale
 70
     0
300
1:50
140
1.0
141
50.0
290
     0
  0
SCALE
  5
4E
102
{ACAD_REACTORS
330
42
102
}
330
42
100
AcDbScale
 70
     0
300
1:100
140
1.0
141
100.0
290
     0
  0
SCALE
  5
4F
102
{ACAD_REACTORS
330
42
102
}
330
42
100
AcDbScale
 70
     0
300
2:1
140
2.0
141
1.0
290
     0
  0
SCALE
  5
50
102
{ACAD_REACTORS
330
42
102
}
330
42
100
AcDbScale
 70
     0
300
4:1
140
4.0
141
1.0
290
     0
  0
SCALE
  5
51
102
{ACAD_REACTORS
330
42
102
}
330
42
100
AcDbScale
 70
     0
300
8:1
140
8.0
141
1.0
290
     0
  0
SCALE
  5
52
102
{ACAD_REACTORS
330
42
102
}
330
42
100
AcDbScale
 70
     0
300
10:1
140
10.0
141
1.0
290
     0
  0
SCALE
  5
53
102
{ACAD_REACTORS
330
42
102
}
330
42
100
AcDbScale
 70
     0
300
100:1
140
100.0
141
1.0
290
     0
  0
ACDBSECTIONVIEWSTYLE
  5
69
102
{ACAD_REACTORS
330
68
102
}
330
68
100
AcDbModelDocViewStyle
 70
     0
  3
Imperial24
290
     1
300
Imperial24
 90
        0
100
AcDbSectionViewStyle
 70
     0
 71
     0
 90
       78
 71
     1
340
55
 62
   256
 40
0.24
340
0
340
0
 62
   256
 40
0.24
300
I, O, Q, S, X, Z
 40
0.48
 90
        3
 40
0.18
 90
        1
 71
     2
340
5D
 90
       25
 62
   256
340
5D
 90
       50
 62
   256
 40
0.24
 40
0.0
 40
0.24
 71
     3
340
55
 62
   256
 40
0.24
 90
        1
 40
0.75
 90
        1
300
%<\AcVar ViewType \f "%tc1">% %<\AcVar ViewSectionStartId>%-%<\AcVar ViewSectionEndId>%\PSCALE %<\AcVar ViewScale \f "%sn">%
 71
     4
 62
   256
 62
   257
300
ANSI31
 40
1.0
 90
        0
290
     0
290
     0
 90
        6
 40
0.0
 40
1.570796326794896
 40
0.2617993877991494
 40
1.308996938995747
 40
-0.2617993877991494
 40
1.832595714594046
  0
ACDBSECTIONVIEWSTYLE
  5
3B8
102
{ACAD_REACTORS
330
68
102
}
330
68
100
AcDbModelDocViewStyle
 70
     0
  3
Metric50
290
     1
300
Metric50
 90
        0
100
AcDbSectionViewStyle
 70
     0
 71
     0
 90
      102
 71
     1
340
55
 62
   256
 40
5.0
340
0
340
0
 62
   256
 40
5.0
300
I, O, Q, S, X, Z
 40
10.0
 90
        0
 40
2.5
 90
        0
 71
     2
340
5D
 90
       25
 62
   256
340
5D
 90
       50
 62
   256
 40
5.0
 40
2.5
 40
5.0
 71
     3
340
55
 62
   256
 40
5.0
 90
        0
 40
15.0
 90
        1
300
%<\AcVar ViewSectionStartId>%-%<\AcVar ViewSectionEndId>% (%<\AcVar ViewScale \f "%sn">%)
 71
     4
 62
   256
 62
   257
300
ANSI31
 40
1.0
 90
        0
290
     0
290
     0
 90
        6
 40
0.0
 40
1.570796326794896
 40
0.2617993877991494
 40
1.308996938995747
 40
-0.2617993877991494
 40
1.832595714594046
  0
TABLESTYLE
  5
65
102
{ACAD_XDICTIONARY
360
3C2
102
}
102
{ACAD_REACTORS
330
64
102
}
330
64
100
AcDbTableStyle
280
     0
  3
Standard
 70
     0
 71
     3
 40
1.5
 41
1.5
280
     0
281
     0
  7
STANDARD
140
1.25
170
     2
 62
     0
 63
     7
283
     0
 90
      512
 91
        0
  1

274
    -2
284
     1
 64
     0
275
    -2
285
     1
 65
     0
276
    -2
286
     1
 66
     0
277
    -2
287
     1
 67
     0
278
    -2
288
     1
 68
     0
279
    -2
289
     1
 69
     0
  7
STANDARD
140
1.25
170
     5
 62
     0
 63
     7
283
     0
 90
      512
 91
        0
  1

274
    -2
284
     1
 64
     0
275
    -2
285
     1
 65
     0
276
    -2
286
     1
 66
     0
277
    -2
287
     1
 67
     0
278
    -2
288
     1
 68
     0
279
    -2
289
     1
 69
     0
  7
STANDARD
140
1.25
170
     5
 62
     0
 63
     7
283
     0
 90
      512
 91
        0
  1

274
    -2
284
     1
 64
     0
275
    -2
285
     1
 65
     0
276
    -2
286
     1
 66
     0
277
    -2
287
     1
 67
     0
278
    -2
288
     1
 68
     0
279
    -2
289
     1
 69
     0
  0
VISUALSTYLE
  5
2F
102
{ACAD_REACTORS
330
29
102
}
330
29
100
AcDbVisualStyle
  2
2dWireframe
 70
     4
177
     3
291
     0
 70
    58
 90
        0
176
     1
 90
        2
176
     1
 90
        0
176
     1
 90
        0
176
     1
 40
0.6
176
     1
 40
30.0
176
     1
 62
     7
420
 16777215
176
     1
 90
        1
176
     1
 90
        4
176
     1
 62
     7
176
     1
 62
   257
176
     1
 90
        1
176
     1
 90
        1
176
     1
 40
1.0
176
     1
 90
        0
176
     1
 62
   257
176
     1
 40
1.0
176
     1
 90
        1
176
     1
 90
        6
176
     1
 90
        2
176
     1
 62
     7
176
     1
 90
        5
176
     1
 90
        0
176
     1
 90
        0
176
     1
290
     0
176
     1
 90
        1
176
     1
 40
0.0
176
     1
 90
        0
176
     1
290
     1
176
     1
290
     1
176
     1
290
     0
176
     1
290
     0
176
     1
290
     0
176
     1
290
     0
176
     1
290
     0
176
     1
290
     0
176
     1
290
     0
176
     1
 90
       50
176
     1
 40
0.0
176
     1
 40
1.0
176
     1
 90
        0
176
     1
 62
    18
420
        0
176
     1
 90
       50
176
     1
 90
        3
176
     1
 62
     5
420
      255
176
     1
290
     0
176
     1
 90
       50
176
     1
 90
       50
176
     1
 90
       50
176
     1
290
     0
176
     1
 90
       50
176
     1
 62
   256
176
     0
 40
1.0
176
     0
 90
        2
176
     1
  1
strokes_ogs.tif
176
     1
290
     0
176
     1
 40
1.0
176
     1
 40
1.0
176
     1
  0
VISUALSTYLE
  5
2E
102
{ACAD_REACTORS
330
29
102
}
330
29
100
AcDbVisualStyle
  2
Basic
 70
     7
177
     3
291
     1
 70
    58
 90
        1
176
     1
 90
        0
176
     1
 90
        1
176
     1
 90
        0
176
     1
 40
0.6
176
     1
 40
30.0
176
     1
 62
     7
420
 16777215
176
     1
 90
        0
176
     1
 90
        4
176
     1
 62
     7
176
     1
 62
   257
176
     1
 90
        1
176
     1
 90
        1
176
     1
 40
1.0
176
     1
 90
        8
176
     1
 62
     7
176
     1
 40
1.0
176
     1
 90
        1
176
     1
 90
        6
176
     1
 90
        2
176
     1
 62
     7
176
     1
 90
        5
176
     1
 90
        0
176
     1
 90
        0
176
     1
290
     0
176
     1
 90
        1
176
     1
 40
0.0
176
     1
 90
        0
176
     1
290
     0
176
     1
290
     1
176
     1
290
     1
176
     1
290
     0
176
     1
290
     0
176
     1
290
     0
176
     1
290
     0
176
     1
290
     0
176
     1
290
     0
176
     1
 90
       50
176
     1
 40
0.0
176
     1
 40
1.0
176
     1
 90
        0
176
     1
 62
    18
420
        0
176
     1
 90
       50
176
     1
 90
        3
176
     1
 62
     5
420
      255
176
     1
290
     0
176
     1
 90
       50
176
     1
 90
       50
176
     1
 90
       50
176
     1
290
     0
176
     1
 90
       50
176
     1
 62
   256
176
     0
 40
1.0
176
     0
 90
        2
176
     1
  1
strokes_ogs.tif
176
     1
290
     0
176
     1
 40
1.0
176
     1
 40
1.0
176
     1
  0
VISUALSTYLE
  5
35
102
{ACAD_REACTORS
330
29
102
}
330
29
100
AcDbVisualStyle
  2
Brighten
 70
    12
177
     3
291
     1
 70
    58
 90
        2
176
     1
 90
        2
176
     1
 90
        0
176
     1
 90
        0
176
     1
 40
0.6
176
     1
 40
30.0
176
     1
 62
     7
420
 16777215
176
     1
 90
        1
176
     1
 90
        4
176
     1
 62
     7
176
     1
 62
   257
176
     1
 90
        1
176
     1
 90
        1
176
     1
 40
1.0
176
     1
 90
        8
176
     1
 62
     7
176
     1
 40
1.0
176
     1
 90
        1
176
     1
 90
        6
176
     1
 90
        2
176
     1
 62
     7
176
     1
 90
        5
176
     1
 90
        0
176
     1
 90
        0
176
     1
290
     0
176
     1
 90
        1
176
     1
 40
50.0
176
     1
 90
        0
176
     1
290
     0
176
     1
290
     1
176
     1
290
     1
176
     1
290
     0
176
     1
290
     0
176
     1
290
     0
176
     1
290
     0
176
     1
290
     0
176
     1
290
     0
176
     1
 90
       50
176
     1
 40
0.0
176
     1
 40
1.0
176
     1
 90
        0
176
     1
 62
    18
420
        0
176
     1
 90
       50
176
     1
 90
        3
176
     1
 62
     5
420
      255
176
     1
290
     0
176
     1
 90
       50
176
     1
 90
       50
176
     1
 90
       50
176
     1
290
     0
176
     1
 90
       50
176
     1
 62
   256
176
     0
 40
1.0
176
     0
 90
        2
176
     1
  1
strokes_ogs.tif
176
     1
290
     0
176
     1
 40
1.0
176
     1
 40
1.0
176
     1
  0
VISUALSTYLE
  5
39
102
{ACAD_REACTORS
330
29
102
}
330
29
100
AcDbVisualStyle
  2
ColorChange
 70
    16
177
     3
291
     1
 70
    58
 90
        2
176
     1
 90
        2
176
     1
 90
        3
176
     1
 90
        0
176
     1
 40
0.6
176
     1
 40
30.0
176
     1
 62
     8
420
  8421504
176
     1
 90
        1
176
     1
 90
        4
176
     1
 62
     7
176
     1
 62
   257
176
     1
 90
        1
176
     1
 90
        1
176
     1
 40
1.0
176
     1
 90
        8
176
     1
 62
     8
420
  8421504
176
     1
 40
1.0
176
     1
 90
        1
176
     1
 90
        6
176
     1
 90
        2
176
     1
 62
     7
176
     1
 90
        5
176
     1
 90
        0
176
     1
 90
        0
176
     1
290
     0
176
     1
 90
        1
176
     1
 40
0.0
176
     1
 90
        0
176
     1
290
     0
176
     1
290
     1
176
     1
290
     1
176
     1
290
     0
176
     1
290
     0
176
     1
290
     0
176
     1
290
     0
176
     1
290
     0
176
     1
290
     0
176
     1
 90
       50
176
     1
 40
0.0
176
     1
 40
1.0
176
     1
 90
        0
176
     1
 62
    18
420
        0
176
     1
 90
       50
176
     1
 90
        3
176
     1
 62
     5
420
      255
176
     1
290
     0
176
     1
 90
       50
176
     1
 90
       50
176
     1
 90
       50
176
     1
290
     0
176
     1
 90
       50
176
     1
 62
   256
176
     0
 40
1.0
176
     0
 90
        2
176
     1
  1
strokes_ogs.tif
176
     1
290
     0
176
     1
 40
1.0
176
     1
 40
1.0
176
     1
  0
VISUALSTYLE
  5
32
102
{ACAD_REACTORS
330
29
102
}
330
29
100
AcDbVisualStyle
  2
Conceptual
 70
     9
177
     3
291
     0
 70
    58
 90
        3
176
     1
 90
        2
176
     1
 90
        0
176
     1
 90
        0
176
     1
 40
0.6
176
     1
 40
30.0
176
     1
 62
     7
420
 16777215
176
     1
 90
        2
176
     1
 90
        2
176
     1
 62
     7
176
     1
 62
   257
176
     1
 90
        1
176
     1
 90
        1
176
     1
 40
179.0
176
     1
 90
        8
176
     1
 62
     7
176
     1
 40
1.0
176
     1
 90
        1
176
     1
 90
        6
176
     1
 90
        2
176
     1
 62
     7
176
     1
 90
        3
176
     1
 90
        0
176
     1
 90
        0
176
     1
290
     0
176
     1
 90
        1
176
     1
 40
0.0
176
     1
 90
        0
176
     1
290
     0
176
     1
290
     1
176
     1
290
     1
176
     1
290
     0
176
     1
290
     0
176
     1
290
     0
176
     1
290
     0
176
     1
290
     0
176
     1
290
     0
176
     1
 90
       50
176
     1
 40
0.0
176
     1
 40
1.0
176
     1
 90
        0
176
     1
 62
    18
420
        0
176
     1
 90
       50
176
     1
 90
        3
176
     1
 62
     5
420
      255
176
     1
290
     0
176
     1
 90
       50
176
     1
 90
       50
176
     1
 90
       50
176
     1
290
     0
176
     1
 90
       50
176
     1
 62
   256
176
     0
 40
1.0
176
     0
 90
        2
176
     1
  1
strokes_ogs.tif
176
     1
290
     0
176
     1
 40
1.0
176
     1
 40
1.0
176
     1
  0
VISUALSTYLE
  5
34
102
{ACAD_REACTORS
330
29
102
}
330
29
100
AcDbVisualStyle
  2
Dim
 70
    11
177
     3
291
     1
 70
    58
 90
        2
176
     1
 90
        2
176
     1
 90
        0
176
     1
 90
        0
176
     1
 40
0.6
176
     1
 40
30.0
176
     1
 62
     7
420
 16777215
176
     1
 90
        1
176
     1
 90
        4
176
     1
 62
     7
176
     1
 62
   257
176
     1
 90
        1
176
     1
 90
        1
176
     1
 40
1.0
176
     1
 90
        8
176
     1
 62
     7
176
     1
 40
1.0
176
     1
 90
        1
176
     1
 90
        6
176
     1
 90
        2
176
     1
 62
     7
176
     1
 90
        5
176
     1
 90
        0
176
     1
 90
        0
176
     1
290
     0
176
     1
 90
        1
176
     1
 40
-50.0
176
     1
 90
        0
176
     1
290
     0
176
     1
290
     1
176
     1
290
     1
176
     1
290
     0
176
     1
290
     0
176
     1
290
     0
176
     1
290
     0
176
     1
290
     0
176
     1
290
     0
176
     1
 90
       50
176
     1
 40
0.0
176
     1
 40
1.0
176
     1
 90
        0
176
     1
 62
    18
420
        0
176
     1
 90
       50
176
     1
 90
        3
176
     1
 62
     5
420
      255
176
     1
290
     0
176
     1
 90
       50
176
     1
 90
       50
176
     1
 90
       50
176
     1
290
     0
176
     1
 90
       50
176
     1
 62
   256
176
     0
 40
1.0
176
     0
 90
        2
176
     1
  1
strokes_ogs.tif
176
     1
290
     0
176
     1
 40
1.0
176
     1
 40
1.0
176
     1
  0
VISUALSTYLE
  5
41
102
{ACAD_REACTORS
330
29
102
}
330
29
100
AcDbVisualStyle
  2
EdgeColorOff
 70
    22
177
     3
291
     1
 70
    58
 90
        2
176
     0
 90
        2
176
     0
 90
        0
176
     0
 90
        0
176
     0
 40
0.6
176
     0
 40
30.0
176
     0
 62
     7
420
 16777215
176
     0
 90
        1
176
     0
 90
        4
176
     0
 62
     7
176
     0
 62
   257
176
     0
 90
        1
176
     0
 90
        1
176
     0
 40
1.0
176
     0
 90
        8
176
     2
 62
     7
176
     0
 40
1.0
176
     0
 90
        1
176
     0
 90
        6
176
     0
 90
        2
176
     0
 62
     7
176
     0
 90
        5
176
     0
 90
        0
176
     0
 90
        0
176
     0
290
     0
176
     0
 90
        1
176
     0
 40
0.0
176
     0
 90
        0
176
     0
290
     0
176
     0
290
     1
176
     0
290
     1
176
     0
290
     0
176
     0
290
     0
176
     0
290
     0
176
     0
290
     0
176
     0
290
     0
176
     0
290
     0
176
     0
 90
       50
176
     0
 40
0.0
176
     0
 40
1.0
176
     0
 90
        0
176
     0
 62
    18
420
        0
176
     0
 90
       50
176
     0
 90
        3
176
     0
 62
     5
420
      255
176
     0
290
     0
176
     0
 90
       50
176
     0
 90
       50
176
     0
 90
       50
176
     0
290
     0
176
     0
 90
       50
176
     0
 62
   256
176
     0
 40
1.0
176
     0
 90
        2
176
     0
  1
strokes_ogs.tif
176
     0
290
     0
176
     0
 40
1.0
176
     0
 40
1.0
176
     0
  0
VISUALSTYLE
  5
38
102
{ACAD_REACTORS
330
29
102
}
330
29
100
AcDbVisualStyle
  2
Facepattern
 70
    15
177
     3
291
     1
 70
    58
 90
        2
176
     1
 90
        2
176
     1
 90
        0
176
     1
 90
        0
176
     1
 40
0.6
176
     1
 40
30.0
176
     1
 62
     7
420
 16777215
176
     1
 90
        1
176
     1
 90
        4
176
     1
 62
     7
176
     1
 62
   257
176
     1
 90
        1
176
     1
 90
        1
176
     1
 40
1.0
176
     1
 90
        8
176
     1
 62
     7
176
     1
 40
1.0
176
     1
 90
        1
176
     1
 90
        6
176
     1
 90
        2
176
     1
 62
     7
176
     1
 90
        5
176
     1
 90
        0
176
     1
 90
        0
176
     1
290
     0
176
     1
 90
        1
176
     1
 40
0.0
176
     1
 90
        0
176
     1
290
     0
176
     1
290
     1
176
     1
290
     1
176
     1
290
     0
176
     1
290
     0
176
     1
290
     0
176
     1
290
     0
176
     1
290
     0
176
     1
290
     0
176
     1
 90
       50
176
     1
 40
0.0
176
     1
 40
1.0
176
     1
 90
        0
176
     1
 62
    18
420
        0
176
     1
 90
       50
176
     1
 90
        3
176
     1
 62
     5
420
      255
176
     1
290
     0
176
     1
 90
       50
176
     1
 90
       50
176
     1
 90
       50
176
     1
290
     0
176
     1
 90
       50
176
     1
 62
   256
176
     0
 40
1.0
176
     0
 90
        2
176
     1
  1
strokes_ogs.tif
176
     1
290
     0
176
     1
 40
1.0
176
     1
 40
1.0
176
     1
  0
VISUALSTYLE
  5
2A
102
{ACAD_REACTORS
330
29
102
}
330
29
100
AcDbVisualStyle
  2
Flat
 70
     0
177
     3
291
     1
 70
    58
 90
        2
176
     1
 90
        1
176
     1
 90
        1
176
     1
 90
        2
176
     1
 40
0.6
176
     1
 40
30.0
176
     1
 62
     7
420
 16777215
176
     1
 90
        0
176
     1
 90
        0
176
     1
 62
     7
176
     1
 62
   257
176
     1
 90
        1
176
     1
 90
        1
176
     1
 40
1.0
176
     1
 90
        8
176
     1
 62
     7
176
     1
 40
1.0
176
     1
 90
        1
176
     1
 90
        6
176
     1
 90
        2
176
     1
 62
     7
176
     1
 90
        5
176
     1
 90
        0
176
     1
 90
        0
176
     1
290
     0
176
     1
 90
       13
176
     1
 40
0.0
176
     1
 90
        0
176
     1
290
     0
176
     1
290
     1
176
     1
290
     1
176
     1
290
     0
176
     1
290
     0
176
     1
290
     0
176
     1
290
     0
176
     1
290
     0
176
     1
290
     0
176
     1
 90
       50
176
     1
 40
0.0
176
     1
 40
1.0
176
     1
 90
        0
176
     1
 62
    18
420
        0
176
     1
 90
       50
176
     1
 90
        3
176
     1
 62
     5
420
      255
176
     1
290
     0
176
     1
 90
       50
176
     1
 90
       50
176
     1
 90
       50
176
     1
290
     0
176
     1
 90
       50
176
     1
 62
   256
176
     0
 40
1.0
176
     0
 90
        2
176
     1
  1
strokes_ogs.tif
176
     1
290
     0
176
     1
 40
1.0
176
     1
 40
1.0
176
     1
  0
VISUALSTYLE
  5
2B
102
{ACAD_REACTORS
330
29
102
}
330
29
100
AcDbVisualStyle
  2
FlatWithEdges
 70
     1
177
     3
291
     1
 70
    58
 90
        2
176
     1
 90
        1
176
     1
 90
        1
176
     1
 90
        2
176
     1
 40
0.6
176
     1
 40
30.0
176
     1
 62
     7
420
 16777215
176
     1
 90
        1
176
     1
 90
        0
176
     1
 62
     7
176
     1
 62
   257
176
     1
 90
        1
176
     1
 90
        1
176
     1
 40
1.0
176
     1
 90
        0
176
     1
 62
   257
176
     1
 40
1.0
176
     1
 90
        1
176
     1
 90
        6
176
     1
 90
        2
176
     1
 62
     7
176
     1
 90
        5
176
     1
 90
        0
176
     1
 90
        0
176
     1
290
     0
176
     1
 90
       13
176
     1
 40
0.0
176
     1
 90
        0
176
     1
290
     0
176
     1
290
     1
176
     1
290
     1
176
     1
290
     0
176
     1
290
     0
176
     1
290
     0
176
     1
290
     0
176
     1
290
     0
176
     1
290
     0
176
     1
 90
       50
176
     1
 40
0.0
176
     1
 40
1.0
176
     1
 90
        0
176
     1
 62
    18
420
        0
176
     1
 90
       50
176
     1
 90
        3
176
     1
 62
     5
420
      255
176
     1
290
     0
176
     1
 90
       50
176
     1
 90
       50
176
     1
 90
       50
176
     1
290
     0
176
     1
 90
       50
176
     1
 62
   256
176
     0
 40
1.0
176
     0
 90
        2
176
     1
  1
strokes_ogs.tif
176
     1
290
     0
176
     1
 40
1.0
176
     1
 40
1.0
176
     1
  0
VISUALSTYLE
  5
2C
102
{ACAD_REACTORS
330
29
102
}
330
29
100
AcDbVisualStyle
  2
Gouraud
 70
     2
177
     3
291
     1
 70
    58
 90
        2
176
     1
 90
        2
176
     1
 90
        1
176
     1
 90
        2
176
     1
 40
0.6
176
     1
 40
30.0
176
     1
 62
     7
420
 16777215
176
     1
 90
        0
176
     1
 90
        0
176
     1
 62
     7
176
     1
 62
   257
176
     1
 90
        1
176
     1
 90
        1
176
     1
 40
1.0
176
     1
 90
        0
176
     1
 62
     7
176
     1
 40
1.0
176
     1
 90
        1
176
     1
 90
        6
176
     1
 90
        2
176
     1
 62
     7
176
     1
 90
        5
176
     1
 90
        0
176
     1
 90
        0
176
     1
290
     0
176
     1
 90
       13
176
     1
 40
0.0
176
     1
 90
        0
176
     1
290
     0
176
     1
290
     1
176
     1
290
     1
176
     1
290
     0
176
     1
290
     0
176
     1
290
     0
176
     1
290
     0
176
     1
290
     0
176
     1
290
     0
176
     1
 90
       50
176
     1
 40
0.0
176
     1
 40
1.0
176
     1
 90
        0
176
     1
 62
    18
420
        0
176
     1
 90
       50
176
     1
 90
        3
176
     1
 62
     5
420
      255
176
     1
290
     0
176
     1
 90
       50
176
     1
 90
       50
176
     1
 90
       50
176
     1
290
     0
176
     1
 90
       50
176
     1
 62
   256
176
     0
 40
1.0
176
     0
 90
        2
176
     1
  1
strokes_ogs.tif
176
     1
290
     0
176
     1
 40
1.0
176
     1
 40
1.0
176
     1
  0
VISUALSTYLE
  5
2D
102
{ACAD_REACTORS
330
29
102
}
330
29
100
AcDbVisualStyle
  2
GouraudWithEdges
 70
     3
177
     3
291
     1
 70
    58
 90
        2
176
     1
 90
        2
176
     1
 90
        1
176
     1
 90
        2
176
     1
 40
0.6
176
     1
 40
30.0
176
     1
 62
     7
420
 16777215
176
     1
 90
        1
176
     1
 90
        0
176
     1
 62
     7
176
     1
 62
   257
176
     1
 90
        1
176
     1
 90
        1
176
     1
 40
1.0
176
     1
 90
        0
176
     1
 62
   257
176
     1
 40
1.0
176
     1
 90
        1
176
     1
 90
        6
176
     1
 90
        2
176
     1
 62
     7
176
     1
 90
        5
176
     1
 90
        0
176
     1
 90
        0
176
     1
290
     0
176
     1
 90
       13
176
     1
 40
0.0
176
     1
 90
        0
176
     1
290
     0
176
     1
290
     1
176
     1
290
     1
176
     1
290
     0
176
     1
290
     0
176
     1
290
     0
176
     1
290
     0
176
     1
290
     0
176
     1
290
     0
176
     1
 90
       50
176
     1
 40
0.0
176
     1
 40
1.0
176
     1
 90
        0
176
     1
 62
    18
420
        0
176
     1
 90
       50
176
     1
 90
        3
176
     1
 62
     5
420
      255
176
     1
290
     0
176
     1
 90
       50
176
     1
 90
       50
176
     1
 90
       50
176
     1
290
     0
176
     1
 90
       50
176
     1
 62
   256
176
     0
 40
1.0
176
     0
 90
        2
176
     1
  1
strokes_ogs.tif
176
     1
290
     0
176
     1
 40
1.0
176
     1
 40
1.0
176
     1
  0
VISUALSTYLE
  5
31
102
{ACAD_REACTORS
330
29
102
}
330
29
100
AcDbVisualStyle
  2
Hidden
 70
     6
177
     3
291
     0
 70
    58
 90
        1
176
     1
 90
        2
176
     1
 90
        2
176
     1
 90
        0
176
     1
 40
0.6
176
     1
 40
30.0
176
     1
 62
     7
420
 16777215
176
     1
 90
        2
176
     1
 90
        2
176
     1
 62
     7
176
     1
 62
   257
176
     1
 90
        2
176
     1
 90
        1
176
     1
 40
40.0
176
     1
 90
        0
176
     1
 62
   257
176
     1
 40
1.0
176
     1
 90
        1
176
     1
 90
        6
176
     1
 90
        2
176
     1
 62
     7
176
     1
 90
        3
176
     1
 90
        0
176
     1
 90
        0
176
     1
290
     0
176
     1
 90
        1
176
     1
 40
0.0
176
     1
 90
        0
176
     1
290
     0
176
     1
290
     1
176
     1
290
     1
176
     1
290
     0
176
     1
290
     0
176
     1
290
     0
176
     1
290
     0
176
     1
290
     0
176
     1
290
     0
176
     1
 90
       50
176
     1
 40
0.0
176
     1
 40
1.0
176
     1
 90
        0
176
     1
 62
    18
420
        0
176
     1
 90
       50
176
     1
 90
        3
176
     1
 62
     5
420
      255
176
     1
290
     0
176
     1
 90
       50
176
     1
 90
       50
176
     1
 90
       50
176
     1
290
     0
176
     1
 90
       50
176
     1
 62
   256
176
     0
 40
1.0
176
     0
 90
        2
176
     1
  1
strokes_ogs.tif
176
     1
290
     0
176
     1
 40
1.0
176
     1
 40
1.0
176
     1
  0
VISUALSTYLE
  5
3F
102
{ACAD_REACTORS
330
29
102
}
330
29
100
AcDbVisualStyle
  2
JitterOff
 70
    20
177
     3
291
     1
 70
    58
 90
        2
176
     0
 90
        2
176
     0
 90
        0
176
     0
 90
        0
176
     0
 40
0.6
176
     0
 40
30.0
176
     0
 62
     7
420
 16777215
176
     0
 90
        1
176
     0
 90
        4
176
     0
 62
     7
176
     0
 62
   257
176
     0
 90
        1
176
     0
 90
        1
176
     0
 40
1.0
176
     0
 90
       10
176
     2
 62
     7
176
     0
 40
1.0
176
     0
 90
        1
176
     0
 90
        6
176
     0
 90
        2
176
     0
 62
     7
176
     0
 90
        5
176
     0
 90
        0
176
     0
 90
        0
176
     0
290
     0
176
     0
 90
        1
176
     0
 40
0.0
176
     0
 90
        0
176
     0
290
     0
176
     0
290
     1
176
     0
290
     1
176
     0
290
     0
176
     0
290
     0
176
     0
290
     0
176
     0
290
     0
176
     0
290
     0
176
     0
290
     0
176
     0
 90
       50
176
     0
 40
0.0
176
     0
 40
1.0
176
     0
 90
        0
176
     0
 62
    18
420
        0
176
     0
 90
       50
176
     0
 90
        3
176
     0
 62
     5
420
      255
176
     0
290
     0
176
     0
 90
       50
176
     0
 90
       50
176
     0
 90
       50
176
     0
290
     0
176
     0
 90
       50
176
     0
 62
   256
176
     0
 40
1.0
176
     0
 90
        2
176
     0
  1
strokes_ogs.tif
176
     0
290
     0
176
     0
 40
1.0
176
     0
 40
1.0
176
     0
  0
VISUALSTYLE
  5
37
102
{ACAD_REACTORS
330
29
102
}
330
29
100
AcDbVisualStyle
  2
Linepattern
 70
    14
177
     3
291
     1
 70
    58
 90
        2
176
     1
 90
        2
176
     1
 90
        0
176
     1
 90
        0
176
     1
 40
0.6
176
     1
 40
30.0
176
     1
 62
     7
420
 16777215
176
     1
 90
        1
176
     1
 90
        4
176
     1
 62
     7
176
     1
 62
   257
176
     1
 90
        7
176
     1
 90
        7
176
     1
 40
1.0
176
     1
 90
        8
176
     1
 62
     7
176
     1
 40
1.0
176
     1
 90
        1
176
     1
 90
        6
176
     1
 90
        2
176
     1
 62
     7
176
     1
 90
        5
176
     1
 90
        0
176
     1
 90
        0
176
     1
290
     0
176
     1
 90
        1
176
     1
 40
0.0
176
     1
 90
        0
176
     1
290
     0
176
     1
290
     1
176
     1
290
     1
176
     1
290
     0
176
     1
290
     0
176
     1
290
     0
176
     1
290
     0
176
     1
290
     0
176
     1
290
     0
176
     1
 90
       50
176
     1
 40
0.0
176
     1
 40
1.0
176
     1
 90
        0
176
     1
 62
    18
420
        0
176
     1
 90
       50
176
     1
 90
        3
176
     1
 62
     5
420
      255
176
     1
290
     0
176
     1
 90
       50
176
     1
 90
       50
176
     1
 90
       50
176
     1
290
     0
176
     1
 90
       50
176
     1
 62
   256
176
     0
 40
1.0
176
     0
 90
        2
176
     1
  1
strokes_ogs.tif
176
     1
290
     0
176
     1
 40
1.0
176
     1
 40
1.0
176
     1
  0
VISUALSTYLE
  5
40
102
{ACAD_REACTORS
330
29
102
}
330
29
100
AcDbVisualStyle
  2
OverhangOff
 70
    21
177
     3
291
     1
 70
    58
 90
        2
176
     0
 90
        2
176
     0
 90
        0
176
     0
 90
        0
176
     0
 40
0.6
176
     0
 40
30.0
176
     0
 62
     7
420
 16777215
176
     0
 90
        1
176
     0
 90
        4
176
     0
 62
     7
176
     0
 62
   257
176
     0
 90
        1
176
     0
 90
        1
176
     0
 40
1.0
176
     0
 90
        9
176
     2
 62
     7
176
     0
 40
1.0
176
     0
 90
        1
176
     0
 90
        6
176
     0
 90
        2
176
     0
 62
     7
176
     0
 90
        5
176
     0
 90
        0
176
     0
 90
        0
176
     0
290
     0
176
     0
 90
        1
176
     0
 40
0.0
176
     0
 90
        0
176
     0
290
     0
176
     0
290
     1
176
     0
290
     1
176
     0
290
     0
176
     0
290
     0
176
     0
290
     0
176
     0
290
     0
176
     0
290
     0
176
     0
290
     0
176
     0
 90
       50
176
     0
 40
0.0
176
     0
 40
1.0
176
     0
 90
        0
176
     0
 62
    18
420
        0
176
     0
 90
       50
176
     0
 90
        3
176
     0
 62
     5
420
      255
176
     0
290
     0
176
     0
 90
       50
176
     0
 90
       50
176
     0
 90
       50
176
     0
290
     0
176
     0
 90
       50
176
     0
 62
   256
176
     0
 40
1.0
176
     0
 90
        2
176
     0
  1
strokes_ogs.tif
176
     0
290
     0
176
     0
 40
1.0
176
     0
 40
1.0
176
     0
  0
VISUALSTYLE
  5
33
102
{ACAD_REACTORS
330
29
102
}
330
29
100
AcDbVisualStyle
  2
Realistic
 70
     8
177
     3
291
     0
 70
    58
 90
        2
176
     1
 90
        3
176
     1
 90
        0
176
     1
 90
        2
176
     1
 40
0.6
176
     1
 40
30.0
176
     1
 62
     7
420
 16777215
176
     1
 90
        0
176
     1
 90
        0
176
     1
 62
     7
176
     1
 62
   257
176
     1
 90
        1
176
     1
 90
        1
176
     1
 40
1.0
176
     1
 90
        8
176
     1
 62
   257
176
     1
 40
1.0
176
     1
 90
        1
176
     1
 90
        6
176
     1
 90
        2
176
     1
 62
     7
176
     1
 90
        3
176
     1
 90
        0
176
     1
 90
        0
176
     1
290
     0
176
     1
 90
       13
176
     1
 40
0.0
176
     1
 90
        0
176
     1
290
     0
176
     1
290
     1
176
     1
290
     1
176
     1
290
     0
176
     1
290
     0
176
     1
290
     0
176
     1
290
     0
176
     1
290
     0
176
     1
290
     0
176
     1
 90
       50
176
     1
 40
0.0
176
     1
 40
1.0
176
     1
 90
        0
176
     1
 62
    18
420
        0
176
     1
 90
       50
176
     1
 90
        3
176
     1
 62
     5
420
      255
176
     1
290
     0
176
     1
 90
       50
176
     1
 90
       50
176
     1
 90
       50
176
     1
290
     0
176
     1
 90
       50
176
     1
 62
   256
176
     0
 40
1.0
176
     0
 90
        2
176
     1
  1
strokes_ogs.tif
176
     1
290
     0
176
     1
 40
1.0
176
     1
 40
1.0
176
     1
  0
VISUALSTYLE
  5
3E
102
{ACAD_REACTORS
330
29
102
}
330
29
100
AcDbVisualStyle
  2
Shaded
 70
    27
177
     3
291
     0
 70
    58
 90
        2
176
     1
 90
        2
176
     1
 90
        1
176
     1
 90
        2
176
     1
 40
0.6
176
     1
 40
30.0
176
     1
 62
     7
420
 16777215
176
     1
 90
        0
176
     1
 90
        4
176
     1
 62
     7
176
     1
 62
   257
176
     1
 90
        1
176
     1
 90
        1
176
     1
 40
1.0
176
     1
 90
        8
176
     1
 62
   257
176
     1
 40
1.0
176
     1
 90
        1
176
     1
 90
        6
176
     1
 90
        2
176
     1
 62
     8
420
  7895160
176
     1
 90
        3
176
     1
 90
        0
176
     1
 90
        0
176
     1
290
     0
176
     1
 90
        5
176
     1
 40
0.0
176
     1
 90
        0
176
     1
290
     0
176
     1
290
     1
176
     1
290
     1
176
     1
290
     0
176
     1
290
     0
176
     1
290
     0
176
     1
290
     0
176
     1
290
     0
176
     1
290
     0
176
     1
 90
       50
176
     1
 40
0.0
176
     1
 40
1.0
176
     1
 90
        0
176
     1
 62
    18
420
        0
176
     1
 90
       50
176
     1
 90
        3
176
     1
 62
     5
420
      255
176
     1
290
     0
176
     1
 90
       50
176
     1
 90
       50
176
     1
 90
       50
176
     1
290
     0
176
     1
 90
       50
176
     1
 62
   256
176
     0
 40
1.0
176
     0
 90
        2
176
     1
  1
strokes_ogs.tif
176
     1
290
     0
176
     1
 40
1.0
176
     1
 40
1.0
176
     1
  0
VISUALSTYLE
  5
3D
102
{ACAD_REACTORS
330
29
102
}
330
29
100
AcDbVisualStyle
  2
Shaded with edges
 70
    26
177
     3
291
     0
 70
    58
 90
        2
176
     1
 90
        2
176
     1
 90
        1
176
     1
 90
        2
176
     1
 40
0.6
176
     1
 40
30.0
176
     1
 62
     7
420
 16777215
176
     1
 90
        1
176
     1
 90
        2
176
     1
 62
     7
176
     1
 62
   257
176
     1
 90
        2
176
     1
 90
        1
176
     1
 40
1.0
176
     1
 90
        8
176
     1
 62
   257
176
     1
 40
1.0
176
     1
 90
        1
176
     1
 90
        6
176
     1
 90
        2
176
     1
 62
     7
176
     1
 90
        3
176
     1
 90
        0
176
     1
 90
        0
176
     1
290
     0
176
     1
 90
        5
176
     1
 40
0.0
176
     1
 90
        0
176
     1
290
     0
176
     1
290
     1
176
     1
290
     1
176
     1
290
     0
176
     1
290
     0
176
     1
290
     0
176
     1
290
     0
176
     1
290
     0
176
     1
290
     0
176
     1
 90
       50
176
     1
 40
0.0
176
     1
 40
1.0
176
     1
 90
        0
176
     1
 62
    18
420
        0
176
     1
 90
       50
176
     1
 90
        3
176
     1
 62
     5
420
      255
176
     1
290
     0
176
     1
 90
       50
176
     1
 90
       50
176
     1
 90
       50
176
     1
290
     0
176
     1
 90
       50
176
     1
 62
   256
176
     0
 40
1.0
176
     0
 90
        2
176
     1
  1
strokes_ogs.tif
176
     1
290
     0
176
     1
 40
1.0
176
     1
 40
1.0
176
     1
  0
VISUALSTYLE
  5
3A
102
{ACAD_REACTORS
330
29
102
}
330
29
100
AcDbVisualStyle
  2
Shades of Gray
 70
    23
177
     3
291
     0
 70
    58
 90
        2
176
     1
 90
        2
176
     1
 90
        3
176
     1
 90
        0
176
     1
 40
0.6
176
     1
 40
30.0
176
     1
 62
     7
420
 16777215
176
     1
 90
        2
176
     1
 90
        2
176
     1
 62
     7
176
     1
 62
     7
176
     1
 90
        1
176
     1
 90
        1
176
     1
 40
40.0
176
     1
 90
        8
176
     1
 62
     7
176
     1
 40
1.0
176
     1
 90
        1
176
     1
 90
        6
176
     1
 90
        2
176
     1
 62
     7
176
     1
 90
        3
176
     1
 90
        0
176
     1
 90
        0
176
     1
290
     0
176
     1
 90
        1
176
     1
 40
0.0
176
     1
 90
        0
176
     1
290
     0
176
     1
290
     1
176
     1
290
     1
176
     1
290
     0
176
     1
290
     0
176
     1
290
     0
176
     1
290
     0
176
     1
290
     0
176
     1
290
     0
176
     1
 90
       50
176
     1
 40
0.0
176
     1
 40
1.0
176
     1
 90
        0
176
     1
 62
    18
420
        0
176
     1
 90
       50
176
     1
 90
        3
176
     1
 62
     5
420
      255
176
     1
290
     0
176
     1
 90
       50
176
     1
 90
       50
176
     1
 90
       50
176
     1
290
     0
176
     1
 90
       50
176
     1
 62
   256
176
     0
 40
1.0
176
     0
 90
        2
176
     1
  1
strokes_ogs.tif
176
     1
290
     0
176
     1
 40
1.0
176
     1
 40
1.0
176
     1
  0
VISUALSTYLE
  5
3B
102
{ACAD_REACTORS
330
29
102
}
330
29
100
AcDbVisualStyle
  2
Sketchy
 70
    24
177
     3
291
     0
 70
    58
 90
        1
176
     1
 90
        2
176
     1
 90
        2
176
     1
 90
        0
176
     1
 40
0.6
176
     1
 40
30.0
176
     1
 62
     7
420
 16777215
176
     1
 90
        2
176
     1
 90
        2
176
     1
 62
     7
176
     1
 62
     7
176
     1
 90
        1
176
     1
 90
        1
176
     1
 40
40.0
176
     1
 90
       11
176
     1
 62
     7
176
     1
 40
1.0
176
     1
 90
        1
176
     1
 90
        6
176
     1
 90
        2
176
     1
 62
     7
176
     1
 90
        6
176
     1
 90
        0
176
     1
 90
        0
176
     1
290
     0
176
     1
 90
        1
176
     1
 40
0.0
176
     1
 90
        0
176
     1
290
     0
176
     1
290
     1
176
     1
290
     1
176
     1
290
     0
176
     1
290
     0
176
     1
290
     0
176
     1
290
     0
176
     1
290
     0
176
     1
290
     0
176
     1
 90
       50
176
     1
 40
0.0
176
     1
 40
1.0
176
     1
 90
        0
176
     1
 62
    18
420
        0
176
     1
 90
       50
176
     1
 90
        3
176
     1
 62
     5
420
      255
176
     1
290
     0
176
     1
 90
       50
176
     1
 90
       50
176
     1
 90
       50
176
     1
290
     0
176
     1
 90
       50
176
     1
 62
   256
176
     0
 40
1.0
176
     0
 90
        2
176
     1
  1
strokes_ogs.tif
176
     1
290
     0
176
     1
 40
1.0
176
     1
 40
1.0
176
     1
  0
VISUALSTYLE
  5
36
102
{ACAD_REACTORS
330
29
102
}
330
29
100
AcDbVisualStyle
  2
Thicken
 70
    13
177
     3
291
     1
 70
    58
 90
        2
176
     1
 90
        2
176
     1
 90
        0
176
     1
 90
        0
176
     1
 40
0.6
176
     1
 40
30.0
176
     1
 62
     7
420
 16777215
176
     1
 90
        1
176
     1
 90
        4
176
     1
 62
     7
176
     1
 62
   257
176
     1
 90
        1
176
     1
 90
        1
176
     1
 40
1.0
176
     1
 90
       12
176
     1
 62
     7
176
     1
 40
1.0
176
     1
 90
        1
176
     1
 90
        6
176
     1
 90
        2
176
     1
 62
     7
176
     1
 90
        5
176
     1
 90
        0
176
     1
 90
        0
176
     1
290
     0
176
     1
 90
        1
176
     1
 40
0.0
176
     1
 90
        0
176
     1
290
     0
176
     1
290
     1
176
     1
290
     1
176
     1
290
     0
176
     1
290
     0
176
     1
290
     0
176
     1
290
     0
176
     1
290
     0
176
     1
290
     0
176
     1
 90
       50
176
     1
 40
0.0
176
     1
 40
1.0
176
     1
 90
        0
176
     1
 62
    18
420
        0
176
     1
 90
       50
176
     1
 90
        3
176
     1
 62
     5
420
      255
176
     1
290
     0
176
     1
 90
       50
176
     1
 90
       50
176
     1
 90
       50
176
     1
290
     0
176
     1
 90
       50
176
     1
 62
   256
176
     0
 40
1.0
176
     0
 90
        2
176
     1
  1
strokes_ogs.tif
176
     1
290
     0
176
     1
 40
1.0
176
     1
 40
1.0
176
     1
  0
VISUALSTYLE
  5
30
102
{ACAD_REACTORS
330
29
102
}
330
29
100
AcDbVisualStyle
  2
Wireframe
 70
     5
177
     3
291
     0
 70
    58
 90
        0
176
     1
 90
        2
176
     1
 90
        0
176
     1
 90
        0
176
     1
 40
0.6
176
     1
 40
30.0
176
     1
 62
     7
420
 16777215
176
     1
 90
        1
176
     1
 90
        4
176
     1
 62
     7
176
     1
 62
   257
176
     1
 90
        1
176
     1
 90
        1
176
     1
 40
1.0
176
     1
 90
        0
176
     1
 62
   257
176
     1
 40
1.0
176
     1
 90
        1
176
     1
 90
        6
176
     1
 90
        2
176
     1
 62
     7
176
     1
 90
        3
176
     1
 90
        0
176
     1
 90
        0
176
     1
290
     0
176
     1
 90
        1
176
     1
 40
0.0
176
     1
 90
        0
176
     1
290
     0
176
     1
290
     1
176
     1
290
     1
176
     1
290
     0
176
     1
290
     0
176
     1
290
     0
176
     1
290
     0
176
     1
290
     0
176
     1
290
     0
176
     1
 90
       50
176
     1
 40
0.0
176
     1
 40
1.0
176
     1
 90
        0
176
     1
 62
    18
420
        0
176
     1
 90
       50
176
     1
 90
        3
176
     1
 62
     5
420
      255
176
     1
290
     0
176
     1
 90
       50
176
     1
 90
       50
176
     1
 90
       50
176
     1
290
     0
176
     1
 90
       50
176
     1
 62
   256
176
     0
 40
1.0
176
     0
 90
        2
176
     1
  1
strokes_ogs.tif
176
     1
290
     0
176
     1
 40
1.0
176
     1
 40
1.0
176
     1
  0
VISUALSTYLE
  5
3C
102
{ACAD_REACTORS
330
29
102
}
330
29
100
AcDbVisualStyle
  2
X-Ray
 70
    25
177
     3
291
     0
 70
    58
 90
        2
176
     1
 90
        2
176
     1
 90
        1
176
     1
 90
        1
176
     1
 40
0.5
176
     1
 40
30.0
176
     1
 62
     7
420
 16777215
176
     1
 90
        1
176
     1
 90
        0
176
     1
 62
     7
176
     1
 62
   257
176
     1
 90
        1
176
     1
 90
        1
176
     1
 40
1.0
176
     1
 90
        8
176
     1
 62
     7
176
     1
 40
1.0
176
     1
 90
        1
176
     1
 90
        6
176
     1
 90
        2
176
     1
 62
     7
176
     1
 90
        3
176
     1
 90
        0
176
     1
 90
        0
176
     1
290
     0
176
     1
 90
       13
176
     1
 40
0.0
176
     1
 90
        0
176
     1
290
     0
176
     1
290
     1
176
     1
290
     1
176
     1
290
     0
176
     1
290
     0
176
     1
290
     0
176
     1
290
     0
176
     1
290
     0
176
     1
290
     0
176
     1
 90
       50
176
     1
 40
0.0
176
     1
 40
1.0
176
     1
 90
        0
176
     1
 62
    18
420
        0
176
     1
 90
       50
176
     1
 90
        3
176
     1
 62
     5
420
      255
176
     1
290
     0
176
     1
 90
       50
176
     1
 90
       50
176
     1
 90
       50
176
     1
290
     0
176
     1
 90
       50
176
     1
 62
   256
176
     0
 40
1.0
176
     0
 90
        2
176
     1
  1
strokes_ogs.tif
176
     1
290
     0
176
     1
 40
1.0
176
     1
 40
1.0
176
     1
  0
DICTIONARYVAR
  5
3B2
102
{ACAD_REACTORS
330
3AC
102
}
330
3AC
100
DictionaryVariables
280
     0
  1
0
  0
DICTIONARYVAR
  5
3B3
102
{ACAD_REACTORS
330
3AC
102
}
330
3AC
100
DictionaryVariables
280
     0
  1
1:1
  0
DICTIONARYVAR
  5
3AE
102
{ACAD_REACTORS
330
3AC
102
}
330
3AC
100
DictionaryVariables
280
     0
  1
STANDARD
  0
DICTIONARYVAR
  5
3AD
102
{ACAD_REACTORS
330
3AC
102
}
330
3AC
100
DictionaryVariables
280
     0
  1
STANDARD
  0
DICTIONARYVAR
  5
3AF
102
{ACAD_REACTORS
330
3AC
102
}
330
3AC
100
DictionaryVariables
280
     0
  1
Imperial24
  0
DICTIONARYVAR
  5
3B0
102
{ACAD_REACTORS
330
3AC
102
}
330
3AC
100
DictionaryVariables
280
     0
  1
Imperial24
  0
DICTIONARYVAR
  5
3B5
102
{ACAD_REACTORS
330
3AC
102
}
330
3AC
100
DictionaryVariables
280
     0
  1
1
  0
DICTIONARYVAR
  5
3B6
102
{ACAD_REACTORS
330
3AC
102
}
330
3AC
100
DictionaryVariables
280
     0
  1
15
  0
DICTIONARYVAR
  5
3B4
102
{ACAD_REACTORS
330
3AC
102
}
330
3AC
100
DictionaryVariables
280
     0
  1
0
  0
DICTIONARYVAR
  5
3B1
102
{ACAD_REACTORS
330
3AC
102
}
330
3AC
100
DictionaryVariables
280
     0
  1
0
  0
DICTIONARY
  5
1A
330
19
100
AcDbDictionary
280
     1
281
     1
  3
BUMPTILE
360
1C
  3
DIFFUSETILE
360
1B
  3
OPACITYTILE
360
1F
  3
REFLECTIONTILE
360
1E
  3
REFRACTIONTILE
360
20
  3
SPECULARTILE
360
1D
  0
DICTIONARY
  5
12
330
11
100
AcDbDictionary
280
     1
281
     1
  3
BUMPTILE
360
14
  3
DIFFUSETILE
360
13
  3
OPACITYTILE
360
17
  3
REFLECTIONTILE
360
16
  3
REFRACTIONTILE
360
18
  3
SPECULARTILE
360
15
  0
DICTIONARY
  5
22
330
21
100
AcDbDictionary
280
     1
281
     1
  3
BUMPTILE
360
24
  3
DIFFUSETILE
360
23
  3
OPACITYTILE
360
27
  3
REFLECTIONTILE
360
26
  3
REFRACTIONTILE
360
28
  3
SPECULARTILE
360
25
  0
DICTIONARY
  5
3C2
330
65
100
AcDbDictionary
280
     1
281
     1
  3
ACAD_ROUNDTRIP_2008_TABLESTYLE_CELLSTYLEMAP
360
3C3
  0
XRECORD
  5
1C
102
{ACAD_REACTORS
330
1A
102
}
330
1A
100
AcDbXrecord
280
     1
270
     1
271
     1
  0
XRECORD
  5
1B
102
{ACAD_REACTORS
330
1A
102
}
330
1A
100
AcDbXrecord
280
     1
270
     1
271
     1
  0
XRECORD
  5
1F
102
{ACAD_REACTORS
330
1A
102
}
330
1A
100
AcDbXrecord
280
     1
270
     1
271
     1
  0
XRECORD
  5
1E
102
{ACAD_REACTORS
330
1A
102
}
330
1A
100
AcDbXrecord
280
     1
270
     1
271
     1
  0
XRECORD
  5
20
102
{ACAD_REACTORS
330
1A
102
}
330
1A
100
AcDbXrecord
280
     1
270
     1
271
     1
  0
XRECORD
  5
1D
102
{ACAD_REACTORS
330
1A
102
}
330
1A
100
AcDbXrecord
280
     1
270
     1
271
     1
  0
XRECORD
  5
14
102
{ACAD_REACTORS
330
12
102
}
330
12
100
AcDbXrecord
280
     1
270
     1
271
     1
  0
XRECORD
  5
13
102
{ACAD_REACTORS
330
12
102
}
330
12
100
AcDbXrecord
280
     1
270
     1
271
     1
  0
XRECORD
  5
17
102
{ACAD_REACTORS
330
12
102
}
330
12
100
AcDbXrecord
280
     1
270
     1
271
     1
  0
XRECORD
  5
16
102
{ACAD_REACTORS
330
12
102
}
330
12
100
AcDbXrecord
280
     1
270
     1
271
     1
  0
XRECORD
  5
18
102
{ACAD_REACTORS
330
12
102
}
330
12
100
AcDbXrecord
280
     1
270
     1
271
     1
  0
XRECORD
  5
15
102
{ACAD_REACTORS
330
12
102
}
330
12
100
AcDbXrecord
280
     1
270
     1
271
     1
  0
XRECORD
  5
24
102
{ACAD_REACTORS
330
22
102
}
330
22
100
AcDbXrecord
280
     1
270
     1
271
     1
  0
XRECORD
  5
23
102
{ACAD_REACTORS
330
22
102
}
330
22
100
AcDbXrecord
280
     1
270
     1
271
     1
  0
XRECORD
  5
27
102
{ACAD_REACTORS
330
22
102
}
330
22
100
AcDbXrecord
280
     1
270
     1
271
     1
  0
XRECORD
  5
26
102
{ACAD_REACTORS
330
22
102
}
330
22
100
AcDbXrecord
280
     1
270
     1
271
     1
  0
XRECORD
  5
28
102
{ACAD_REACTORS
330
22
102
}
330
22
100
AcDbXrecord
280
     1
270
     1
271
     1
  0
XRECORD
  5
25
102
{ACAD_REACTORS
330
22
102
}
330
22
100
AcDbXrecord
280
     1
270
     1
271
     1
  0
CELLSTYLEMAP
  5
3C3
102
{ACAD_REACTORS
330
3C2
102
}
330
3C2
100
AcDbCellStyleMap
 90
        3
300
CELLSTYLE
  1
TABLEFORMAT_BEGIN
 90
        5
170
     1
 91
        0
 92
    32768
 62
   257
 93
        1
300
CONTENTFORMAT
  1
CONTENTFORMAT_BEGIN
 90
        0
 91
        0
 92
      512
 93
        0
300

 40
0.0
140
1.0
 94
        5
 62
     0
340
55
144
1.25
309
CONTENTFORMAT_END
171
     1
301
MARGIN
  1
CELLMARGIN_BEGIN
 40
1.5
 40
1.5
 40
1.5
 40
1.5
 40
4.5
 40
4.5
309
CELLMARGIN_END
 94
        6
 95
        1
302
GRIDFORMAT
  1
GRIDFORMAT_BEGIN
 90
        0
 91
        1
 62
     0
 92
       -2
340
0
 93
        0
 40
1.125
309
GRIDFORMAT_END
 95
        2
302
GRIDFORMAT
  1
GRIDFORMAT_BEGIN
 90
        0
 91
        1
 62
     0
 92
       -2
340
0
 93
        0
 40
1.125
309
GRIDFORMAT_END
 95
        4
302
GRIDFORMAT
  1
GRIDFORMAT_BEGIN
 90
        0
 91
        1
 62
     0
 92
       -2
340
0
 93
        0
 40
1.125
309
GRIDFORMAT_END
 95
        8
302
GRIDFORMAT
  1
GRIDFORMAT_BEGIN
 90
        0
 91
        1
 62
     0
 92
       -2
340
0
 93
        0
 40
1.125
309
GRIDFORMAT_END
 95
       16
302
GRIDFORMAT
  1
GRIDFORMAT_BEGIN
 90
        0
 91
        1
 62
     0
 92
       -2
340
0
 93
        0
 40
1.125
309
GRIDFORMAT_END
 95
       32
302
GRIDFORMAT
  1
GRIDFORMAT_BEGIN
 90
        0
 91
        1
 62
     0
 92
       -2
340
0
 93
        0
 40
1.125
309
GRIDFORMAT_END
309
TABLEFORMAT_END
  1
CELLSTYLE_BEGIN
 90
        1
 91
        1
300
_TITLE
309
CELLSTYLE_END
300
CELLSTYLE
  1
TABLEFORMAT_BEGIN
 90
        5
170
     1
 91
        0
 92
        0
 62
   257
 93
        1
300
CONTENTFORMAT
  1
CONTENTFORMAT_BEGIN
 90
        0
 91
        0
 92
      512
 93
        0
300

 40
0.0
140
1.0
 94
        5
 62
     0
340
55
144
1.25
309
CONTENTFORMAT_END
171
     1
301
MARGIN
  1
CELLMARGIN_BEGIN
 40
1.5
 40
1.5
 40
1.5
 40
1.5
 40
4.5
 40
4.5
309
CELLMARGIN_END
 94
        6
 95
        1
302
GRIDFORMAT
  1
GRIDFORMAT_BEGIN
 90
        0
 91
        1
 62
     0
 92
       -2
340
0
 93
        0
 40
1.125
309
GRIDFORMAT_END
 95
        2
302
GRIDFORMAT
  1
GRIDFORMAT_BEGIN
 90
        0
 91
        1
 62
     0
 92
       -2
340
0
 93
        0
 40
1.125
309
GRIDFORMAT_END
 95
        4
302
GRIDFORMAT
  1
GRIDFORMAT_BEGIN
 90
        0
 91
        1
 62
     0
 92
       -2
340
0
 93
        0
 40
1.125
309
GRIDFORMAT_END
 95
        8
302
GRIDFORMAT
  1
GRIDFORMAT_BEGIN
 90
        0
 91
        1
 62
     0
 92
       -2
340
0
 93
        0
 40
1.125
309
GRIDFORMAT_END
 95
       16
302
GRIDFORMAT
  1
GRIDFORMAT_BEGIN
 90
        0
 91
        1
 62
     0
 92
       -2
340
0
 93
        0
 40
1.125
309
GRIDFORMAT_END
 95
       32
302
GRIDFORMAT
  1
GRIDFORMAT_BEGIN
 90
        0
 91
        1
 62
     0
 92
       -2
340
0
 93
        0
 40
1.125
309
GRIDFORMAT_END
309
TABLEFORMAT_END
  1
CELLSTYLE_BEGIN
 90
        2
 91
        1
300
_HEADER
309
CELLSTYLE_END
300
CELLSTYLE
  1
TABLEFORMAT_BEGIN
 90
        5
170
     1
 91
        0
 92
        0
 62
   257
 93
        1
300
CONTENTFORMAT
  1
CONTENTFORMAT_BEGIN
 90
        0
 91
        0
 92
      512
 93
        0
300

 40
0.0
140
1.0
 94
        2
 62
     0
340
55
144
1.25
309
CONTENTFORMAT_END
171
     1
301
MARGIN
  1
CELLMARGIN_BEGIN
 40
1.5
 40
1.5
 40
1.5
 40
1.5
 40
4.5
 40
4.5
309
CELLMARGIN_END
 94
        6
 95
        1
302
GRIDFORMAT
  1
GRIDFORMAT_BEGIN
 90
        0
 91
        1
 62
     0
 92
       -2
340
0
 93
        0
 40
1.125
309
GRIDFORMAT_END
 95
        2
302
GRIDFORMAT
  1
GRIDFORMAT_BEGIN
 90
        0
 91
        1
 62
     0
 92
       -2
340
0
 93
        0
 40
1.125
309
GRIDFORMAT_END
 95
        4
302
GRIDFORMAT
  1
GRIDFORMAT_BEGIN
 90
        0
 91
        1
 62
     0
 92
       -2
340
0
 93
        0
 40
1.125
309
GRIDFORMAT_END
 95
        8
302
GRIDFORMAT
  1
GRIDFORMAT_BEGIN
 90
        0
 91
        1
 62
     0
 92
       -2
340
0
 93
        0
 40
1.125
309
GRIDFORMAT_END
 95
       16
302
GRIDFORMAT
  1
GRIDFORMAT_BEGIN
 90
        0
 91
        1
 62
     0
 92
       -2
340
0
 93
        0
 40
1.125
309
GRIDFORMAT_END
 95
       32
302
GRIDFORMAT
  1
GRIDFORMAT_BEGIN
 90
        0
 91
        1
 62
     0
 92
       -2
340
0
 93
        0
 40
1.125
309
GRIDFORMAT_END
309
TABLEFORMAT_END
  1
CELLSTYLE_BEGIN
 90
        3
 91
        2
300
_DATA
309
CELLSTYLE_END
  0
ENDSEC
  0
EOF
