  0
SECTION
  2
HEADER
  9
$ACADVER
  1
AC1032
  9
$ACADMAINTVER
 90
      175
  9
$DWGCODEPAGE
  3
ANSI_932
  9
$LASTSAVEDBY
  1
Kousuke
  9
$REQUIREDVERSIONS
160
                 0
  9
$INSBASE
 10
0.0
 20
0.0
 30
0.0
  9
$EXTMIN
 10
-4.686621979846648
 20
-4.708272101743148
 30
0.0
  9
$EXTMAX
 10
292.3133780201533
 20
205.2917278982568
 30
0.0000000000000002
  9
$LIMMIN
 10
-9.835550498888355
 20
-9.854543293194307
  9
$LIMMAX
 10
301.7089744143381
 20
210.4380025684499
  9
$ORTHOMODE
 70
     1
  9
$REGENMODE
 70
     1
  9
$FILLMODE
 70
     1
  9
$QTEXTMODE
 70
     0
  9
$MIRRTEXT
 70
     1
  9
$LTSCALE
 40
0.25
  9
$ATTMODE
 70
     1
  9
$TEXTSIZE
 40
1.25
  9
$TRACEWID
 40
1.0
  9
$TEXTSTYLE
  7
STANDARD
  9
$CLAYER
  8
基本図面
  9
$CELTYPE
  6
ByLayer
  9
$CECOLOR
 62
   256
  9
$CELTSCALE
 40
1.0
  9
$DISPSILH
 70
     0
  9
$DIMSCALE
 40
0.5
  9
$DIMASZ
 40
2.5
  9
$DIMEXO
 40
0.625
  9
$DIMDLI
 40
3.75
  9
$DIMRND
 40
0.0
  9
$DIMDLE
 40
0.0
  9
$DIMEXE
 40
1.25
  9
$DIMTP
 40
0.0
  9
$DIMTM
 40
0.0
  9
$DIMTXT
 40
2.5
  9
$DIMCEN
 40
2.5
  9
$DIMTSZ
 40
0.0
  9
$DIMTOL
 70
     0
  9
$DIMLIM
 70
     0
  9
$DIMTIH
 70
     0
  9
$DIMTOH
 70
     0
  9
$DIMSE1
 70
     0
  9
$DIMSE2
 70
     0
  9
$DIMTAD
 70
     1
  9
$DIMZIN
 70
     8
  9
$DIMBLK
  1

  9
$DIMASO
 70
     1
  9
$DIMSHO
 70
     1
  9
$DIMPOST
  1

  9
$DIMAPOST
  1

  9
$DIMALT
 70
     0
  9
$DIMALTD
 70
     4
  9
$DIMALTF
 40
0.0394
  9
$DIMLFAC
 40
1.0
  9
$DIMTOFL
 70
     1
  9
$DIMTVP
 40
0.0
  9
$DIMTIX
 70
     0
  9
$DIMSOXD
 70
     0
  9
$DIMSAH
 70
     1
  9
$DIMBLK1
  1
OPEN
  9
$DIMBLK2
  1
OPEN
  9
$DIMSTYLE
  2
STANDARD_WS
  9
$DIMCLRD
 70
     0
  9
$DIMCLRE
 70
     0
  9
$DIMCLRT
 70
     0
  9
$DIMTFAC
 40
1.0
  9
$DIMGAP
 40
0.625
  9
$DIMJUST
 70
     0
  9
$DIMSD1
 70
     0
  9
$DIMSD2
 70
     0
  9
$DIMTOLJ
 70
     1
  9
$DIMTZIN
 70
     0
  9
$DIMALTZ
 70
     0
  9
$DIMALTTZ
 70
     0
  9
$DIMUPT
 70
     1
  9
$DIMDEC
 70
     1
  9
$DIMTDEC
 70
     1
  9
$DIMALTU
 70
     8
  9
$DIMALTTD
 70
     4
  9
$DIMTXSTY
  7
STANDARD
  9
$DIMAUNIT
 70
     0
  9
$DIMADEC
 70
     0
  9
$DIMALTRND
 40
0.0
  9
$DIMAZIN
 70
     0
  9
$DIMDSEP
 70
    46
  9
$DIMATFIT
 70
     3
  9
$DIMFRAC
 70
     0
  9
$DIMLDRBLK
  1

  9
$DIMLUNIT
 70
     2
  9
$DIMLWD
 70
    -2
  9
$DIMLWE
 70
    -2
  9
$DIMTMOVE
 70
     0
  9
$DIMFXL
 40
1.0
  9
$DIMFXLON
 70
     0
  9
$DIMJOGANG
 40
0.7853981633974483
  9
$DIMTFILL
 70
     0
  9
$DIMTFILLCLR
 70
     0
  9
$DIMARCSYM
 70
     0
  9
$DIMLTYPE
  6

  9
$DIMLTEX1
  6

  9
$DIMLTEX2
  6

  9
$DIMTXTDIRECTION
 70
     0
  9
$LUNITS
 70
     2
  9
$LUPREC
 70
     4
  9
$SKETCHINC
 40
1.0
  9
$FILLETRAD
 40
5.0
  9
$AUNITS
 70
     0
  9
$AUPREC
 70
     0
  9
$MENU
  1
.
  9
$ELEVATION
 40
0.0
  9
$PELEVATION
 40
0.0
  9
$THICKNESS
 40
0.0
  9
$LIMCHECK
 70
     0
  9
$CHAMFERA
 40
0.5
  9
$CHAMFERB
 40
0.5
  9
$CHAMFERC
 40
14.006734006734
  9
$CHAMFERD
 40
0.0
  9
$SKPOLY
 70
     0
  9
$TDCREATE
 40
2459172.361087963
  9
$TDUCREATE
 40
2459171.986087963
  9
$TDUPDATE
 40
2459172.361481482
  9
$TDUUPDATE
 40
2459171.986481482
  9
$TDINDWG
 40
0.0003009259
  9
$TDUSRTIMER
 40
0.0003009259
  9
$USRTIMER
 70
     1
  9
$ANGBASE
 50
0.0
  9
$ANGDIR
 70
     0
  9
$PDMODE
 70
     0
  9
$PDSIZE
 40
0.0
  9
$PLINEWID
 40
0.0
  9
$SPLFRAME
 70
     0
  9
$SPLINETYPE
 70
     6
  9
$SPLINESEGS
 70
     8
  9
$HANDSEED
  5
4F8
  9
$SURFTAB1
 70
     6
  9
$SURFTAB2
 70
     6
  9
$SURFTYPE
 70
     6
  9
$SURFU
 70
     6
  9
$SURFV
 70
     6
  9
$UCSBASE
  2

  9
$UCSNAME
  2

  9
$UCSORG
 10
0.0
 20
0.0
 30
0.0
  9
$UCSXDIR
 10
1.0
 20
0.0
 30
0.0
  9
$UCSYDIR
 10
0.0
 20
1.0
 30
0.0
  9
$UCSORTHOREF
  2

  9
$UCSORTHOVIEW
 70
     0
  9
$UCSORGTOP
 10
0.0
 20
0.0
 30
0.0
  9
$UCSORGBOTTOM
 10
0.0
 20
0.0
 30
0.0
  9
$UCSORGLEFT
 10
0.0
 20
0.0
 30
0.0
  9
$UCSORGRIGHT
 10
0.0
 20
0.0
 30
0.0
  9
$UCSORGFRONT
 10
0.0
 20
0.0
 30
0.0
  9
$UCSORGBACK
 10
0.0
 20
0.0
 30
0.0
  9
$PUCSBASE
  2

  9
$PUCSNAME
  2

  9
$PUCSORG
 10
0.0
 20
0.0
 30
0.0
  9
$PUCSXDIR
 10
1.0
 20
0.0
 30
0.0
  9
$PUCSYDIR
 10
0.0
 20
1.0
 30
0.0
  9
$PUCSORTHOREF
  2

  9
$PUCSORTHOVIEW
 70
     0
  9
$PUCSORGTOP
 10
0.0
 20
0.0
 30
0.0
  9
$PUCSORGBOTTOM
 10
0.0
 20
0.0
 30
0.0
  9
$PUCSORGLEFT
 10
0.0
 20
0.0
 30
0.0
  9
$PUCSORGRIGHT
 10
0.0
 20
0.0
 30
0.0
  9
$PUCSORGFRONT
 10
0.0
 20
0.0
 30
0.0
  9
$PUCSORGBACK
 10
0.0
 20
0.0
 30
0.0
  9
$USERI1
 70
     0
  9
$USERI2
 70
     0
  9
$USERI3
 70
     0
  9
$USERI4
 70
     0
  9
$USERI5
 70
     0
  9
$USERR1
 40
0.0
  9
$USERR2
 40
0.0
  9
$USERR3
 40
0.0
  9
$USERR4
 40
0.0
  9
$USERR5
 40
0.0
  9
$WORLDVIEW
 70
     1
  9
$SHADEDGE
 70
     3
  9
$SHADEDIF
 70
    70
  9
$TILEMODE
 70
     1
  9
$MAXACTVP
 70
    48
  9
$PINSBASE
 10
0.0
 20
0.0
 30
0.0
  9
$PLIMCHECK
 70
     0
  9
$PEXTMIN
 10
1.000000000000000E+20
 20
1.000000000000000E+20
 30
1.000000000000000E+20
  9
$PEXTMAX
 10
-1.000000000000000E+20
 20
-1.000000000000000E+20
 30
-1.000000000000000E+20
  9
$PLIMMIN
 10
0.0
 20
0.0
  9
$PLIMMAX
 10
12.0
 20
9.0
  9
$UNITMODE
 70
     0
  9
$VISRETAIN
 70
     1
  9
$PLINEGEN
 70
     0
  9
$PSLTSCALE
 70
     0
  9
$TREEDEPTH
 70
  3020
  9
$CMLSTYLE
  2
Standard
  9
$CMLJUST
 70
     0
  9
$CMLSCALE
 40
20.0
  9
$PROXYGRAPHICS
 70
     1
  9
$MEASUREMENT
 70
     1
  9
$CELWEIGHT
370
    -1
  9
$ENDCAPS
280
     0
  9
$JOINSTYLE
280
     0
  9
$LWDISPLAY
290
     0
  9
$INSUNITS
 70
     0
  9
$HYPERLINKBASE
  1

  9
$STYLESHEET
  1

  9
$XEDIT
290
     1
  9
$CEPSNTYPE
380
     0
  9
$PSTYLEMODE
290
     1
  9
$FINGERPRINTGUID
  2
{980960C8-452F-004A-8CAD-136DF73E758A}
  9
$VERSIONGUID
  2
{AC95D516-8361-5045-A278-341CE0659F95}
  9
$EXTNAMES
290
     1
  9
$PSVPSCALE
 40
0.0
  9
$OLESTARTUP
290
     0
  9
$SORTENTS
280
   127
  9
$INDEXCTL
280
     0
  9
$HIDETEXT
280
     1
  9
$XCLIPFRAME
280
     2
  9
$HALOGAP
280
     0
  9
$OBSCOLOR
 70
   257
  9
$OBSLTYPE
280
     0
  9
$INTERSECTIONDISPLAY
280
     0
  9
$INTERSECTIONCOLOR
 70
   257
  9
$DIMASSOC
280
     1
  9
$PROJECTNAME
  1

  9
$CAMERADISPLAY
290
     0
  9
$LENSLENGTH
 40
50.0
  9
$CAMERAHEIGHT
 40
0.0
  9
$STEPSPERSEC
 40
2.0
  9
$STEPSIZE
 40
6.0
  9
$3DDWFPREC
 40
2.0
  9
$PSOLWIDTH
 40
0.25
  9
$PSOLHEIGHT
 40
4.0
  9
$LOFTANG1
 40
1.570796326794896
  9
$LOFTANG2
 40
1.570796326794896
  9
$LOFTMAG1
 40
0.0
  9
$LOFTMAG2
 40
0.0
  9
$LOFTPARAM
 70
     7
  9
$LOFTNORMALS
280
     1
  9
$LATITUDE
 40
37.795
  9
$LONGITUDE
 40
-122.394
  9
$NORTHDIRECTION
 40
0.0
  9
$TIMEZONE
 70
 -8000
  9
$LIGHTGLYPHDISPLAY
280
     1
  9
$TILEMODELIGHTSYNCH
280
     1
  9
$CMATERIAL
347
11
  9
$SOLIDHIST
280
     0
  9
$SHOWHIST
280
     1
  9
$DWFFRAME
280
     2
  9
$DGNFRAME
280
     0
  9
$REALWORLDSCALE
290
     1
  9
$INTERFERECOLOR
 62
     1
  9
$INTERFEREOBJVS
345
33
  9
$INTERFEREVPVS
346
30
  9
$CSHADOW
280
     0
  9
$SHADOWPLANELOCATION
 40
0.0
  0
ENDSEC
  0
SECTION
  2
CLASSES
  0
CLASS
  1
ACDBDICTIONARYWDFLT
  2
AcDbDictionaryWithDefault
  3
ObjectDBX Classes
 90
        0
 91
        1
280
     0
281
     0
  0
CLASS
  1
MATERIAL
  2
AcDbMaterial
  3
ObjectDBX Classes
 90
     1153
 91
        3
280
     0
281
     0
  0
CLASS
  1
VISUALSTYLE
  2
AcDbVisualStyle
  3
ObjectDBX Classes
 90
     4095
 91
       24
280
     0
281
     0
  0
CLASS
  1
SCALE
  2
AcDbScale
  3
ObjectDBX Classes
 90
     1153
 91
       17
280
     0
281
     0
  0
CLASS
  1
TABLESTYLE
  2
AcDbTableStyle
  3
ObjectDBX Classes
 90
     4095
 91
        1
280
     0
281
     0
  0
CLASS
  1
MLEADERSTYLE
  2
AcDbMLeaderStyle
  3
ACDB_MLEADERSTYLE_CLASS
 90
     4095
 91
        1
280
     0
281
     0
  0
CLASS
  1
ACDBSECTIONVIEWSTYLE
  2
AcDbSectionViewStyle
  3
ObjectDBX Classes
 90
     1025
 91
        2
280
     0
281
     0
  0
CLASS
  1
ACDBDETAILVIEWSTYLE
  2
AcDbDetailViewStyle
  3
ObjectDBX Classes
 90
     1025
 91
        2
280
     0
281
     0
  0
CLASS
  1
SORTENTSTABLE
  2
AcDbSortentsTable
  3
ObjectDBX Classes
 90
        0
 91
        1
280
     0
281
     0
  0
CLASS
  1
DICTIONARYVAR
  2
AcDbDictionaryVar
  3
ObjectDBX Classes
 90
        0
 91
       10
280
     0
281
     0
  0
CLASS
  1
CELLSTYLEMAP
  2
AcDbCellStyleMap
  3
ObjectDBX Classes
 90
     1152
 91
        1
280
     0
281
     0
  0
ENDSEC
  0
SECTION
  2
TABLES
  0
TABLE
  2
VPORT
  5
8
330
0
100
AcDbSymbolTable
 70
     1
  0
VPORT
  5
57
330
8
100
AcDbSymbolTableRecord
100
AcDbViewportTableRecord
  2
*Active
 70
     0
 10
0.0
 20
0.0
 11
1.0
 21
1.0
 12
143.0103272406355
 22
92.71191575450266
 13
0.0
 23
0.0
 14
10.0
 24
10.0
 15
10.0
 25
10.0
 16
0.0
 26
0.0
 36
1.0
 17
0.0
 27
0.0
 37
0.0
 40
217.9644635661285
 41
2.370967741935483
 42
50.0
 43
0.0
 44
0.0
 50
0.0
 51
0.0
 71
     0
 72
   100
 73
     1
 74
     1
 75
     0
 76
     0
 77
     0
 78
     0
281
     0
 65
     1
110
0.0
120
0.0
130
0.0
111
1.0
121
0.0
131
0.0
112
0.0
122
1.0
132
0.0
 79
     0
146
0.0
348
2F
 60
     0
 61
     5
292
     1
282
     1
141
0.0
142
0.0
 63
   250
421
  3355443
1001
ACAD_NAV_VCDISPLAY
1070
     3
  0
ENDTAB
  0
TABLE
  2
LTYPE
  5
5
330
0
100
AcDbSymbolTable
 70
     3
  0
LTYPE
  5
5B
330
5
100
AcDbSymbolTableRecord
100
AcDbLinetypeTableRecord
  2
ByBlock
 70
     0
  3

 72
    65
 73
     0
 40
0.0
  0
LTYPE
  5
5C
330
5
100
AcDbSymbolTableRecord
100
AcDbLinetypeTableRecord
  2
ByLayer
 70
     0
  3

 72
    65
 73
     0
 40
0.0
  0
LTYPE
  5
5D
330
5
100
AcDbSymbolTableRecord
100
AcDbLinetypeTableRecord
  2
Continuous
 70
     0
  3
Solid line
 72
    65
 73
     0
 40
0.0
  0
LTYPE
  5
7A
330
5
100
AcDbSymbolTableRecord
100
AcDbLinetypeTableRecord
  2
CENTER2
 70
     0
  3
Center (.5x) ___ _ ___ _ ___ _ ___ _ ___ _ ___
 72
    65
 73
     4
 40
28.575
 49
19.05
 74
     0
 49
-3.174999999999999
 74
     0
 49
3.174999999999999
 74
     0
 49
-3.174999999999999
 74
     0
  0
LTYPE
  5
7B
330
5
100
AcDbSymbolTableRecord
100
AcDbLinetypeTableRecord
  2
HIDDEN2
 70
     0
  3
Hidden (.5x) _ _ _ _ _ _ _ _ _ _ _ _ _ _ _ _ _
 72
    65
 73
     2
 40
4.762499999999999
 49
3.174999999999999
 74
     0
 49
-1.587499999999999
 74
     0
  0
ENDTAB
  0
TABLE
  2
LAYER
  5
2
330
0
100
AcDbSymbolTable
 70
     8
  0
LAYER
  5
54
102
{ACAD_XDICTIONARY
360
4F2
102
}
330
2
100
AcDbSymbolTableRecord
100
AcDbLayerTableRecord
  2
0
 70
     0
 62
     7
  6
Continuous
370
    -3
390
F
347
21
348
0
1001
AcAecLayerStandard
1000

1000

  0
LAYER
  5
79
330
2
100
AcDbSymbolTableRecord
100
AcDbLayerTableRecord
  2
Defpoints
 70
     0
 62
     7
  6
Continuous
290
     0
370
    -3
390
F
347
21
348
0
1001
AcAecLayerStandard
1000

1000

  0
LAYER
  5
7E
102
{ACAD_XDICTIONARY
360
7F
102
}
330
2
100
AcDbSymbolTableRecord
100
AcDbLayerTableRecord
  2
VIEWPORT
 70
     0
 62
     7
  6
Continuous
370
    -3
390
F
347
21
348
0
  0
LAYER
  5
82
102
{ACAD_XDICTIONARY
360
83
102
}
330
2
100
AcDbSymbolTableRecord
100
AcDbLayerTableRecord
  2
基本図面
 70
     0
 62
     7
  6
Continuous
370
    -3
390
F
347
21
348
0
  0
LAYER
  5
8B
102
{ACAD_XDICTIONARY
360
8C
102
}
330
2
100
AcDbSymbolTableRecord
100
AcDbLayerTableRecord
  2
点線
 70
     0
 62
     9
  6
HIDDEN2
370
    -3
390
F
347
21
348
0
  0
LAYER
  5
95
102
{ACAD_XDICTIONARY
360
96
102
}
330
2
100
AcDbSymbolTableRecord
100
AcDbLayerTableRecord
  2
寸法線
 70
     0
 62
     6
  6
Continuous
370
    -3
390
F
347
21
348
0
  0
LAYER
  5
12D
102
{ACAD_XDICTIONARY
360
12E
102
}
330
2
100
AcDbSymbolTableRecord
100
AcDbLayerTableRecord
  2
センター線
 70
     0
 62
     1
  6
CENTER2
370
    -3
390
F
347
21
348
0
  0
LAYER
  5
424
102
{ACAD_XDICTIONARY
360
425
102
}
330
2
100
AcDbSymbolTableRecord
100
AcDbLayerTableRecord
  2
図面枠
 70
     0
 62
     5
  6
Continuous
370
    -3
390
F
347
21
348
0
  0
ENDTAB
  0
TABLE
  2
STYLE
  5
3
330
0
100
AcDbSymbolTable
 70
     2
  0
STYLE
  5
55
330
3
100
AcDbSymbolTableRecord
100
AcDbTextStyleTableRecord
  2
STANDARD
 70
     0
 40
0.0
 41
1.0
 50
0.0
 71
     0
 42
1.25
  3

  4

  0
STYLE
  5
5A
330
3
100
AcDbSymbolTableRecord
100
AcDbTextStyleTableRecord
  2
Annotative
 70
     0
 40
0.0
 41
1.0
 50
0.0
 71
     0
 42
0.2
  3
txt
  4

1001
AcadAnnotative
1000
AnnotativeData
1002
{
1070
     1
1070
     1
1002
}
  0
ENDTAB
  0
TABLE
  2
VIEW
  5
6
330
0
100
AcDbSymbolTable
 70
     0
  0
ENDTAB
  0
TABLE
  2
UCS
  5
7
330
0
100
AcDbSymbolTable
 70
     0
  0
ENDTAB
  0
TABLE
  2
APPID
  5
9
330
0
100
AcDbSymbolTable
 70
     5
  0
APPID
  5
56
330
9
100
AcDbSymbolTableRecord
100
AcDbRegAppTableRecord
  2
ACAD
 70
     0
  0
APPID
  5
5E
330
9
100
AcDbSymbolTableRecord
100
AcDbRegAppTableRecord
  2
AcadAnnotative
 70
     0
  0
APPID
  5
78
330
9
100
AcDbSymbolTableRecord
100
AcDbRegAppTableRecord
  2
ACAD_PSEXT
 70
     0
  0
APPID
  5
449
330
9
100
AcDbSymbolTableRecord
100
AcDbRegAppTableRecord
  2
AcAecLayerStandard
 70
     0
  0
APPID
  5
4F4
330
9
100
AcDbSymbolTableRecord
100
AcDbRegAppTableRecord
  2
ACAD_NAV_VCDISPLAY
 70
     0
  0
ENDTAB
  0
TABLE
  2
DIMSTYLE
  5
A
330
0
100
AcDbSymbolTable
 70
     3
100
AcDbDimStyleTable
 71
     1
340
7C
  0
DIMSTYLE
105
58
330
A
100
AcDbSymbolTableRecord
100
AcDbDimStyleTableRecord
  2
Standard
 70
     0
340
55
  0
DIMSTYLE
105
59
330
A
100
AcDbSymbolTableRecord
100
AcDbDimStyleTableRecord
  2
Annotative
 70
     0
340
55
1001
AcadAnnotative
1000
AnnotativeData
1002
{
1070
     1
1070
     1
1002
}
  0
DIMSTYLE
105
7C
102
{ACAD_REACTORS
330
DE
330
EA
330
F6
330
103
330
110
330
120
330
132
330
13F
330
14C
330
94
330
AA
330
B7
330
C4
330
D1
330
15C
330
169
330
17B
102
}
330
A
100
AcDbSymbolTableRecord
100
AcDbDimStyleTableRecord
  2
STANDARD_WS
 70
     0
 40
0.7003367003367004
 41
2.5
 42
0.625
 43
3.75
 44
1.25
 73
     0
 74
     0
 77
     1
 78
     8
140
2.5
141
2.5
143
0.0394
147
0.625
171
     4
172
     1
273
     8
274
     4
340
55
  0
ENDTAB
  0
TABLE
  2
BLOCK_RECORD
  5
1
330
0
100
AcDbSymbolTable
 70
    37
  0
BLOCK_RECORD
  5
70
102
{ACAD_XDICTIONARY
360
421
102
}
330
1
100
AcDbSymbolTableRecord
100
AcDbBlockTableRecord
  2
*Model_Space
340
73
 70
     0
280
     1
281
     0
  0
BLOCK_RECORD
  5
6C
330
1
100
AcDbSymbolTableRecord
100
AcDbBlockTableRecord
  2
*Paper_Space
340
6F
 70
     0
280
     1
281
     0
  0
BLOCK_RECORD
  5
74
330
1
100
AcDbSymbolTableRecord
100
AcDbBlockTableRecord
  2
*Paper_Space0
340
77
 70
     0
280
     1
281
     0
  0
BLOCK_RECORD
  5
9E
330
1
100
AcDbSymbolTableRecord
100
AcDbBlockTableRecord
  2
_OPEN
340
0
102
{BLKREFS
331
4A6
331
4A7
331
4AD
331
4AE
331
4B6
331
4B7
331
4C0
331
4C1
331
4C7
331
4C8
331
4D0
331
4D1
331
4D9
331
4DA
331
44D
331
44E
331
456
331
457
331
45F
331
460
331
468
331
469
331
471
331
472
331
479
331
47A
331
481
331
482
331
48A
331
48B
331
493
331
494
331
49C
331
49D
102
}
 70
     0
280
     1
281
     0
  0
BLOCK_RECORD
  5
19A
330
1
100
AcDbSymbolTableRecord
100
AcDbBlockTableRecord
  2
*D19
340
0
 70
     0
280
     1
281
     0
  0
BLOCK_RECORD
  5
1A6
330
1
100
AcDbSymbolTableRecord
100
AcDbBlockTableRecord
  2
*D20
340
0
 70
     0
280
     1
281
     0
  0
BLOCK_RECORD
  5
1B2
330
1
100
AcDbSymbolTableRecord
100
AcDbBlockTableRecord
  2
*D21
340
0
 70
     0
280
     1
281
     0
  0
BLOCK_RECORD
  5
1BE
330
1
100
AcDbSymbolTableRecord
100
AcDbBlockTableRecord
  2
*D22
340
0
 70
     0
280
     1
281
     0
  0
BLOCK_RECORD
  5
1CA
330
1
100
AcDbSymbolTableRecord
100
AcDbBlockTableRecord
  2
*D23
340
0
 70
     0
280
     1
281
     0
  0
BLOCK_RECORD
  5
1D6
330
1
100
AcDbSymbolTableRecord
100
AcDbBlockTableRecord
  2
*D24
340
0
 70
     0
280
     1
281
     0
  0
BLOCK_RECORD
  5
1E1
330
1
100
AcDbSymbolTableRecord
100
AcDbBlockTableRecord
  2
*D25
340
0
 70
     0
280
     1
281
     0
  0
BLOCK_RECORD
  5
1EC
330
1
100
AcDbSymbolTableRecord
100
AcDbBlockTableRecord
  2
*D26
340
0
 70
     0
280
     1
281
     0
  0
BLOCK_RECORD
  5
1F8
330
1
100
AcDbSymbolTableRecord
100
AcDbBlockTableRecord
  2
*D27
340
0
 70
     0
280
     1
281
     0
  0
BLOCK_RECORD
  5
204
330
1
100
AcDbSymbolTableRecord
100
AcDbBlockTableRecord
  2
*D28
340
0
 70
     0
280
     1
281
     0
  0
BLOCK_RECORD
  5
210
330
1
100
AcDbSymbolTableRecord
100
AcDbBlockTableRecord
  2
*D29
340
0
 70
     0
280
     1
281
     0
  0
BLOCK_RECORD
  5
21B
330
1
100
AcDbSymbolTableRecord
100
AcDbBlockTableRecord
  2
*D30
340
0
 70
     0
280
     1
281
     0
  0
BLOCK_RECORD
  5
227
330
1
100
AcDbSymbolTableRecord
100
AcDbBlockTableRecord
  2
*D31
340
0
 70
     0
280
     1
281
     0
  0
BLOCK_RECORD
  5
233
330
1
100
AcDbSymbolTableRecord
100
AcDbBlockTableRecord
  2
*D32
340
0
 70
     0
280
     1
281
     0
  0
BLOCK_RECORD
  5
23E
330
1
100
AcDbSymbolTableRecord
100
AcDbBlockTableRecord
  2
*D33
340
0
 70
     0
280
     1
281
     0
  0
BLOCK_RECORD
  5
24A
330
1
100
AcDbSymbolTableRecord
100
AcDbBlockTableRecord
  2
*D34
340
0
 70
     0
280
     1
281
     0
  0
BLOCK_RECORD
  5
256
330
1
100
AcDbSymbolTableRecord
100
AcDbBlockTableRecord
  2
*D35
340
0
 70
     0
280
     1
281
     0
  0
BLOCK_RECORD
  5
427
330
1
100
AcDbSymbolTableRecord
100
AcDbBlockTableRecord
  2
TITLE_BLOCK
340
0
102
{BLKREFS
331
423
102
}
 70
     0
280
     1
281
     0
  0
ENDTAB
  0
ENDSEC
  0
SECTION
  2
BLOCKS
  0
BLOCK
  5
71
330
70
100
AcDbEntity
  8
0
100
AcDbBlockBegin
  2
*Model_Space
 70
     0
 10
0.0
 20
0.0
 30
0.0
  3
*Model_Space
  1

  0
ENDBLK
  5
72
330
70
100
AcDbEntity
  8
0
100
AcDbBlockEnd
  0
BLOCK
  5
6D
330
6C
100
AcDbEntity
 67
     1
  8
0
100
AcDbBlockBegin
  2
*Paper_Space
 70
     0
 10
0.0
 20
0.0
 30
0.0
  3
*Paper_Space
  1

  0
ENDBLK
  5
6E
330
6C
100
AcDbEntity
 67
     1
  8
0
100
AcDbBlockEnd
  0
BLOCK
  5
75
330
74
100
AcDbEntity
 67
     1
  8
0
100
AcDbBlockBegin
  2
*Paper_Space0
 70
     0
 10
0.0
 20
0.0
 30
0.0
  3
*Paper_Space0
  1

  0
ENDBLK
  5
76
330
74
100
AcDbEntity
 67
     1
  8
0
100
AcDbBlockEnd
  0
BLOCK
  5
9F
330
9E
100
AcDbEntity
  8
0
100
AcDbBlockBegin
  2
_OPEN
 70
     0
 10
0.0
 20
0.0
 30
0.0
  3
_OPEN
  1

  0
LINE
  5
A0
330
9E
100
AcDbEntity
  8
0
  6
ByBlock
 62
     0
100
AcDbLine
 10
-1.0
 20
0.1666666666666666
 30
0.0
 11
0.0
 21
0.0
 31
0.0
  0
LINE
  5
A1
330
9E
100
AcDbEntity
  8
0
  6
ByBlock
 62
     0
100
AcDbLine
 10
0.0
 20
0.0
 30
0.0
 11
-1.0
 21
-0.1666666666666666
 31
0.0
  0
LINE
  5
A2
330
9E
100
AcDbEntity
  8
0
  6
ByBlock
 62
     0
100
AcDbLine
 10
0.0
 20
0.0
 30
0.0
 11
-1.0
 21
0.0
 31
0.0
  0
ENDBLK
  5
A3
330
9E
100
AcDbEntity
  8
0
100
AcDbBlockEnd
  0
BLOCK
  5
19B
330
19A
100
AcDbEntity
  8
0
100
AcDbBlockBegin
  2
*D19
 70
     1
 10
0.0
 20
0.0
 30
0.0
  3
*D19
  1

  0
LINE
  5
44A
330
19A
100
AcDbEntity
  8
寸法線
 62
     0
440
 16777216
 48
0.9999999795830735
370
    -2
100
AcDbLine
 10
171.8292701053506
 20
89.55144680696212
 30
0.0
 11
171.8292701053506
 21
99.43178037159814
 31
0.0
  0
LINE
  5
44B
330
19A
100
AcDbEntity
  8
寸法線
 62
     0
440
 16777216
 48
0.9999999795830735
370
    -2
100
AcDbLine
 10
111.8287639837581
 20
90.35288208904676
 30
0.0
 11
111.8287639837581
 21
99.43178037159814
 31
0.0
  0
LINE
  5
44C
330
19A
100
AcDbEntity
  8
寸法線
 62
     0
440
 16777216
 48
0.9999999795830735
370
    -2
100
AcDbLine
 10
170.5792701308717
 20
98.80678038435872
 30
0.0
 11
113.0787639582369
 21
98.80678038435872
 31
0.0
  0
INSERT
  5
44D
330
19A
100
AcDbEntity
  8
寸法線
 62
     0
440
 16777216
 48
0.9999999795830735
370
    -2
100
AcDbBlockReference
  2
_OPEN
 10
171.8292701053506
 20
98.80678038435872
 30
0.0
 41
1.249999974478841
 42
1.249999974478841
 43
1.249999974478841
  0
INSERT
  5
44E
330
19A
100
AcDbEntity
  8
寸法線
 62
     0
440
 16777216
 48
0.9999999795830735
370
    -2
100
AcDbBlockReference
  2
_OPEN
 10
111.8287639837581
 20
98.80678038435872
 30
0.0
 41
1.249999974478841
 42
1.249999974478841
 43
1.249999974478841
 50
180.0
  0
MTEXT
  5
44F
330
19A
100
AcDbEntity
  8
寸法線
 62
     0
440
 16777216
 48
0.9999999795830735
100
AcDbMText
 10
142.6292707011962
 20
99.74428036521786
 30
0.0
 40
1.249999974478841
 41
0.0
 46
0.0
 71
     5
 72
     1
  1
\A1;60
 73
     1
 44
1.0
  0
POINT
  5
450
330
19A
100
AcDbEntity
  8
Defpoints
 62
     0
440
 16777216
 48
0.9999999795830735
100
AcDbPoint
 10
171.8292701053506
 20
89.23894681334241
 30
0.0
  0
POINT
  5
451
330
19A
100
AcDbEntity
  8
Defpoints
 62
     0
440
 16777216
 48
0.9999999795830735
100
AcDbPoint
 10
111.8287639837581
 20
90.04038209542704
 30
0.0
  0
POINT
  5
452
330
19A
100
AcDbEntity
  8
Defpoints
 62
     0
440
 16777216
 48
0.9999999795830735
100
AcDbPoint
 10
111.8287639837581
 20
98.80678038435872
 30
0.0
  0
ENDBLK
  5
19C
330
19A
100
AcDbEntity
  8
0
100
AcDbBlockEnd
  0
BLOCK
  5
1A7
330
1A6
100
AcDbEntity
  8
0
100
AcDbBlockBegin
  2
*D20
 70
     1
 10
0.0
 20
0.0
 30
0.0
  3
*D20
  1

  0
LINE
  5
453
330
1A6
100
AcDbEntity
  8
寸法線
 62
     0
440
 16777216
 48
0.9999999795830735
370
    -2
100
AcDbLine
 10
111.7997077804466
 20
57.32718724698971
 30
0.0
 11
111.7997077804466
 21
52.95767262850168
 31
0.0
  0
LINE
  5
454
330
1A6
100
AcDbEntity
  8
寸法線
 62
     0
440
 16777216
 48
0.9999999795830735
370
    -2
100
AcDbLine
 10
151.7983076481541
 20
57.3270238436482
 30
0.0
 11
151.7983076481541
 21
52.95767262850168
 31
0.0
  0
LINE
  5
455
330
1A6
100
AcDbEntity
  8
寸法線
 62
     0
440
 16777216
 48
0.9999999795830735
370
    -2
100
AcDbLine
 10
113.0497077549254
 20
53.5826726157411
 30
0.0
 11
150.5483076736753
 21
53.5826726157411
 31
0.0
  0
INSERT
  5
456
330
1A6
100
AcDbEntity
  8
寸法線
 62
     0
440
 16777216
 48
0.9999999795830735
370
    -2
100
AcDbBlockReference
  2
_OPEN
 10
111.7997077804466
 20
53.5826726157411
 30
0.0
 41
1.249999974478841
 42
1.249999974478841
 43
1.249999974478841
 50
180.0
  0
INSERT
  5
457
330
1A6
100
AcDbEntity
  8
寸法線
 62
     0
440
 16777216
 48
0.9999999795830735
370
    -2
100
AcDbBlockReference
  2
_OPEN
 10
151.7983076481541
 20
53.5826726157411
 30
0.0
 41
1.249999974478841
 42
1.249999974478841
 43
1.249999974478841
  0
MTEXT
  5
458
330
1A6
100
AcDbEntity
  8
寸法線
 62
     0
440
 16777216
 48
0.9999999795830735
100
AcDbMText
 10
132.5988605349557
 20
54.52017259660023
 30
0.0
 40
1.249999974478841
 41
0.0
 46
0.0
 71
     5
 72
     1
  1
\A1;40
 73
     1
 44
1.0
  0
POINT
  5
459
330
1A6
100
AcDbEntity
  8
Defpoints
 62
     0
440
 16777216
 48
0.9999999795830735
100
AcDbPoint
 10
111.7997077804466
 20
57.63968724060942
 30
0.0
  0
POINT
  5
45A
330
1A6
100
AcDbEntity
  8
Defpoints
 62
     0
440
 16777216
 48
0.9999999795830735
100
AcDbPoint
 10
151.7983076481541
 20
57.63952383726792
 30
0.0
  0
POINT
  5
45B
330
1A6
100
AcDbEntity
  8
Defpoints
 62
     0
440
 16777216
 48
0.9999999795830735
100
AcDbPoint
 10
151.7983076481541
 20
53.5826726157411
 30
0.0
  0
ENDBLK
  5
1A8
330
1A6
100
AcDbEntity
  8
0
100
AcDbBlockEnd
  0
BLOCK
  5
1B3
330
1B2
100
AcDbEntity
  8
0
100
AcDbBlockBegin
  2
*D21
 70
     1
 10
0.0
 20
0.0
 30
0.0
  3
*D21
  1

  0
LINE
  5
45C
330
1B2
100
AcDbEntity
  8
寸法線
 62
     0
440
 16777216
 48
0.9999999795830735
370
    -2
100
AcDbLine
 10
151.4863601493264
 20
58.43897056196332
 30
0.0
 11
148.8235854911603
 21
58.43897056196332
 31
0.0
  0
LINE
  5
45D
330
1B2
100
AcDbEntity
  8
寸法線
 62
     0
440
 16777216
 48
0.9999999795830735
370
    -2
100
AcDbLine
 10
151.4772193081655
 20
88.43894682967951
 30
0.0
 11
148.8235854911603
 21
88.43894682967951
 31
0.0
  0
LINE
  5
45E
330
1B2
100
AcDbEntity
  8
寸法線
 62
     0
440
 16777216
 48
0.9999999795830735
370
    -2
100
AcDbLine
 10
149.4485854783998
 20
59.68897053644216
 30
0.0
 11
149.4485854783997
 21
87.18894685520067
 31
0.0
  0
INSERT
  5
45F
330
1B2
100
AcDbEntity
  8
寸法線
 62
     0
440
 16777216
 48
0.9999999795830735
370
    -2
100
AcDbBlockReference
  2
_OPEN
 10
149.4485854783998
 20
58.43897056196332
 30
0.0
 41
1.249999974478841
 42
1.249999974478841
 43
1.249999974478841
 50
270.0
  0
INSERT
  5
460
330
1B2
100
AcDbEntity
  8
寸法線
 62
     0
440
 16777216
 48
0.9999999795830735
370
    -2
100
AcDbBlockReference
  2
_OPEN
 10
149.4485854783997
 20
88.43894682967951
 30
0.0
 41
1.249999974478841
 42
1.249999974478841
 43
1.249999974478841
 50
90.0
  0
MTEXT
  5
461
330
1B2
100
AcDbEntity
  8
寸法線
 62
     0
440
 16777216
 48
0.9999999795830735
100
AcDbMText
 10
148.5110854975406
 20
73.43895869582957
 30
0.0
 40
1.249999974478841
 41
0.0
 46
0.0
 71
     5
 72
     1
  1
\A1;30
 11
0.0000000000000001
 21
1.0
 31
0.0
 73
     1
 44
1.0
  0
POINT
  5
462
330
1B2
100
AcDbEntity
  8
Defpoints
 62
     0
440
 16777216
 48
0.9999999795830735
100
AcDbPoint
 10
151.7988601429461
 20
58.43897056196332
 30
0.0
  0
POINT
  5
463
330
1B2
100
AcDbEntity
  8
Defpoints
 62
     0
440
 16777216
 48
0.9999999795830735
100
AcDbPoint
 10
151.7897193017853
 20
88.43894682967951
 30
0.0
  0
POINT
  5
464
330
1B2
100
AcDbEntity
  8
Defpoints
 62
     0
440
 16777216
 48
0.9999999795830735
100
AcDbPoint
 10
149.4485854783997
 20
88.43894682967951
 30
0.0
  0
ENDBLK
  5
1B4
330
1B2
100
AcDbEntity
  8
0
100
AcDbBlockEnd
  0
BLOCK
  5
1BF
330
1BE
100
AcDbEntity
  8
0
100
AcDbBlockBegin
  2
*D22
 70
     1
 10
0.0
 20
0.0
 30
0.0
  3
*D22
  1

  0
LINE
  5
465
330
1BE
100
AcDbEntity
  8
寸法線
 62
     0
440
 16777216
 48
0.9999999795830735
370
    -2
100
AcDbLine
 10
111.8243657585844
 20
84.82340265830972
 30
0.0000000000000001
 11
111.8243657585844
 21
72.64297151405881
 31
0.0000000000000001
  0
LINE
  5
466
330
1BE
100
AcDbEntity
  8
寸法線
 62
     0
440
 16777216
 48
0.9999999795830735
370
    -2
100
AcDbLine
 10
101.8292715342104
 20
74.95609698158041
 30
0.0000000000000001
 11
101.8292715342104
 21
72.64297151405881
 31
0.0000000000000001
  0
LINE
  5
467
330
1BE
100
AcDbEntity
  8
寸法線
 62
     0
440
 16777216
 48
0.9999999795830735
370
    -2
100
AcDbLine
 10
110.5743657841056
 20
73.26797150129824
 30
0.0000000000000001
 11
103.0792715086892
 21
73.26797150129824
 31
0.0000000000000001
  0
INSERT
  5
468
330
1BE
100
AcDbEntity
  8
寸法線
 62
     0
440
 16777216
 48
0.9999999795830735
370
    -2
100
AcDbBlockReference
  2
_OPEN
 10
111.8243657585844
 20
73.26797150129824
 30
0.0000000000000001
 41
1.249999974478841
 42
1.249999974478841
 43
1.249999974478841
  0
INSERT
  5
469
330
1BE
100
AcDbEntity
  8
寸法線
 62
     0
440
 16777216
 48
0.9999999795830735
370
    -2
100
AcDbBlockReference
  2
_OPEN
 10
101.8292715342104
 20
73.26797150129824
 30
0.0000000000000001
 41
1.249999974478841
 42
1.249999974478841
 43
1.249999974478841
 50
180.0
  0
MTEXT
  5
46A
330
1BE
100
AcDbEntity
  8
寸法線
 62
     0
440
 16777216
 48
0.9999999795830735
100
AcDbMText
 10
106.6219898777126
 20
74.20547148215736
 30
0.0000000000000001
 40
1.249999974478841
 41
0.0
 46
0.0
 71
     5
 72
     1
  1
\A1;10
 73
     1
 44
1.0
  0
POINT
  5
46B
330
1BE
100
AcDbEntity
  8
Defpoints
 62
     0
440
 16777216
 48
0.9999999795830735
100
AcDbPoint
 10
111.8243657585844
 20
85.13590265192943
 30
0.0000000000000001
  0
POINT
  5
46C
330
1BE
100
AcDbEntity
  8
Defpoints
 62
     0
440
 16777216
 48
0.9999999795830735
100
AcDbPoint
 10
101.8292715342104
 20
75.26859697520013
 30
0.0000000000000001
  0
POINT
  5
46D
330
1BE
100
AcDbEntity
  8
Defpoints
 62
     0
440
 16777216
 48
0.9999999795830735
100
AcDbPoint
 10
101.8292715342104
 20
73.26797150129824
 30
0.0000000000000001
  0
ENDBLK
  5
1C0
330
1BE
100
AcDbEntity
  8
0
100
AcDbBlockEnd
  0
BLOCK
  5
1CB
330
1CA
100
AcDbEntity
  8
0
100
AcDbBlockBegin
  2
*D23
 70
     1
 10
0.0
 20
0.0
 30
0.0
  3
*D23
  1

  0
LINE
  5
46E
330
1CA
100
AcDbEntity
  8
寸法線
 62
     0
440
 16777216
 48
0.9999999795830735
370
    -2
100
AcDbLine
 10
172.1417700986429
 20
144.4060028645981
 30
0.0
 11
176.8904004371958
 21
144.4060028645981
 31
0.0
  0
LINE
  5
46F
330
1CA
100
AcDbEntity
  8
寸法線
 62
     0
440
 16777216
 48
0.9999999795830735
370
    -2
100
AcDbLine
 10
172.1417700986429
 20
129.4060031708523
 30
0.0
 11
176.8904004371958
 21
129.4060031708523
 31
0.0
  0
LINE
  5
470
330
1CA
100
AcDbEntity
  8
寸法線
 62
     0
440
 16777216
 48
0.9999999795830735
370
    -2
100
AcDbLine
 10
176.2654004499563
 20
143.1560028901193
 30
0.0
 11
176.2654004499563
 21
130.6560031453311
 31
0.0
  0
INSERT
  5
471
330
1CA
100
AcDbEntity
  8
寸法線
 62
     0
440
 16777216
 48
0.9999999795830735
370
    -2
100
AcDbBlockReference
  2
_OPEN
 10
176.2654004499563
 20
144.4060028645981
 30
0.0
 41
1.249999974478841
 42
1.249999974478841
 43
1.249999974478841
 50
90.0
  0
INSERT
  5
472
330
1CA
100
AcDbEntity
  8
寸法線
 62
     0
440
 16777216
 48
0.9999999795830735
370
    -2
100
AcDbBlockReference
  2
_OPEN
 10
176.2654004499563
 20
129.4060031708523
 30
0.0
 41
1.249999974478841
 42
1.249999974478841
 43
1.249999974478841
 50
270.0
  0
MTEXT
  5
473
330
1CA
100
AcDbEntity
  8
寸法線
 62
     0
440
 16777216
 48
0.9999999795830735
100
AcDbMText
 10
175.3279004690972
 20
136.8894456097423
 30
0.0
 40
1.249999974478841
 41
0.0
 46
0.0
 71
     5
 72
     1
  1
\A1;15
 11
0.0000000000000001
 21
1.0
 31
0.0
 73
     1
 44
1.0
  0
POINT
  5
474
330
1CA
100
AcDbEntity
  8
Defpoints
 62
     0
440
 16777216
 48
0.9999999795830735
100
AcDbPoint
 10
171.8292701050232
 20
144.4060028645981
 30
0.0
  0
POINT
  5
475
330
1CA
100
AcDbEntity
  8
Defpoints
 62
     0
440
 16777216
 48
0.9999999795830735
100
AcDbPoint
 10
171.8292701050232
 20
129.4060031708523
 30
0.0
  0
POINT
  5
476
330
1CA
100
AcDbEntity
  8
Defpoints
 62
     0
440
 16777216
 48
0.9999999795830735
100
AcDbPoint
 10
176.2654004499563
 20
129.4060031708523
 30
0.0
  0
ENDBLK
  5
1CC
330
1CA
100
AcDbEntity
  8
0
100
AcDbBlockEnd
  0
BLOCK
  5
1D7
330
1D6
100
AcDbEntity
  8
0
100
AcDbBlockBegin
  2
*D24
 70
     1
 10
0.0
 20
0.0
 30
0.0
  3
*D24
  1

  0
LINE
  5
477
330
1D6
100
AcDbEntity
  8
寸法線
 62
     0
440
 16777216
 48
0.9999999795830735
370
    -2
100
AcDbLine
 10
172.1417700986429
 20
119.4060033750211
 30
0.0
 11
176.8904004372396
 21
119.4060033750211
 31
0.0
  0
LINE
  5
478
330
1D6
100
AcDbEntity
  8
寸法線
 62
     0
440
 16777216
 48
0.9999999795830735
370
    -2
100
AcDbLine
 10
176.2654004500002
 20
128.1560031963735
 30
0.0
 11
176.2654004500002
 21
120.6560033495
 31
0.0
  0
INSERT
  5
479
330
1D6
100
AcDbEntity
  8
寸法線
 62
     0
440
 16777216
 48
0.9999999795830735
370
    -2
100
AcDbBlockReference
  2
_OPEN
 10
176.2654004500002
 20
129.4060031708523
 30
0.0
 41
1.249999974478841
 42
1.249999974478841
 43
1.249999974478841
 50
90.0
  0
INSERT
  5
47A
330
1D6
100
AcDbEntity
  8
寸法線
 62
     0
440
 16777216
 48
0.9999999795830735
370
    -2
100
AcDbBlockReference
  2
_OPEN
 10
176.2654004500002
 20
119.4060033750211
 30
0.0
 41
1.249999974478841
 42
1.249999974478841
 43
1.249999974478841
 50
270.0
  0
MTEXT
  5
47B
330
1D6
100
AcDbEntity
  8
寸法線
 62
     0
440
 16777216
 48
0.9999999795830735
100
AcDbMText
 10
175.3279004691411
 20
124.4060032729366
 30
0.0
 40
1.249999974478841
 41
0.0
 46
0.0
 71
     5
 72
     1
  1
\A1;10
 11
0.0000000000000001
 21
1.0
 31
0.0
 73
     1
 44
1.0
  0
POINT
  5
47C
330
1D6
100
AcDbEntity
  8
Defpoints
 62
     0
440
 16777216
 48
0.9999999795830735
100
AcDbPoint
 10
171.8292701050232
 20
129.4060031708523
 30
0.0
  0
POINT
  5
47D
330
1D6
100
AcDbEntity
  8
Defpoints
 62
     0
440
 16777216
 48
0.9999999795830735
100
AcDbPoint
 10
171.8292701050232
 20
119.4060033750211
 30
0.0
  0
POINT
  5
47E
330
1D6
100
AcDbEntity
  8
Defpoints
 62
     0
440
 16777216
 48
0.9999999795830735
100
AcDbPoint
 10
176.2654004500002
 20
119.4060033750211
 30
0.0
  0
ENDBLK
  5
1D8
330
1D6
100
AcDbEntity
  8
0
100
AcDbBlockEnd
  0
BLOCK
  5
1E2
330
1E1
100
AcDbEntity
  8
0
100
AcDbBlockBegin
  2
*D25
 70
     1
 10
0.0
 20
0.0
 30
0.0
  3
*D25
  1

  0
LINE
  5
47F
330
1E1
100
AcDbEntity
  8
寸法線
 62
     0
440
 16777216
 48
0.9999999795830735
370
    -2
100
AcDbLine
 10
172.1417700986429
 20
104.4060036812735
 30
0.0
 11
176.8904004372396
 21
104.4060036812735
 31
0.0
  0
LINE
  5
480
330
1E1
100
AcDbEntity
  8
寸法線
 62
     0
440
 16777216
 48
0.9999999795830735
370
    -2
100
AcDbLine
 10
176.2654004500002
 20
118.1560034005423
 30
0.0
 11
176.2654004500002
 21
105.6560036557523
 31
0.0
  0
INSERT
  5
481
330
1E1
100
AcDbEntity
  8
寸法線
 62
     0
440
 16777216
 48
0.9999999795830735
370
    -2
100
AcDbBlockReference
  2
_OPEN
 10
176.2654004500002
 20
119.4060033750211
 30
0.0
 41
1.249999974478841
 42
1.249999974478841
 43
1.249999974478841
 50
90.0
  0
INSERT
  5
482
330
1E1
100
AcDbEntity
  8
寸法線
 62
     0
440
 16777216
 48
0.9999999795830735
370
    -2
100
AcDbBlockReference
  2
_OPEN
 10
176.2654004500002
 20
104.4060036812735
 30
0.0
 41
1.249999974478841
 42
1.249999974478841
 43
1.249999974478841
 50
270.0
  0
MTEXT
  5
483
330
1E1
100
AcDbEntity
  8
寸法線
 62
     0
440
 16777216
 48
0.9999999795830735
100
AcDbMText
 10
175.3279004691411
 20
111.9060035281472
 30
0.0
 40
1.249999974478841
 41
0.0
 46
0.0
 71
     5
 72
     1
  1
\A1;15
 11
0.0000000000000001
 21
1.0
 31
0.0
 73
     1
 44
1.0
  0
POINT
  5
484
330
1E1
100
AcDbEntity
  8
Defpoints
 62
     0
440
 16777216
 48
0.9999999795830735
100
AcDbPoint
 10
171.8292701050232
 20
119.4060033750211
 30
0.0
  0
POINT
  5
485
330
1E1
100
AcDbEntity
  8
Defpoints
 62
     0
440
 16777216
 48
0.9999999795830735
100
AcDbPoint
 10
171.8292701050232
 20
104.4060036812735
 30
0.0
  0
POINT
  5
486
330
1E1
100
AcDbEntity
  8
Defpoints
 62
     0
440
 16777216
 48
0.9999999795830735
100
AcDbPoint
 10
176.2654004500002
 20
104.4060036812735
 30
0.0
  0
ENDBLK
  5
1E3
330
1E1
100
AcDbEntity
  8
0
100
AcDbBlockEnd
  0
BLOCK
  5
1ED
330
1EC
100
AcDbEntity
  8
0
100
AcDbBlockBegin
  2
*D26
 70
     1
 10
0.0
 20
0.0
 30
0.0
  3
*D26
  1

  0
LINE
  5
487
330
1EC
100
AcDbEntity
  8
寸法線
 62
     0
440
 16777216
 48
0.9999999795830735
370
    -2
100
AcDbLine
 10
172.1417700986429
 20
104.4060036812735
 30
0.0
 11
180.1130242893574
 21
104.4060036812735
 31
0.0
  0
LINE
  5
488
330
1EC
100
AcDbEntity
  8
寸法線
 62
     0
440
 16777216
 48
0.9999999795830735
370
    -2
100
AcDbLine
 10
172.1417700986429
 20
144.4060028645981
 30
0.0
 11
180.1130242893574
 21
144.4060028645981
 31
0.0
  0
LINE
  5
489
330
1EC
100
AcDbEntity
  8
寸法線
 62
     0
440
 16777216
 48
0.9999999795830735
370
    -2
100
AcDbLine
 10
179.488024302118
 20
105.6560036557523
 30
0.0
 11
179.488024302118
 21
143.1560028901193
 31
0.0
  0
INSERT
  5
48A
330
1EC
100
AcDbEntity
  8
寸法線
 62
     0
440
 16777216
 48
0.9999999795830735
370
    -2
100
AcDbBlockReference
  2
_OPEN
 10
179.488024302118
 20
104.4060036812735
 30
0.0
 41
1.249999974478841
 42
1.249999974478841
 43
1.249999974478841
 50
270.0
  0
INSERT
  5
48B
330
1EC
100
AcDbEntity
  8
寸法線
 62
     0
440
 16777216
 48
0.9999999795830735
370
    -2
100
AcDbBlockReference
  2
_OPEN
 10
179.488024302118
 20
144.4060028645981
 30
0.0
 41
1.249999974478841
 42
1.249999974478841
 43
1.249999974478841
 50
90.0
  0
MTEXT
  5
48C
330
1EC
100
AcDbEntity
  8
寸法線
 62
     0
440
 16777216
 48
0.9999999795830735
100
AcDbMText
 10
178.5505243212588
 20
124.5040860938061
 30
0.0
 40
1.249999974478841
 41
0.0
 46
0.0
 71
     5
 72
     1
  1
\A1;40
 11
0.0000000000000001
 21
1.0
 31
0.0
 73
     1
 44
1.0
  0
POINT
  5
48D
330
1EC
100
AcDbEntity
  8
Defpoints
 62
     0
440
 16777216
 48
0.9999999795830735
100
AcDbPoint
 10
171.8292701050232
 20
104.4060036812735
 30
0.0
  0
POINT
  5
48E
330
1EC
100
AcDbEntity
  8
Defpoints
 62
     0
440
 16777216
 48
0.9999999795830735
100
AcDbPoint
 10
171.8292701050232
 20
144.4060028645981
 30
0.0
  0
POINT
  5
48F
330
1EC
100
AcDbEntity
  8
Defpoints
 62
     0
440
 16777216
 48
0.9999999795830735
100
AcDbPoint
 10
179.488024302118
 20
144.4060028645981
 30
0.0
  0
ENDBLK
  5
1EE
330
1EC
100
AcDbEntity
  8
0
100
AcDbBlockEnd
  0
BLOCK
  5
1F9
330
1F8
100
AcDbEntity
  8
0
100
AcDbBlockBegin
  2
*D27
 70
     1
 10
0.0
 20
0.0
 30
0.0
  3
*D27
  1

  0
LINE
  5
490
330
1F8
100
AcDbEntity
  8
寸法線
 62
     0
440
 16777216
 48
0.9999999795830735
370
    -2
100
AcDbLine
 10
111.8292713300397
 20
144.7185028582178
 30
0.0
 11
111.8292713300397
 21
150.8210041185935
 31
0.0
  0
LINE
  5
491
330
1F8
100
AcDbEntity
  8
寸法線
 62
     0
440
 16777216
 48
0.9999999795830735
370
    -2
100
AcDbLine
 10
171.8292701050232
 20
144.7185028582178
 30
0.0
 11
171.8292701050232
 21
150.8210041185935
 31
0.0
  0
LINE
  5
492
330
1F8
100
AcDbEntity
  8
寸法線
 62
     0
440
 16777216
 48
0.9999999795830735
370
    -2
100
AcDbLine
 10
113.0792713045186
 20
150.1960041313541
 30
0.0
 11
170.5792701305443
 21
150.1960041313541
 31
0.0
  0
INSERT
  5
493
330
1F8
100
AcDbEntity
  8
寸法線
 62
     0
440
 16777216
 48
0.9999999795830735
370
    -2
100
AcDbBlockReference
  2
_OPEN
 10
111.8292713300397
 20
150.1960041313541
 30
0.0
 41
1.249999974478841
 42
1.249999974478841
 43
1.249999974478841
 50
180.0
  0
INSERT
  5
494
330
1F8
100
AcDbEntity
  8
寸法線
 62
     0
440
 16777216
 48
0.9999999795830735
370
    -2
100
AcDbBlockReference
  2
_OPEN
 10
171.8292701050232
 20
150.1960041313541
 30
0.0
 41
1.249999974478841
 42
1.249999974478841
 43
1.249999974478841
  0
MTEXT
  5
495
330
1F8
100
AcDbEntity
  8
寸法線
 62
     0
440
 16777216
 48
0.9999999795830735
100
AcDbMText
 10
141.8292707175278
 20
151.1335041122132
 30
0.0
 40
1.249999974478841
 41
0.0
 46
0.0
 71
     5
 72
     1
  1
\A1;60
 73
     1
 44
1.0
  0
POINT
  5
496
330
1F8
100
AcDbEntity
  8
Defpoints
 62
     0
440
 16777216
 48
0.9999999795830735
100
AcDbPoint
 10
111.8292713300397
 20
144.4060028645981
 30
0.0
  0
POINT
  5
497
330
1F8
100
AcDbEntity
  8
Defpoints
 62
     0
440
 16777216
 48
0.9999999795830735
100
AcDbPoint
 10
171.8292701050232
 20
144.4060028645981
 30
0.0
  0
POINT
  5
498
330
1F8
100
AcDbEntity
  8
Defpoints
 62
     0
440
 16777216
 48
0.9999999795830735
100
AcDbPoint
 10
171.8292701050232
 20
150.1960041313541
 30
0.0
  0
ENDBLK
  5
1FA
330
1F8
100
AcDbEntity
  8
0
100
AcDbBlockEnd
  0
BLOCK
  5
205
330
204
100
AcDbEntity
  8
0
100
AcDbBlockBegin
  2
*D28
 70
     1
 10
0.0
 20
0.0
 30
0.0
  3
*D28
  1

  0
LINE
  5
499
330
204
100
AcDbEntity
  8
寸法線
 62
     0
440
 16777216
 48
0.9999999795830735
370
    -2
100
AcDbLine
 10
111.8292713300397
 20
144.7185028582178
 30
0.0
 11
111.8292713300397
 21
146.7274141664016
 31
0.0
  0
LINE
  5
49A
330
204
100
AcDbEntity
  8
寸法線
 62
     0
440
 16777216
 48
0.9999999795830735
370
    -2
100
AcDbLine
 10
151.8292705133572
 20
144.7185028582178
 30
0.0
 11
151.8292705133572
 21
146.7274141664016
 31
0.0
  0
LINE
  5
49B
330
204
100
AcDbEntity
  8
寸法線
 62
     0
440
 16777216
 48
0.9999999795830735
370
    -2
100
AcDbLine
 10
113.0792713045186
 20
146.1024141791622
 30
0.0
 11
150.5792705388783
 21
146.1024141791622
 31
0.0
  0
INSERT
  5
49C
330
204
100
AcDbEntity
  8
寸法線
 62
     0
440
 16777216
 48
0.9999999795830735
370
    -2
100
AcDbBlockReference
  2
_OPEN
 10
111.8292713300397
 20
146.1024141791622
 30
0.0
 41
1.249999974478841
 42
1.249999974478841
 43
1.249999974478841
 50
180.0
  0
INSERT
  5
49D
330
204
100
AcDbEntity
  8
寸法線
 62
     0
440
 16777216
 48
0.9999999795830735
370
    -2
100
AcDbBlockReference
  2
_OPEN
 10
151.8292705133572
 20
146.1024141791622
 30
0.0
 41
1.249999974478841
 42
1.249999974478841
 43
1.249999974478841
  0
MTEXT
  5
49E
330
204
100
AcDbEntity
  8
寸法線
 62
     0
440
 16777216
 48
0.9999999795830735
100
AcDbMText
 10
131.8292709216985
 20
147.0399141600213
 30
0.0
 40
1.249999974478841
 41
0.0
 46
0.0
 71
     5
 72
     1
  1
\A1;40
 73
     1
 44
1.0
  0
POINT
  5
49F
330
204
100
AcDbEntity
  8
Defpoints
 62
     0
440
 16777216
 48
0.9999999795830735
100
AcDbPoint
 10
111.8292713300397
 20
144.4060028645981
 30
0.0
  0
POINT
  5
4A0
330
204
100
AcDbEntity
  8
Defpoints
 62
     0
440
 16777216
 48
0.9999999795830735
100
AcDbPoint
 10
151.8292705133572
 20
144.4060028645981
 30
0.0
  0
POINT
  5
4A1
330
204
100
AcDbEntity
  8
Defpoints
 62
     0
440
 16777216
 48
0.9999999795830735
100
AcDbPoint
 10
151.8292705133572
 20
146.1024141791622
 30
0.0
  0
ENDBLK
  5
206
330
204
100
AcDbEntity
  8
0
100
AcDbBlockEnd
  0
BLOCK
  5
211
330
210
100
AcDbEntity
  8
0
100
AcDbBlockBegin
  2
*D29
 70
     1
 10
0.0
 20
0.0
 30
0.0
  3
*D29
  1

  0
LINE
  5
4A2
330
210
100
AcDbEntity
  8
寸法線
 62
     0
440
 16777216
 48
0.9999999795830735
370
    -2
100
AcDbLine
 10
105.0544862867545
 20
77.82653212588107
 30
0.0
 11
105.8733066872696
 21
81.76736420682113
 31
0.0
  0
LINE
  5
4A3
330
210
100
AcDbEntity
  8
寸法線
 62
     0
440
 16777216
 48
0.9999999795830735
370
    -2
100
AcDbLine
 10
107.3990589863646
 20
89.11052957502493
 30
0.0
 11
107.653351036214
 21
90.33439046972681
 31
0.0
  0
MTEXT
  5
4A4
330
210
100
AcDbEntity
  8
寸法線
 62
     0
440
 16777216
 48
0.9999999795830735
100
AcDbMText
 10
104.3069589378311
 20
79.39898631523061
 30
0.0
 40
1.249999974478841
 41
0.0
 46
0.0
 71
     5
 72
     1
  1
\A1;φ5
 11
0.2034336440330218
 21
0.9790887357514874
 31
0.0
 73
     1
 44
1.0
  0
LINE
  5
4A5
330
210
100
AcDbEntity
  8
寸法線
 62
     0
440
 16777216
 48
0.9999999795830735
370
    -2
100
AcDbLine
 10
107.1447669365152
 20
87.88666868032306
 30
0.0
 11
106.127598737119
 21
82.99122510152301
 31
0.0
  0
INSERT
  5
4A6
330
210
100
AcDbEntity
  8
寸法線
 62
     0
440
 16777216
 48
0.9999999795830735
370
    -2
100
AcDbBlockReference
  2
_OPEN
 10
107.1447669365152
 20
87.88666868032306
 30
0.0
 41
1.249999974478841
 42
1.249999974478841
 43
1.249999974478841
 50
258.2621785920819
  0
INSERT
  5
4A7
330
210
100
AcDbEntity
  8
寸法線
 62
     0
440
 16777216
 48
0.9999999795830735
370
    -2
100
AcDbBlockReference
  2
_OPEN
 10
106.127598737119
 20
82.99122510152301
 30
0.0
 41
1.249999974478841
 42
1.249999974478841
 43
1.249999974478841
 50
78.26217859208185
  0
POINT
  5
4A8
330
210
100
AcDbEntity
  8
Defpoints
 62
     0
440
 16777216
 48
0.9999999795830735
100
AcDbPoint
 10
106.127598737119
 20
82.99122510152301
 30
0.0
  0
POINT
  5
4A9
330
210
100
AcDbEntity
  8
Defpoints
 62
     0
440
 16777216
 48
0.9999999795830735
100
AcDbPoint
 10
107.1447669365152
 20
87.88666868032306
 30
0.0
  0
ENDBLK
  5
212
330
210
100
AcDbEntity
  8
0
100
AcDbBlockEnd
  0
BLOCK
  5
21C
330
21B
100
AcDbEntity
  8
0
100
AcDbBlockBegin
  2
*D30
 70
     1
 10
0.0
 20
0.0
 30
0.0
  3
*D30
  1

  0
LINE
  5
4AA
330
21B
100
AcDbEntity
  8
寸法線
 62
     0
440
 16777216
 48
0.9999999795830735
370
    -2
100
AcDbLine
 10
166.329270217313
 20
145.718706694667
 30
0.0
 11
166.329270217313
 21
146.7264421291398
 31
0.0
  0
LINE
  5
4AB
330
21B
100
AcDbEntity
  8
寸法線
 62
     0
440
 16777216
 48
0.9999999795830735
370
    -2
100
AcDbLine
 10
171.8292701050232
 20
144.7185028582178
 30
0.0
 11
171.8292701050232
 21
146.7264421291398
 31
0.0
  0
LINE
  5
4AC
330
21B
100
AcDbEntity
  8
寸法線
 62
     0
440
 16777216
 48
0.9999999795830735
370
    -2
100
AcDbLine
 10
167.5792701917918
 20
146.1014421419004
 30
0.0
 11
170.5792701305443
 21
146.1014421419004
 31
0.0
  0
INSERT
  5
4AD
330
21B
100
AcDbEntity
  8
寸法線
 62
     0
440
 16777216
 48
0.9999999795830735
370
    -2
100
AcDbBlockReference
  2
_OPEN
 10
166.329270217313
 20
146.1014421419004
 30
0.0
 41
1.249999974478841
 42
1.249999974478841
 43
1.249999974478841
 50
180.0
  0
INSERT
  5
4AE
330
21B
100
AcDbEntity
  8
寸法線
 62
     0
440
 16777216
 48
0.9999999795830735
370
    -2
100
AcDbBlockReference
  2
_OPEN
 10
171.8292701050232
 20
146.1014421419004
 30
0.0
 41
1.249999974478841
 42
1.249999974478841
 43
1.249999974478841
  0
MTEXT
  5
4AF
330
21B
100
AcDbEntity
  8
寸法線
 62
     0
440
 16777216
 48
0.9999999795830735
100
AcDbMText
 10
168.9240278793659
 20
147.0389421227595
 30
0.0
 40
1.249999974478841
 41
0.0
 46
0.0
 71
     5
 72
     1
  1
\A1;5.5
 73
     1
 44
1.0
  0
POINT
  5
4B0
330
21B
100
AcDbEntity
  8
Defpoints
 62
     0
440
 16777216
 48
0.9999999795830735
100
AcDbPoint
 10
166.329270217313
 20
145.4062067010472
 30
0.0
  0
POINT
  5
4B1
330
21B
100
AcDbEntity
  8
Defpoints
 62
     0
440
 16777216
 48
0.9999999795830735
100
AcDbPoint
 10
171.8292701050232
 20
144.4060028645981
 30
0.0
  0
POINT
  5
4B2
330
21B
100
AcDbEntity
  8
Defpoints
 62
     0
440
 16777216
 48
0.9999999795830735
100
AcDbPoint
 10
171.8292701050232
 20
146.1014421419004
 30
0.0
  0
ENDBLK
  5
21D
330
21B
100
AcDbEntity
  8
0
100
AcDbBlockEnd
  0
BLOCK
  5
228
330
227
100
AcDbEntity
  8
0
100
AcDbBlockBegin
  2
*D31
 70
     1
 10
0.0
 20
0.0
 30
0.0
  3
*D31
  1

  0
LINE
  5
4B3
330
227
100
AcDbEntity
  8
寸法線
 62
     0
440
 16777216
 48
0.9999999795830735
370
    -2
100
AcDbLine
 10
172.1417700986429
 20
144.4060028645981
 30
0.0
 11
175.0160322886746
 21
144.4060028645981
 31
0.0
  0
LINE
  5
4B4
330
227
100
AcDbEntity
  8
寸法線
 62
     0
440
 16777216
 48
0.9999999795830735
370
    -2
100
AcDbLine
 10
173.1419739350902
 20
138.9060029768916
 30
0.0
 11
175.0160322886746
 21
138.9060029768916
 31
0.0
  0
LINE
  5
4B5
330
227
100
AcDbEntity
  8
寸法線
 62
     0
440
 16777216
 48
0.9999999795830735
370
    -2
100
AcDbLine
 10
174.3910323014352
 20
143.1560028901193
 30
0.0
 11
174.3910323014352
 21
140.1560029513705
 31
0.0
  0
INSERT
  5
4B6
330
227
100
AcDbEntity
  8
寸法線
 62
     0
440
 16777216
 48
0.9999999795830735
370
    -2
100
AcDbBlockReference
  2
_OPEN
 10
174.3910323014352
 20
144.4060028645981
 30
0.0
 41
1.249999974478841
 42
1.249999974478841
 43
1.249999974478841
 50
90.0
  0
INSERT
  5
4B7
330
227
100
AcDbEntity
  8
寸法線
 62
     0
440
 16777216
 48
0.9999999795830735
370
    -2
100
AcDbBlockReference
  2
_OPEN
 10
174.3910323014352
 20
138.9060029768916
 30
0.0
 41
1.249999974478841
 42
1.249999974478841
 43
1.249999974478841
 50
270.0
  0
MTEXT
  5
4B8
330
227
100
AcDbEntity
  8
寸法線
 62
     0
440
 16777216
 48
0.9999999795830735
100
AcDbMText
 10
173.453532320576
 20
141.6434874669412
 30
0.0
 40
1.249999974478841
 41
0.0
 46
0.0
 71
     5
 72
     1
  1
\A1;5.5
 11
0.0000000000000001
 21
1.0
 31
0.0
 73
     1
 44
1.0
  0
POINT
  5
4B9
330
227
100
AcDbEntity
  8
Defpoints
 62
     0
440
 16777216
 48
0.9999999795830735
100
AcDbPoint
 10
171.8292701050232
 20
144.4060028645981
 30
0.0
  0
POINT
  5
4BA
330
227
100
AcDbEntity
  8
Defpoints
 62
     0
440
 16777216
 48
0.9999999795830735
100
AcDbPoint
 10
172.8294739414705
 20
138.9060029768916
 30
0.0
  0
POINT
  5
4BB
330
227
100
AcDbEntity
  8
Defpoints
 62
     0
440
 16777216
 48
0.9999999795830735
100
AcDbPoint
 10
174.3910323014352
 20
138.9060029768916
 30
0.0
  0
ENDBLK
  5
229
330
227
100
AcDbEntity
  8
0
100
AcDbBlockEnd
  0
BLOCK
  5
234
330
233
100
AcDbEntity
  8
0
100
AcDbBlockBegin
  2
*D32
 70
     1
 10
0.0
 20
0.0
 30
0.0
  3
*D32
  1

  0
LINE
  5
4BC
330
233
100
AcDbEntity
  8
寸法線
 62
     0
440
 16777216
 48
0.9999999795830735
370
    -2
100
AcDbLine
 10
160.8685372917845
 20
133.371473326803
 30
0.0
 11
163.6954762017793
 21
136.2366156858532
 31
0.0
  0
LINE
  5
4BD
330
233
100
AcDbEntity
  8
寸法線
 62
     0
440
 16777216
 48
0.9999999795830735
370
    -2
100
AcDbLine
 10
168.9630642328248
 20
141.5753902679336
 30
0.0
 11
169.8409955713325
 21
142.4651860316138
 31
0.0
  0
MTEXT
  5
4BE
330
233
100
AcDbEntity
  8
寸法線
 62
     0
440
 16777216
 48
0.9999999795830735
100
AcDbMText
 10
161.0943414992314
 20
135.0978631364609
 30
0.0
 40
1.249999974478841
 41
0.0
 46
0.0
 71
     5
 72
     1
  1
\A1;φ5
 11
0.7023450851458862
 21
0.7118366254776568
 31
0.0
 73
     1
 44
1.0
  0
LINE
  5
4BF
330
233
100
AcDbEntity
  8
寸法線
 62
     0
440
 16777216
 48
0.9999999795830735
370
    -2
100
AcDbLine
 10
168.0851328943171
 20
140.6855945042534
 30
0.0
 11
164.5734075402869
 21
137.1264114495334
 31
0.0
  0
INSERT
  5
4C0
330
233
100
AcDbEntity
  8
寸法線
 62
     0
440
 16777216
 48
0.9999999795830735
370
    -2
100
AcDbBlockReference
  2
_OPEN
 10
168.0851328943171
 20
140.6855945042534
 30
0.0
 41
1.249999974478841
 42
1.249999974478841
 43
1.249999974478841
 50
225.3845453751671
  0
INSERT
  5
4C1
330
233
100
AcDbEntity
  8
寸法線
 62
     0
440
 16777216
 48
0.9999999795830735
370
    -2
100
AcDbBlockReference
  2
_OPEN
 10
164.5734075402869
 20
137.1264114495334
 30
0.0
 41
1.249999974478841
 42
1.249999974478841
 43
1.249999974478841
 50
45.38454537516706
  0
POINT
  5
4C2
330
233
100
AcDbEntity
  8
Defpoints
 62
     0
440
 16777216
 48
0.9999999795830735
100
AcDbPoint
 10
164.5734075402869
 20
137.1264114495334
 30
0.0
  0
POINT
  5
4C3
330
233
100
AcDbEntity
  8
Defpoints
 62
     0
440
 16777216
 48
0.9999999795830735
100
AcDbPoint
 10
168.0851328943171
 20
140.6855945042534
 30
0.0
  0
ENDBLK
  5
235
330
233
100
AcDbEntity
  8
0
100
AcDbBlockEnd
  0
BLOCK
  5
23F
330
23E
100
AcDbEntity
  8
0
100
AcDbBlockBegin
  2
*D33
 70
     1
 10
0.0
 20
0.0
 30
0.0
  3
*D33
  1

  0
LINE
  5
4C4
330
23E
100
AcDbEntity
  8
寸法線
 62
     0
440
 16777216
 48
0.9999999795830735
370
    -2
100
AcDbLine
 10
106.5821321645701
 20
90.0362723110957
 30
0.0000000000000001
 11
96.95716515196401
 21
90.0362723110957
 31
0.0000000000000001
  0
LINE
  5
4C5
330
23E
100
AcDbEntity
  8
寸法線
 62
     0
440
 16777216
 48
0.9999999795830735
370
    -2
100
AcDbLine
 10
100.7167715569151
 20
70.03894720534302
 30
0.0000000000000001
 11
96.95716515196401
 21
70.03894720534302
 31
0.0000000000000001
  0
LINE
  5
4C6
330
23E
100
AcDbEntity
  8
寸法線
 62
     0
440
 16777216
 48
0.9999999795830735
370
    -2
100
AcDbLine
 10
97.58216513920345
 20
88.78627233661687
 30
0.0000000000000001
 11
97.58216513920345
 21
71.28894717982186
 31
0.0000000000000001
  0
INSERT
  5
4C7
330
23E
100
AcDbEntity
  8
寸法線
 62
     0
440
 16777216
 48
0.9999999795830735
370
    -2
100
AcDbBlockReference
  2
_OPEN
 10
97.58216513920345
 20
90.0362723110957
 30
0.0000000000000001
 41
1.249999974478841
 42
1.249999974478841
 43
1.249999974478841
 50
90.0
  0
INSERT
  5
4C8
330
23E
100
AcDbEntity
  8
寸法線
 62
     0
440
 16777216
 48
0.9999999795830735
370
    -2
100
AcDbBlockReference
  2
_OPEN
 10
97.58216513920345
 20
70.03894720534302
 30
0.0000000000000001
 41
1.249999974478841
 42
1.249999974478841
 43
1.249999974478841
 50
270.0
  0
MTEXT
  5
4C9
330
23E
100
AcDbEntity
  8
寸法線
 62
     0
440
 16777216
 48
0.9999999795830735
100
AcDbMText
 10
96.6446651583443
 20
79.23894701751305
 30
0.0000000000000001
 40
1.249999974478841
 41
0.0
 46
0.0
 71
     5
 72
     1
  1
\A1;20
 11
0.0000000000000001
 21
1.0
 31
0.0
 73
     1
 44
1.0
  0
POINT
  5
4CA
330
23E
100
AcDbEntity
  8
Defpoints
 62
     0
440
 16777216
 48
0.9999999795830735
100
AcDbPoint
 10
106.8946321581898
 20
90.0362723110957
 30
0.0000000000000001
  0
POINT
  5
4CB
330
23E
100
AcDbEntity
  8
Defpoints
 62
     0
440
 16777216
 48
0.9999999795830735
100
AcDbPoint
 10
101.0292715505348
 20
70.03894720534302
 30
0.0000000000000001
  0
POINT
  5
4CC
330
23E
100
AcDbEntity
  8
Defpoints
 62
     0
440
 16777216
 48
0.9999999795830735
100
AcDbPoint
 10
97.58216513920345
 20
70.03894720534302
 30
0.0000000000000001
  0
ENDBLK
  5
240
330
23E
100
AcDbEntity
  8
0
100
AcDbBlockEnd
  0
BLOCK
  5
24B
330
24A
100
AcDbEntity
  8
0
100
AcDbBlockBegin
  2
*D34
 70
     1
 10
0.0
 20
0.0
 30
0.0
  3
*D34
  1

  0
LINE
  5
4CD
330
24A
100
AcDbEntity
  8
寸法線
 62
     0
440
 16777216
 48
0.9999999795830735
370
    -2
100
AcDbLine
 10
141.8292707175278
 20
119.0935033814014
 30
0.0
 11
141.8292707175278
 21
114.9130840188849
 31
0.0
  0
LINE
  5
4CE
330
24A
100
AcDbEntity
  8
寸法線
 62
     0
440
 16777216
 48
0.9999999795830735
370
    -2
100
AcDbLine
 10
111.8292713300397
 20
119.0935033814014
 30
0.0
 11
111.8292713300397
 21
114.9130840188849
 31
0.0
  0
LINE
  5
4CF
330
24A
100
AcDbEntity
  8
寸法線
 62
     0
440
 16777216
 48
0.9999999795830735
370
    -2
100
AcDbLine
 10
140.579270743049
 20
115.5380840061243
 30
0.0
 11
113.0792713045186
 21
115.5380840061243
 31
0.0
  0
INSERT
  5
4D0
330
24A
100
AcDbEntity
  8
寸法線
 62
     0
440
 16777216
 48
0.9999999795830735
370
    -2
100
AcDbBlockReference
  2
_OPEN
 10
141.8292707175278
 20
115.5380840061243
 30
0.0
 41
1.249999974478841
 42
1.249999974478841
 43
1.249999974478841
  0
INSERT
  5
4D1
330
24A
100
AcDbEntity
  8
寸法線
 62
     0
440
 16777216
 48
0.9999999795830735
370
    -2
100
AcDbBlockReference
  2
_OPEN
 10
111.8292713300397
 20
115.5380840061243
 30
0.0
 41
1.249999974478841
 42
1.249999974478841
 43
1.249999974478841
 50
180.0
  0
MTEXT
  5
4D2
330
24A
100
AcDbEntity
  8
寸法線
 62
     0
440
 16777216
 48
0.9999999795830735
100
AcDbMText
 10
124.2055426898005
 20
116.4755839869834
 30
0.0
 40
1.249999974478841
 41
0.0
 46
0.0
 71
     5
 72
     1
  1
\A1;30
 73
     1
 44
1.0
  0
POINT
  5
4D3
330
24A
100
AcDbEntity
  8
Defpoints
 62
     0
440
 16777216
 48
0.9999999795830735
100
AcDbPoint
 10
141.8292707175278
 20
119.4060033750211
 30
0.0
  0
POINT
  5
4D4
330
24A
100
AcDbEntity
  8
Defpoints
 62
     0
440
 16777216
 48
0.9999999795830735
100
AcDbPoint
 10
111.8292713300397
 20
119.4060033750211
 30
0.0
  0
POINT
  5
4D5
330
24A
100
AcDbEntity
  8
Defpoints
 62
     0
440
 16777216
 48
0.9999999795830735
100
AcDbPoint
 10
111.8292713300397
 20
115.5380840061243
 30
0.0
  0
ENDBLK
  5
24C
330
24A
100
AcDbEntity
  8
0
100
AcDbBlockEnd
  0
BLOCK
  5
257
330
256
100
AcDbEntity
  8
0
100
AcDbBlockBegin
  2
*D35
 70
     1
 10
0.0
 20
0.0
 30
0.0
  3
*D35
  1

  0
LINE
  5
4D6
330
256
100
AcDbEntity
  8
寸法線
 62
     0
440
 16777216
 48
0.9999999795830735
370
    -2
100
AcDbLine
 10
142.1417707111549
 20
129.4060031708523
 30
0.0
 11
146.0972952828029
 21
129.4060031708523
 31
0.0
  0
LINE
  5
4D7
330
256
100
AcDbEntity
  8
寸法線
 62
     0
440
 16777216
 48
0.9999999795830735
370
    -2
100
AcDbLine
 10
142.1417707111476
 20
119.4060033750211
 30
0.0
 11
146.0972952828029
 21
119.4060033750211
 31
0.0
  0
LINE
  5
4D8
330
256
100
AcDbEntity
  8
寸法線
 62
     0
440
 16777216
 48
0.9999999795830735
370
    -2
100
AcDbLine
 10
145.4722952955635
 20
128.1560031963735
 30
0.0
 11
145.4722952955635
 21
120.6560033495
 31
0.0
  0
INSERT
  5
4D9
330
256
100
AcDbEntity
  8
寸法線
 62
     0
440
 16777216
 48
0.9999999795830735
370
    -2
100
AcDbBlockReference
  2
_OPEN
 10
145.4722952955635
 20
129.4060031708523
 30
0.0
 41
1.249999974478841
 42
1.249999974478841
 43
1.249999974478841
 50
90.0
  0
INSERT
  5
4DA
330
256
100
AcDbEntity
  8
寸法線
 62
     0
440
 16777216
 48
0.9999999795830735
370
    -2
100
AcDbBlockReference
  2
_OPEN
 10
145.4722952955635
 20
119.4060033750211
 30
0.0
 41
1.249999974478841
 42
1.249999974478841
 43
1.249999974478841
 50
270.0
  0
MTEXT
  5
4DB
330
256
100
AcDbEntity
  8
寸法線
 62
     0
440
 16777216
 48
0.9999999795830735
100
AcDbMText
 10
144.5347953147044
 20
124.2095585307397
 30
0.0
 40
1.249999974478841
 41
0.0
 46
0.0
 71
     5
 72
     1
  1
\A1;10
 11
0.0000000000000001
 21
1.0
 31
0.0
 73
     1
 44
1.0
  0
POINT
  5
4DC
330
256
100
AcDbEntity
  8
Defpoints
 62
     0
440
 16777216
 48
0.9999999795830735
100
AcDbPoint
 10
141.8292707175351
 20
129.4060031708523
 30
0.0
  0
POINT
  5
4DD
330
256
100
AcDbEntity
  8
Defpoints
 62
     0
440
 16777216
 48
0.9999999795830735
100
AcDbPoint
 10
141.8292707175279
 20
119.4060033750211
 30
0.0
  0
POINT
  5
4DE
330
256
100
AcDbEntity
  8
Defpoints
 62
     0
440
 16777216
 48
0.9999999795830735
100
AcDbPoint
 10
145.4722952955635
 20
119.4060033750211
 30
0.0
  0
ENDBLK
  5
258
330
256
100
AcDbEntity
  8
0
100
AcDbBlockEnd
  0
BLOCK
  5
428
330
427
100
AcDbEntity
  8
0
100
AcDbBlockBegin
  2
TITLE_BLOCK
 70
     0
 10
0.0
 20
0.0
 30
0.0
  3
TITLE_BLOCK
  1

  0
LINE
  5
429
330
427
100
AcDbEntity
  8
0
 62
     5
100
AcDbLine
 10
10.0
 20
200.0
 30
0.0
 11
10.0
 21
10.0
 31
0.0
  0
LINE
  5
42A
330
427
100
AcDbEntity
  8
0
 62
     5
100
AcDbLine
 10
10.0
 20
10.0
 30
0.0
 11
287.0
 21
10.0
 31
0.0
  0
LINE
  5
42B
330
427
100
AcDbEntity
  8
0
 62
     5
100
AcDbLine
 10
287.0
 20
200.0
 30
0.0
 11
287.0
 21
10.0
 31
0.0
  0
LINE
  5
42C
330
427
100
AcDbEntity
  8
0
 62
     5
100
AcDbLine
 10
10.0
 20
200.0
 30
0.0
 11
287.0
 21
200.0
 31
0.0
  0
ENDBLK
  5
42D
330
427
100
AcDbEntity
  8
0
100
AcDbBlockEnd
  0
ENDSEC
  0
SECTION
  2
ENTITIES
  0
LWPOLYLINE
  5
7D
330
70
100
AcDbEntity
  8
VIEWPORT
  6
Continuous
100
AcDbPolyline
 90
        4
 70
     1
 43
0.0
 10
-4.686621979846648
 20
-4.708272101743148
 10
292.3133780201533
 20
-4.708272101743148
 10
292.3133780201533
 20
205.2917278982568
 10
-4.686621979846648
 20
205.2917278982568
  0
LINE
  5
81
330
70
100
AcDbEntity
  8
基本図面
 48
0.9999999795830735
100
AcDbLine
 10
111.8292713300397
 20
104.4060036812734
 30
0.0
 11
111.829271330047
 21
119.4060033750247
 31
0.0
  0
LINE
  5
85
330
70
100
AcDbEntity
  8
基本図面
 48
0.9999999795830735
100
AcDbLine
 10
111.8292713300397
 20
144.4060028645981
 30
0.0
 11
161.3155332951719
 21
144.4060028645981
 31
0.0
  0
LINE
  5
86
330
70
100
AcDbEntity
  8
基本図面
 48
0.9999999795830735
100
AcDbLine
 10
111.8292713300397
 20
104.4060036812752
 30
0.0
 11
161.3155332951719
 21
104.4060036812734
 31
0.0
  0
LINE
  5
87
330
70
100
AcDbEntity
  8
基本図面
 48
0.9999999795830735
100
AcDbLine
 10
100.2292715668664
 20
129.4060031708541
 30
0.0
 11
134.3155338464276
 21
129.4060031708541
 31
0.0
  0
LINE
  5
88
330
70
100
AcDbEntity
  8
基本図面
 48
0.9999999795830735
100
AcDbLine
 10
100.2292715668664
 20
119.4060033750229
 30
0.0
 11
134.3155338464276
 21
119.4060033750211
 31
0.0
  0
LINE
  5
89
330
70
100
AcDbEntity
  8
基本図面
 48
0.9999999795830735
100
AcDbLine
 10
171.8292701050232
 20
104.4060036812734
 30
0.0
 11
171.8292701050232
 21
144.4060028645981
 31
0.0
  0
LINE
  5
8A
330
70
100
AcDbEntity
  8
点線
 48
0.9999999795830735
100
AcDbLine
 10
101.8292715342104
 20
119.4060033750229
 30
0.0
 11
101.8292715342031
 21
129.4060031708541
 31
0.0
  0
LINE
  5
8E
330
70
100
AcDbEntity
  8
点線
 48
0.9999999795830735
100
AcDbLine
 10
111.829271330047
 20
119.4060033750247
 30
0.0
 11
111.829271330047
 21
129.4060031708522
 31
0.0
  0
LINE
  5
8F
330
70
100
AcDbEntity
  8
基本図面
 48
0.9999999795830735
100
AcDbLine
 10
111.829271330047
 20
129.4060031708522
 30
0.0
 11
111.8292713300397
 21
144.4060028645981
 31
0.0
  0
LINE
  5
90
330
70
100
AcDbEntity
  8
基本図面
 48
0.9999999795830735
100
AcDbLine
 10
171.8292701053506
 20
90.0389696308248
 30
0.0
 11
171.8292701053506
 21
88.43896966349166
 31
0.0
  0
LINE
  5
91
330
70
100
AcDbEntity
  8
基本図面
 48
0.9999999795830735
100
AcDbLine
 10
113.4292712973765
 20
88.43894682967947
 30
0.0
 11
162.1155332788403
 21
88.43894682967766
 31
0.0
  0
LINE
  5
92
330
70
100
AcDbEntity
  8
基本図面
 48
0.9999999795830735
100
AcDbLine
 10
113.3988609269581
 20
58.46816455131556
 30
0.0
 11
132.5988605349557
 21
58.4389705619651
 31
0.0
  0
LINE
  5
93
330
70
100
AcDbEntity
  8
基本図面
 48
0.9999999795830735
100
AcDbLine
 10
101.8292715342031
 20
70.03894720534299
 30
0.0000000000000001
 11
101.8292715342104
 21
83.4389469317648
 31
0.0000000000000001
  0
DIMENSION
  5
94
330
70
100
AcDbEntity
  8
寸法線
 48
0.9999999795830735
100
AcDbDimension
280
     0
  2
*D19
 10
111.8287639837581
 20
98.80678038435872
 30
0.0
 11
142.6292707011962
 21
98.80678038435872
 31
0.0
 70
   160
 71
     5
 42
60.00050734661842
 73
     0
 74
     0
 75
     0
  3
STANDARD_WS
100
AcDbAlignedDimension
 13
171.8292701053506
 23
89.23894681334241
 33
0.0
 14
111.8287639837581
 24
90.04038209542704
 34
0.0
100
AcDbRotatedDimension
1001
ACAD
1000
DSTYLE
1002
{
1070
   144
1040
1.000000020416926
1070
    40
1040
0.4999999897915368
1070
   173
1070
     1
1070
   271
1070
     1
1070
   272
1070
     1
1070
   288
1070
     1
1070
   343
1005
9E
1070
   344
1005
9E
1002
}
  0
DIMENSION
  5
AA
330
70
100
AcDbEntity
  8
寸法線
 48
0.9999999795830735
100
AcDbDimension
280
     0
  2
*D20
 10
151.7983076481541
 20
53.5826726157411
 30
0.0
 11
132.5988605349557
 21
53.5826726157411
 31
0.0
 70
   160
 71
     5
 42
39.99860068435602
 73
     0
 74
     0
 75
     0
  3
STANDARD_WS
100
AcDbAlignedDimension
 13
111.7997077804466
 23
57.63968724060942
 33
0.0
 14
151.7983076481541
 24
57.63952383726792
 34
0.0
100
AcDbRotatedDimension
1001
ACAD
1000
DSTYLE
1002
{
1070
   144
1040
1.000000020416926
1070
    40
1040
0.4999999897915368
1070
   173
1070
     1
1070
   271
1070
     1
1070
   272
1070
     1
1070
   288
1070
     1
1070
   343
1005
9E
1070
   344
1005
9E
1002
}
  0
DIMENSION
  5
B7
330
70
100
AcDbEntity
  8
寸法線
 48
0.9999999795830735
100
AcDbDimension
280
     0
  2
*D21
 10
149.4485854783997
 20
88.43894682967951
 30
0.0
 11
149.4485854783997
 21
73.43895869582957
 31
0.0
 70
   160
 71
     5
 42
29.99997688022352
 73
     0
 74
     0
 75
     0
  3
STANDARD_WS
100
AcDbAlignedDimension
 13
151.798860142946
 23
58.43897056196329
 33
0.0
 14
151.7897193017852
 24
88.43894682967947
 34
0.0
 50
90.0
100
AcDbRotatedDimension
1001
ACAD
1000
DSTYLE
1002
{
1070
   144
1040
1.000000020416926
1070
    40
1040
0.4999999897915368
1070
   173
1070
     1
1070
   271
1070
     1
1070
   272
1070
     1
1070
   288
1070
     1
1070
   343
1005
9E
1070
   344
1005
9E
1002
}
  0
DIMENSION
  5
C4
330
70
100
AcDbEntity
  8
寸法線
 48
0.9999999795830735
100
AcDbDimension
280
     0
  2
*D22
 10
101.8292715342104
 20
73.26797150129824
 30
0.0000000000000001
 11
106.6219898777126
 21
73.26797150129824
 31
0.0000000000000001
 70
   160
 71
     5
 42
9.995094428443149
 73
     0
 74
     0
 75
     0
  3
STANDARD_WS
100
AcDbAlignedDimension
 13
111.8243657585844
 23
85.13590265192943
 33
0.0000000000000001
 14
101.8292715342104
 24
75.26859697520013
 34
0.0000000000000001
100
AcDbRotatedDimension
1001
ACAD
1000
DSTYLE
1002
{
1070
   144
1040
1.000000020416926
1070
    40
1040
0.4999999897915368
1070
   173
1070
     1
1070
   271
1070
     1
1070
   272
1070
     1
1070
   288
1070
     1
1070
   343
1005
9E
1070
   344
1005
9E
1002
}
  0
DIMENSION
  5
D1
330
70
100
AcDbEntity
  8
寸法線
 48
0.9999999795830735
100
AcDbDimension
280
     0
  2
*D23
 10
176.2654004499563
 20
129.4060031708523
 30
0.0
 11
176.2654004499563
 21
136.8894456097423
 31
0.0
 70
   160
 71
     5
 42
14.99999999999974
 73
     0
 74
     0
 75
     0
  3
STANDARD_WS
100
AcDbAlignedDimension
 13
171.8292701050232
 23
144.4060028645981
 33
0.0
 14
171.8292701050232
 24
129.4060031708522
 34
0.0
 50
90.0
100
AcDbRotatedDimension
1001
ACAD
1000
DSTYLE
1002
{
1070
   144
1040
1.000000020416926
1070
    40
1040
0.4999999897915368
1070
   173
1070
     1
1070
   271
1070
     1
1070
   272
1070
     1
1070
   288
1070
     1
1070
   343
1005
9E
1070
   344
1005
9E
1002
}
  0
DIMENSION
  5
DE
330
70
100
AcDbEntity
  8
寸法線
 48
0.9999999795830735
100
AcDbDimension
280
     0
  2
*D24
 10
176.2654004500002
 20
119.4060033750211
 30
0.0
 11
175.3279004691411
 21
124.4060032729366
 31
0.0
 70
    32
 71
     5
 42
10.00000000000045
 73
     0
 74
     0
 75
     0
  3
STANDARD_WS
100
AcDbAlignedDimension
 13
171.8292701050232
 23
129.4060031708522
 33
0.0
 14
171.8292701050232
 24
119.4060033750211
 34
0.0
 50
90.0
100
AcDbRotatedDimension
1001
ACAD
1000
DSTYLE
1002
{
1070
   144
1040
1.000000020416926
1070
    40
1040
0.4999999897915368
1070
    75
1070
     1
1070
   173
1070
     1
1070
   271
1070
     1
1070
   272
1070
     1
1070
   279
1070
     1
1070
   288
1070
     1
1070
   343
1005
9E
1070
   344
1005
9E
1002
}
  0
DIMENSION
  5
EA
330
70
100
AcDbEntity
  8
寸法線
 48
0.9999999795830735
100
AcDbDimension
280
     0
  2
*D25
 10
176.2654004500002
 20
104.4060036812735
 30
0.0
 11
175.3279004691411
 21
111.9060035281472
 31
0.0
 70
    32
 71
     5
 42
15.00000000000156
 73
     0
 74
     0
 75
     0
  3
STANDARD_WS
100
AcDbAlignedDimension
 13
171.8292701050232
 23
119.4060033750211
 33
0.0
 14
171.8292701050232
 24
104.4060036812734
 34
0.0
 50
90.0
100
AcDbRotatedDimension
1001
ACAD
1000
DSTYLE
1002
{
1070
   144
1040
1.000000020416926
1070
    40
1040
0.4999999897915368
1070
    75
1070
     1
1070
   173
1070
     1
1070
   271
1070
     1
1070
   272
1070
     1
1070
   279
1070
     1
1070
   288
1070
     1
1070
   343
1005
9E
1070
   344
1005
9E
1002
}
  0
DIMENSION
  5
F6
330
70
100
AcDbEntity
  8
寸法線
 48
0.9999999795830735
100
AcDbDimension
280
     0
  2
*D26
 10
179.488024302118
 20
144.4060028645981
 30
0.0
 11
179.488024302118
 21
124.5040860938061
 31
0.0
 70
   160
 71
     5
 42
40.00000000000176
 73
     0
 74
     0
 75
     0
  3
STANDARD_WS
100
AcDbAlignedDimension
 13
171.8292701050232
 23
104.4060036812734
 33
0.0
 14
171.8292701050232
 24
144.4060028645981
 34
0.0
 50
90.0
100
AcDbRotatedDimension
1001
ACAD
1000
DSTYLE
1002
{
1070
   144
1040
1.000000020416926
1070
    40
1040
0.4999999897915368
1070
   173
1070
     1
1070
   271
1070
     1
1070
   272
1070
     1
1070
   288
1070
     1
1070
   343
1005
9E
1070
   344
1005
9E
1002
}
  0
DIMENSION
  5
103
330
70
100
AcDbEntity
  8
寸法線
 48
0.9999999795830735
100
AcDbDimension
280
     0
  2
*D27
 10
171.8292701050232
 20
150.1960041313541
 30
0.0
 11
141.8292707175278
 21
150.1960041313541
 31
0.0
 70
   160
 71
     5
 42
59.99999999999897
 73
     0
 74
     0
 75
     0
  3
STANDARD_WS
100
AcDbAlignedDimension
 13
111.8292713300397
 23
144.4060028645981
 33
0.0
 14
171.8292701050232
 24
144.4060028645981
 34
0.0
100
AcDbRotatedDimension
1001
ACAD
1000
DSTYLE
1002
{
1070
   144
1040
1.000000020416926
1070
    40
1040
0.4999999897915368
1070
   173
1070
     1
1070
   271
1070
     1
1070
   272
1070
     1
1070
   288
1070
     1
1070
   343
1005
9E
1070
   344
1005
9E
1002
}
  0
DIMENSION
  5
110
330
70
100
AcDbEntity
  8
寸法線
 48
0.9999999795830735
100
AcDbDimension
280
     0
  2
*D28
 10
151.8292705133572
 20
146.1024141791622
 30
0.0
 11
131.8292709216985
 21
146.1024141791622
 31
0.0
 70
   160
 71
     5
 42
39.99999999999447
 73
     0
 74
     0
 75
     0
  3
STANDARD_WS
100
AcDbAlignedDimension
 13
111.8292713300397
 23
144.4060028645981
 33
0.0
 14
151.8292705133572
 24
144.4060028645981
 34
0.0
100
AcDbRotatedDimension
1001
ACAD
1000
DSTYLE
1002
{
1070
   144
1040
1.000000020416926
1070
    40
1040
0.4999999897915368
1070
   173
1070
     1
1070
   271
1070
     1
1070
   272
1070
     1
1070
   288
1070
     1
1070
   343
1005
9E
1070
   344
1005
9E
1002
}
  0
LEADER
  5
11D
330
70
100
AcDbEntity
  8
寸法線
 48
0.9999999795830735
100
AcDbLeader
  3
STANDARD_WS
 73
     0
 75
     1
 40
1.249999974478841
 41
3.333333265276911
 76
     3
 10
102.7280521849679
 20
87.54016617891284
 30
0.0000000000000001
 10
101.8870146809313
 20
92.82288369609124
 30
0.0000000000000001
 10
100.6370147064524
 20
92.82288369609124
 30
0.0000000000000001
340
11E
1001
ACAD
1000
DSTYLE
1002
{
1070
   341
1005
9E
1070
    40
1040
0.4999999897915368
1070
   173
1070
     1
1070
   271
1070
     1
1070
   272
1070
     1
1070
   288
1070
     1
1070
   343
1005
9E
1070
   344
1005
9E
1002
}
  0
MTEXT
  5
11E
102
{ACAD_REACTORS
330
11D
102
}
330
70
100
AcDbEntity
  8
寸法線
 48
0.9999999795830735
100
AcDbMText
 10
100.3245147128327
 20
93.76038367695036
 30
0.0000000000000001
 40
1.249999974478841
 41
0.0
 46
0.0
 71
     6
 72
     1
  1
\A1;t1.6
 73
     1
 44
1.0
  0
LINE
  5
11F
330
70
100
AcDbEntity
  8
基本図面
 48
0.9999999795830735
100
AcDbLine
 10
141.8292707175278
 20
119.4060033750211
 30
0.0
 11
141.8292707175351
 21
129.4060031708541
 31
0.0
  0
DIMENSION
  5
120
330
70
100
AcDbEntity
  8
寸法線
 48
0.9999999795830735
100
AcDbDimension
280
     0
  2
*D29
 10
107.1447669365152
 20
87.88666868032306
 30
0.0
 11
104.3069589378311
 21
79.39898631523061
 31
0.0
 70
    35
  1
φ5
 71
     5
 42
4.999999999992359
 73
     0
 74
     0
 75
     0
  3
STANDARD_WS
100
AcDbDiametricDimension
 15
106.127598737119
 25
82.99122510152301
 35
0.0
 40
0.0
1001
ACAD
1000
DSTYLE
1002
{
1070
   144
1040
1.000000020416926
1070
    40
1040
0.4999999897915368
1070
   173
1070
     1
1070
   271
1070
     1
1070
   272
1070
     1
1070
   288
1070
     1
1070
   343
1005
9E
1070
   344
1005
9E
1002
}
  0
LINE
  5
12C
330
70
100
AcDbEntity
  8
センター線
 48
0.9999999795830735
100
AcDbLine
 10
159.8290664931555
 20
138.9060029768916
 30
0.0
 11
172.8294739414705
 21
138.9060029768916
 31
0.0
  0
LINE
  5
130
330
70
100
AcDbEntity
  8
センター線
 48
0.9999999795830735
100
AcDbLine
 10
166.329270217313
 20
132.4057992527378
 30
0.0
 11
166.329270217313
 21
145.4062067010472
 31
0.0
  0
CIRCLE
  5
131
330
70
100
AcDbEntity
  8
基本図面
 48
0.9999999795830735
100
AcDbCircle
 10
166.329270217313
 20
138.9060029768916
 30
0.0
 40
2.499999948957683
  0
DIMENSION
  5
132
330
70
100
AcDbEntity
  8
寸法線
 48
0.9999999795830735
100
AcDbDimension
280
     0
  2
*D30
 10
171.8292701050232
 20
146.1014421419004
 30
0.0
 11
168.9240278793659
 21
146.1014421419004
 31
0.0
 70
   160
 71
     5
 42
5.50000000000324
 73
     0
 74
     0
 75
     0
  3
STANDARD_WS
100
AcDbAlignedDimension
 13
166.329270217313
 23
145.4062067010472
 33
0.0
 14
171.8292701050232
 24
144.4060028645981
 34
0.0
100
AcDbRotatedDimension
1001
ACAD
1000
DSTYLE
1002
{
1070
   144
1040
1.000000020416926
1070
    40
1040
0.4999999897915368
1070
   173
1070
     1
1070
   271
1070
     1
1070
   272
1070
     1
1070
   288
1070
     1
1070
   343
1005
9E
1070
   344
1005
9E
1002
}
  0
DIMENSION
  5
13F
330
70
100
AcDbEntity
  8
寸法線
 48
0.9999999795830735
100
AcDbDimension
280
     0
  2
*D31
 10
174.3910323014352
 20
138.9060029768916
 30
0.0
 11
174.3910323014352
 21
141.6434874669412
 31
0.0
 70
   160
 71
     5
 42
5.499999999999602
 73
     0
 74
     0
 75
     0
  3
STANDARD_WS
100
AcDbAlignedDimension
 13
171.8292701050232
 23
144.4060028645981
 33
0.0
 14
172.8294739414705
 24
138.9060029768916
 34
0.0
 50
90.0
100
AcDbRotatedDimension
1001
ACAD
1000
DSTYLE
1002
{
1070
   144
1040
1.000000020416926
1070
    40
1040
0.4999999897915368
1070
   173
1070
     1
1070
   271
1070
     1
1070
   272
1070
     1
1070
   288
1070
     1
1070
   343
1005
9E
1070
   344
1005
9E
1002
}
  0
DIMENSION
  5
14C
330
70
100
AcDbEntity
  8
寸法線
 48
0.9999999795830735
100
AcDbDimension
280
     0
  2
*D32
 10
168.0851328943171
 20
140.6855945042534
 30
0.0
 11
161.0943414992314
 21
135.0978631364609
 31
0.0
 70
    35
  1
φ5
 71
     5
 42
4.999999999999138
 73
     0
 74
     0
 75
     0
  3
STANDARD_WS
100
AcDbDiametricDimension
 15
164.5734075402869
 25
137.1264114495334
 35
0.0
 40
0.0
1001
ACAD
1000
DSTYLE
1002
{
1070
   144
1040
1.000000020416926
1070
    40
1040
0.4999999897915368
1070
   173
1070
     1
1070
   271
1070
     1
1070
   272
1070
     1
1070
   288
1070
     1
1070
   343
1005
9E
1070
   344
1005
9E
1002
}
  0
LINE
  5
158
330
70
100
AcDbEntity
  8
点線
 48
0.9999999795830735
100
AcDbLine
 10
163.8292702686813
 20
88.43896966349166
 30
0.0
 11
163.8292702686813
 21
90.03896963082297
 31
0.0
  0
LINE
  5
159
330
70
100
AcDbEntity
  8
点線
 48
0.9999999795830735
100
AcDbLine
 10
168.8292701665996
 20
88.43896966349166
 30
0.0
 11
168.8292701665996
 21
90.03896963082297
 31
0.0
  0
ARC
  5
15A
330
70
100
AcDbEntity
  8
基本図面
 48
0.9999999795830735
100
AcDbCircle
 10
106.8292714321214
 20
83.4389469317648
 30
0.0000000000000001
 40
4.999999897915367
100
AcDbArc
 50
90.0
 51
180.0
  0
ARC
  5
15B
330
70
100
AcDbEntity
  8
基本図面
 48
0.9999999795830735
100
AcDbCircle
 10
106.3542000480302
 20
82.29202315325892
 30
0.0000000000000001
 40
6.165254536830392
100
AcDbArc
 50
27.46942950185037
 51
85.58062134499534
  0
DIMENSION
  5
15C
330
70
100
AcDbEntity
  8
寸法線
 48
0.9999999795830735
100
AcDbDimension
280
     0
  2
*D33
 10
97.58216513920345
 20
70.03894720534302
 30
0.0000000000000001
 11
97.58216513920343
 21
79.23894701751305
 31
0.0000000000000001
 70
   160
 71
     5
 42
19.9973255140366
 73
     0
 74
     0
 75
     0
  3
STANDARD_WS
100
AcDbAlignedDimension
 13
106.8946321581897
 23
90.03627231109566
 33
0.0000000000000001
 14
101.0292715505347
 24
70.03894720534299
 34
0.0000000000000001
 50
90.0
100
AcDbRotatedDimension
1001
ACAD
1000
DSTYLE
1002
{
1070
   144
1040
1.000000020416926
1070
    40
1040
0.4999999897915368
1070
   173
1070
     1
1070
   271
1070
     1
1070
   272
1070
     1
1070
   288
1070
     1
1070
   343
1005
9E
1070
   344
1005
9E
1002
}
  0
DIMENSION
  5
169
330
70
100
AcDbEntity
  8
寸法線
 48
0.9999999795830735
100
AcDbDimension
280
     0
  2
*D34
 10
111.8292713300397
 20
115.5380840061243
 30
0.0
 11
124.2055426898005
 21
115.5380840061243
 31
0.0
 70
   160
 71
     5
 42
29.99999999999585
 73
     0
 74
     0
 75
     0
  3
STANDARD_WS
100
AcDbAlignedDimension
 13
141.8292707175278
 23
119.4060033750211
 33
0.0
 14
111.8292713300397
 24
119.4060033750211
 34
0.0
100
AcDbRotatedDimension
1001
ACAD
1000
DSTYLE
1002
{
1070
   144
1040
1.000000020416926
1070
    40
1040
0.4999999897915368
1070
   173
1070
     1
1070
   271
1070
     1
1070
   272
1070
     1
1070
   288
1070
     1
1070
   343
1005
9E
1070
   344
1005
9E
1002
}
  0
LINE
  5
176
330
70
100
AcDbEntity
  8
基本図面
 48
0.9999999795830735
100
AcDbLine
 10
161.3155332951719
 20
144.4060028645981
 30
0.0
 11
171.8292701050232
 21
144.4060028645981
 31
0.0
  0
LINE
  5
177
330
70
100
AcDbEntity
  8
基本図面
 48
0.9999999795830735
100
AcDbLine
 10
134.3155338464276
 20
129.4060031708541
 30
0.0
 11
141.8292707175278
 21
129.4060031708522
 31
0.0
  0
LINE
  5
178
330
70
100
AcDbEntity
  8
基本図面
 48
0.9999999795830735
100
AcDbLine
 10
134.3155338464276
 20
119.4060033750211
 30
0.0
 11
141.8292707175278
 21
119.4060033750211
 31
0.0
  0
LINE
  5
179
330
70
100
AcDbEntity
  8
基本図面
 48
0.9999999795830735
100
AcDbLine
 10
161.3155332951719
 20
104.4060036812734
 30
0.0
 11
171.8292701050232
 21
104.4060036812734
 31
0.0
  0
LINE
  5
17A
330
70
100
AcDbEntity
  8
基本図面
 48
0.9999999795830735
100
AcDbLine
 10
161.3155332955066
 20
88.43896966349166
 30
0.0
 11
171.8292701053506
 21
88.43896966349166
 31
0.0
  0
DIMENSION
  5
17B
330
70
100
AcDbEntity
  8
寸法線
 48
0.9999999795830735
100
AcDbDimension
280
     0
  2
*D35
 10
145.4722952955635
 20
119.4060033750211
 30
0.0
 11
145.4722952955635
 21
124.2095585307397
 31
0.0
 70
   160
 71
     5
 42
10.00000000000043
 73
     0
 74
     0
 75
     0
  3
STANDARD_WS
100
AcDbAlignedDimension
 13
141.8292707175351
 23
129.4060031708522
 33
0.0
 14
141.8292707175278
 24
119.4060033750211
 34
0.0
 50
90.0
100
AcDbRotatedDimension
1001
ACAD
1000
DSTYLE
1002
{
1070
   144
1040
1.000000020416926
1070
    40
1040
0.4999999897915368
1070
   173
1070
     1
1070
   271
1070
     1
1070
   272
1070
     1
1070
   288
1070
     1
1070
   343
1005
9E
1070
   344
1005
9E
1002
}
  0
LINE
  5
188
330
70
100
AcDbEntity
  8
基本図面
 48
0.9999999795830735
100
AcDbLine
 10
113.400121730323
 20
58.46816263423716
 30
0.0
 11
113.4292712973765
 21
88.43894682967947
 31
0.0
  0
LINE
  5
189
330
70
100
AcDbEntity
  8
基本図面
 48
0.9999999795830735
100
AcDbLine
 10
113.3988609269581
 20
58.46816455131374
 30
0.0
 11
151.7988619784155
 21
58.44162644722018
 31
0.0
  0
LINE
  5
18A
330
70
100
AcDbEntity
  8
基本図面
 48
0.9999999795830735
100
AcDbLine
 10
111.8287639837581
 20
90.04038209542704
 30
0.0
 11
162.1155332788403
 21
90.0389467970108
 31
0.0
  0
LINE
  5
18B
330
70
100
AcDbEntity
  8
基本図面
 48
0.9999999795830735
100
AcDbLine
 10
161.3155332955066
 20
90.0389696308248
 30
0.0
 11
171.8292701053506
 21
90.0389696308248
 31
0.0
  0
LINE
  5
18C
330
70
100
AcDbEntity
  8
基本図面
 48
0.9999999795830735
100
AcDbLine
 10
111.7990150017867
 20
56.86716684273415
 30
0.0
 11
111.8287639837581
 21
90.04038209542704
 31
0.0
  0
LINE
  5
18D
330
70
100
AcDbEntity
  8
基本図面
 48
0.9999999795830735
100
AcDbLine
 10
111.7990150017867
 20
56.86716684273415
 30
0.0
 11
151.7977547710179
 21
56.83952385589873
 31
0.0
  0
LINE
  5
18E
330
70
100
AcDbEntity
  8
基本図面
 48
0.9999999795830735
100
AcDbLine
 10
151.798860142946
 20
58.43897056196329
 30
0.0
 11
151.7977547710179
 21
56.83952385590419
 31
0.0
  0
LINE
  5
18F
330
70
100
AcDbEntity
  8
基本図面
 48
0.9999999795830735
100
AcDbLine
 10
100.2292715668664
 20
70.03894720534299
 30
0.0000000000000001
 11
100.2292715668664
 21
83.4389469317648
 31
0.0000000000000001
  0
ARC
  5
190
330
70
100
AcDbEntity
  8
基本図面
 48
0.9999999795830735
100
AcDbCircle
 10
106.8292714321214
 20
83.4389469317648
 30
0.0000000000000001
 40
6.599999865248284
100
AcDbArc
 50
90.0
 51
180.0
  0
ARC
  5
191
330
70
100
AcDbEntity
  8
基本図面
 48
0.9999999795830735
100
AcDbCircle
 10
106.2456328481203
 20
82.01864227302394
 30
0.0000000000000001
 40
8.041512211909841
100
AcDbArc
 50
26.7497901382885
 51
85.83791522663885
  0
LINE
  5
192
330
70
100
AcDbEntity
  8
基本図面
 48
0.9999999795830735
100
AcDbLine
 10
101.8292715342031
 20
70.03894720534299
 30
0.0000000000000001
 11
100.2292715668664
 21
70.03894720534299
 31
0.0000000000000001
  0
LINE
  5
193
330
70
100
AcDbEntity
  8
センター線
 48
0.9999999795830735
100
AcDbLine
 10
166.329270217313
 20
86.88010589638906
 30
0.0
 11
166.329270217313
 21
90.797787746631
 31
0.0
  0
LINE
  5
194
330
70
100
AcDbEntity
  8
点線
 48
0.9999999795830735
100
AcDbLine
 10
151.8292705133572
 20
129.4060031708522
 30
0.0
 11
151.8292705133572
 21
144.4060028645981
 31
0.0
  0
LINE
  5
195
330
70
100
AcDbEntity
  8
点線
 48
0.9999999795830735
100
AcDbLine
 10
151.8292705133572
 20
104.4060036812734
 30
0.0
 11
151.8292705133572
 21
129.4060031708522
 31
0.0
  0
LINE
  5
196
330
70
100
AcDbEntity
  8
点線
 48
0.9999999795830735
100
AcDbLine
 10
113.4292712973838
 20
129.4060031708522
 30
0.0
 11
113.4292712973765
 21
144.4060028645981
 31
0.0
  0
LINE
  5
197
330
70
100
AcDbEntity
  8
基本図面
 48
0.9999999795830735
100
AcDbLine
 10
113.4292712973838
 20
119.4060033750247
 30
0.0
 11
113.4292712973838
 21
129.4060031708522
 31
0.0
  0
LINE
  5
198
330
70
100
AcDbEntity
  8
点線
 48
0.9999999795830735
100
AcDbLine
 10
113.4292712973765
 20
104.4060036812734
 30
0.0
 11
113.4292712973838
 21
119.4060033750247
 31
0.0
  0
LINE
  5
199
330
70
100
AcDbEntity
  8
基本図面
 48
0.9999999795830735
100
AcDbLine
 10
100.2292715668664
 20
119.4060033750229
 30
0.0
 11
100.2292715668664
 21
129.4060031708541
 31
0.0
  0
INSERT
  5
423
330
70
100
AcDbEntity
  8
図面枠
100
AcDbBlockReference
  2
TITLE_BLOCK
 10
-4.686621979846677
 20
-4.708272101743148
 30
0.0
  0
LINE
  5
42E
330
70
100
AcDbEntity
  8
図面枠
100
AcDbLine
 10
182.3133780201534
 20
5.291727903512253
 30
0.0
 11
182.3133780201534
 21
45.29172790351224
 31
0.0
  0
LINE
  5
42F
330
70
100
AcDbEntity
  8
図面枠
100
AcDbLine
 10
282.3133780201533
 20
15.29172790351225
 30
0.0
 11
182.3133780201534
 21
15.29172790351225
 31
0.0
  0
LINE
  5
430
330
70
100
AcDbEntity
  8
図面枠
100
AcDbLine
 10
282.3133780201533
 20
25.29172790351225
 30
0.0
 11
243.3133780201534
 21
25.29172790351225
 31
0.0
  0
LINE
  5
431
330
70
100
AcDbEntity
  8
図面枠
100
AcDbLine
 10
282.3133780201533
 20
35.29172790351225
 30
0.0
 11
182.3133780201534
 21
35.29172790351225
 31
0.0
  0
LINE
  5
432
330
70
100
AcDbEntity
  8
図面枠
100
AcDbLine
 10
282.3133780201533
 20
45.29172790351225
 30
0.0
 11
182.3133780201534
 21
45.29172790351225
 31
0.0
  0
LINE
  5
433
330
70
100
AcDbEntity
  8
図面枠
100
AcDbLine
 10
197.3133780201534
 20
35.29172790351225
 30
0.0
 11
197.3133780201534
 21
45.29172790351224
 31
0.0
  0
LINE
  5
434
330
70
100
AcDbEntity
  8
図面枠
100
AcDbLine
 10
187.3133780201533
 20
15.29172790351225
 30
0.0
 11
187.3133780201533
 21
35.29172790351225
 31
0.0
  0
LINE
  5
435
330
70
100
AcDbEntity
  8
図面枠
100
AcDbLine
 10
200.3133780201534
 20
15.29172790351225
 30
0.0
 11
200.3133780201534
 21
35.29172790351225
 31
0.0
  0
LINE
  5
436
330
70
100
AcDbEntity
  8
図面枠
100
AcDbLine
 10
205.3133780201534
 20
15.29172790351225
 30
0.0
 11
205.3133780201534
 21
35.29172790351225
 31
0.0
  0
LINE
  5
437
330
70
100
AcDbEntity
  8
図面枠
100
AcDbLine
 10
218.3133780201534
 20
15.29172790351225
 30
0.0
 11
218.3133780201534
 21
25.29172790351225
 31
0.0
  0
LINE
  5
438
330
70
100
AcDbEntity
  8
図面枠
100
AcDbLine
 10
223.3133780201534
 20
15.29172790351225
 30
0.0
 11
223.3133780201534
 21
25.29172790351225
 31
0.0
  0
LINE
  5
439
330
70
100
AcDbEntity
  8
図面枠
100
AcDbLine
 10
236.3133780201534
 20
5.291727903512253
 30
0.0
 11
236.3133780201534
 21
35.29172790351225
 31
0.0
  0
LINE
  5
43A
330
70
100
AcDbEntity
  8
図面枠
100
AcDbLine
 10
243.3133780201534
 20
5.291727903512253
 30
0.0
 11
243.3133780201534
 21
35.29172790351225
 31
0.0
  0
LINE
  5
43B
330
70
100
AcDbEntity
  8
図面枠
100
AcDbLine
 10
236.3133780201534
 20
25.29172790351225
 30
0.0
 11
182.3133780201534
 21
25.29172790351225
 31
0.0
  0
MTEXT
  5
43C
330
70
100
AcDbEntity
  8
図面枠
100
AcDbMText
 10
183.7448862891493
 20
43.30304212884811
 30
0.0
 40
4.0
 41
12.03643143182296
 46
0.0
 71
     1
 72
     5
  1
\fMS UI Gothic|b0|i0|c128|p2;名称
 73
     1
 44
1.0
  0
MTEXT
  5
43D
330
70
100
AcDbEntity
  8
図面枠
100
AcDbMText
 10
184.8067255505119
 20
20.29172790351225
 30
0.0
 40
2.5
 41
4.98669506071708
 46
10.0
 71
     5
 72
     5
  1
{\fMS UI Gothic|b0|i0|c128|p50;縮尺}
 73
     1
 44
1.0
  0
MTEXT
  5
43E
330
70
100
AcDbEntity
  8
図面枠
100
AcDbMText
 10
184.8067255505119
 20
30.29172790351225
 30
0.0
 40
2.5
 41
4.986695060717108
 46
9.999999999999998
 71
     5
 72
     5
  1
{\fMS UI Gothic|b0|i0|c128|p50;製図}
 73
     1
 44
1.0
  0
MTEXT
  5
43F
330
70
100
AcDbEntity
  8
図面枠
100
AcDbMText
 10
202.8067255505119
 20
20.29172790351225
 30
0.0
 40
2.5
 41
4.986695060717108
 46
10.0
 71
     5
 72
     5
  1
{\fMS UI Gothic|b0|i0|c128|p50;検図}
 73
     1
 44
1.0
  0
MTEXT
  5
440
330
70
100
AcDbEntity
  8
図面枠
100
AcDbMText
 10
220.8133780201534
 20
20.29172790351225
 30
0.0
 40
2.5
 41
5.000000000000012
 46
10.0
 71
     5
 72
     5
  1
{\fMS UI Gothic|b0|i0|c128|p50;承認}
 73
     1
 44
1.0
  0
MTEXT
  5
441
330
70
100
AcDbEntity
  8
図面枠
100
AcDbMText
 10
239.8133780201534
 20
25.29172790351225
 30
0.0
 40
2.5
 41
7.00000000000004
 46
20.0
 71
     5
 72
     5
  1
{\fMS UI Gothic|b0|i0|c128|p50;訂　正}
 73
     1
 44
1.0
  0
MTEXT
  5
442
330
70
100
AcDbEntity
  8
図面枠
100
AcDbMText
 10
209.3133780201534
 20
10.29172790351225
 30
0.0
 40
4.0
 41
53.99999999999995
 46
10.0
 71
     5
 72
     5
  1
{\fMS UI Gothic|b0|i0|c128|p50;株式会社キョーワ}
 73
     1
 44
1.0
  0
MTEXT
  5
443
330
70
100
AcDbEntity
  8
図面枠
100
AcDbMText
 10
200.9737887032704
 20
42.98879028116442
 30
0.0
 40
4.0
 41
81.33958931688296
 46
0.0
 71
     1
 72
     5
  1
{\fMS UI Gothic|b0|i0|c128|p50;下部取付部品　BB-30A}
 73
     1
 44
1.0
  0
MTEXT
  5
444
330
70
100
AcDbEntity
  8
図面枠
100
AcDbMText
 10
202.8133780201534
 20
30.29172790351225
 30
0.0
 40
2.5
 41
5.000000000000012
 46
10.0
 71
     5
 72
     5
  1
{\fMS UI Gothic|b0|i0|c128|p50;日付}
 73
     1
 44
1.0
  0
MTEXT
  5
445
330
70
100
AcDbEntity
  8
図面枠
100
AcDbMText
 10
239.8133780201535
 20
10.29172790351225
 30
0.0
 40
2.5
 41
7.000000000000069
 46
10.0
 71
     5
 72
     5
  1
{\fMS UI Gothic|b0|i0|c128|p50;図\P番}
 73
     1
 44
1.0
  0
MTEXT
  5
446
330
70
100
AcDbEntity
  8
図面枠
100
AcDbMText
 10
262.8133780201534
 20
10.29172790351225
 30
0.0
 40
4.0
 41
38.99999999999995
 46
10.0
 71
     5
 72
     5
  1
{\fMS UI Gothic|b0|i0|c128|p50;N1073C　1}
 73
     1
 44
1.0
  0
MTEXT
  5
447
330
70
100
AcDbEntity
  8
図面枠
100
AcDbMText
 10
193.8133780201534
 20
20.4141313877312
 30
0.0
 40
4.0
 41
13.0
 46
10.2448069684379
 71
     5
 72
     5
  1
{\fMS UI Gothic|b0|i0|c128|p50;1：1}
 73
     1
 44
1.0
  0
MTEXT
  5
448
330
70
100
AcDbEntity
  8
図面枠
100
AcDbMText
 10
200.9737887032704
 20
59.99758207470853
 30
0.0
 40
4.0
 41
81.33958931688296
 46
0.0
 71
     1
 72
     5
  1
{\fMS UI Gothic|b0|i0|c128|p50;材料：ガルバリウム鋼板　t1.6}
 73
     1
 44
1.0
  0
ENDSEC
  0
SECTION
  2
OBJECTS
  0
DICTIONARY
  5
C
330
0
100
AcDbDictionary
281
     1
  3
ACAD_CIP_PREVIOUS_PRODUCT_INFO
350
4F1
  3
ACAD_COLOR
350
63
  3
ACAD_DETAILVIEWSTYLE
350
6A
  3
ACAD_GROUP
350
D
  3
ACAD_LAYOUT
350
62
  3
ACAD_MATERIAL
350
10
  3
ACAD_MLEADERSTYLE
350
66
  3
ACAD_MLINESTYLE
350
5F
  3
ACAD_PLOTSETTINGS
350
61
  3
ACAD_PLOTSTYLENAME
350
E
  3
ACAD_SCALELIST
350
42
  3
ACAD_SECTIONVIEWSTYLE
350
68
  3
ACAD_TABLESTYLE
350
64
  3
ACAD_VISUALSTYLE
350
29
  3
ACDB_RECOMPOSE_DATA
350
4F7
  3
AcDbVariableDictionary
350
4DF
  0
DICTIONARY
  5
4F2
330
54
100
AcDbDictionary
280
     1
281
     1
  3
ADSK_XREC_LAYER_RECONCILED
360
4F3
  0
DICTIONARY
  5
7F
330
7E
100
AcDbDictionary
280
     1
281
     1
  3
ADSK_XREC_LAYER_RECONCILED
360
80
  0
DICTIONARY
  5
83
330
82
100
AcDbDictionary
280
     1
281
     1
  3
ADSK_XREC_LAYER_RECONCILED
360
84
  0
DICTIONARY
  5
8C
330
8B
100
AcDbDictionary
280
     1
281
     1
  3
ADSK_XREC_LAYER_RECONCILED
360
8D
  0
DICTIONARY
  5
96
330
95
100
AcDbDictionary
280
     1
281
     1
  3
ADSK_XREC_LAYER_RECONCILED
360
97
  0
DICTIONARY
  5
12E
330
12D
100
AcDbDictionary
280
     1
281
     1
  3
ADSK_XREC_LAYER_RECONCILED
360
12F
  0
DICTIONARY
  5
425
330
424
100
AcDbDictionary
280
     1
281
     1
  3
ADSK_XREC_LAYER_RECONCILED
360
426
  0
DICTIONARY
  5
421
330
70
100
AcDbDictionary
280
     1
281
     1
  3
ACAD_SORTENTS
360
422
  0
XRECORD
  5
4F1
102
{ACAD_REACTORS
330
C
102
}
330
C
100
AcDbXrecord
280
     1
300
ACDLT
300
2021
300

  0
DICTIONARY
  5
63
102
{ACAD_REACTORS
330
C
102
}
330
C
100
AcDbDictionary
281
     1
  0
DICTIONARY
  5
6A
102
{ACAD_REACTORS
330
C
102
}
330
C
100
AcDbDictionary
281
     1
  3
Imperial24
350
6B
  3
Metric50
350
4EC
  0
DICTIONARY
  5
D
102
{ACAD_REACTORS
330
C
102
}
330
C
100
AcDbDictionary
281
     1
  0
DICTIONARY
  5
62
102
{ACAD_REACTORS
330
C
102
}
330
C
100
AcDbDictionary
281
     1
  3
Model
350
73
  3
レイアウト1
350
6F
  3
レイアウト2
350
77
  0
DICTIONARY
  5
10
102
{ACAD_REACTORS
330
C
102
}
330
C
100
AcDbDictionary
281
     1
  3
ByBlock
350
19
  3
ByLayer
350
11
  3
Global
350
21
  0
DICTIONARY
  5
66
102
{ACAD_REACTORS
330
C
102
}
330
C
100
AcDbDictionary
281
     1
  3
Standard
350
67
  0
DICTIONARY
  5
5F
102
{ACAD_REACTORS
330
C
102
}
330
C
100
AcDbDictionary
281
     1
  3
Standard
350
60
  0
DICTIONARY
  5
61
102
{ACAD_REACTORS
330
C
102
}
330
C
100
AcDbDictionary
281
     1
  0
ACDBDICTIONARYWDFLT
  5
E
102
{ACAD_REACTORS
330
C
102
}
330
C
100
AcDbDictionary
281
     1
  3
Normal
350
F
100
AcDbDictionaryWithDefault
340
F
  0
DICTIONARY
  5
42
102
{ACAD_REACTORS
330
C
102
}
330
C
100
AcDbDictionary
281
     1
  3
A0
350
43
  3
A1
350
44
  3
A2
350
45
  3
A3
350
46
  3
A4
350
47
  3
A5
350
48
  3
A6
350
49
  3
A7
350
4A
  3
A8
350
4B
  3
A9
350
4C
  3
B0
350
4D
  3
B1
350
4E
  3
B2
350
4F
  3
B3
350
50
  3
B4
350
51
  3
B5
350
52
  3
B6
350
53
  0
DICTIONARY
  5
68
102
{ACAD_REACTORS
330
C
102
}
330
C
100
AcDbDictionary
281
     1
  3
Imperial24
350
69
  3
Metric50
350
4EB
  0
DICTIONARY
  5
64
102
{ACAD_REACTORS
330
C
102
}
330
C
100
AcDbDictionary
281
     1
  3
Standard
350
65
  0
DICTIONARY
  5
29
102
{ACAD_REACTORS
330
C
102
}
330
C
100
AcDbDictionary
281
     1
  3
2dWireframe
350
2F
  3
Basic
350
2E
  3
Brighten
350
35
  3
ColorChange
350
39
  3
Conceptual
350
32
  3
Dim
350
34
  3
EdgeColorOff
350
41
  3
Facepattern
350
38
  3
Flat
350
2A
  3
FlatWithEdges
350
2B
  3
Gouraud
350
2C
  3
GouraudWithEdges
350
2D
  3
Hidden
350
31
  3
JitterOff
350
3F
  3
Linepattern
350
37
  3
OverhangOff
350
40
  3
Realistic
350
33
  3
Shaded
350
3E
  3
Shaded with edges
350
3D
  3
Shades of Gray
350
3A
  3
Sketchy
350
3B
  3
Thicken
350
36
  3
Wireframe
350
30
  3
X-Ray
350
3C
  0
XRECORD
  5
4F7
102
{ACAD_REACTORS
330
C
102
}
330
C
100
AcDbXrecord
280
     1
 90
        1
330
65
  0
DICTIONARY
  5
4DF
102
{ACAD_REACTORS
330
C
102
}
330
C
100
AcDbDictionary
281
     1
  3
ANNOALLVISIBLE
350
4E5
  3
CANNOSCALE
350
4E6
  3
CMLEADERSTYLE
350
4E1
  3
CTABLESTYLE
350
4E0
  3
CVIEWDETAILSTYLE
350
4E2
  3
CVIEWSECTIONSTYLE
350
4E3
  3
LAYEREVAL
350
4E8
  3
LAYERNOTIFY
350
4E9
  3
LIGHTINGUNITS
350
4E7
  3
MSLTSCALE
350
4E4
  0
XRECORD
  5
4F3
102
{ACAD_REACTORS
330
4F2
102
}
330
4F2
100
AcDbXrecord
280
     1
290
     1
  0
XRECORD
  5
80
102
{ACAD_REACTORS
330
7F
102
}
330
7F
100
AcDbXrecord
280
     1
290
     1
  0
XRECORD
  5
84
102
{ACAD_REACTORS
330
83
102
}
330
83
100
AcDbXrecord
280
     1
290
     1
  0
XRECORD
  5
8D
102
{ACAD_REACTORS
330
8C
102
}
330
8C
100
AcDbXrecord
280
     1
290
     1
  0
XRECORD
  5
97
102
{ACAD_REACTORS
330
96
102
}
330
96
100
AcDbXrecord
280
     1
290
     1
  0
XRECORD
  5
12F
102
{ACAD_REACTORS
330
12E
102
}
330
12E
100
AcDbXrecord
280
     1
290
     1
  0
XRECORD
  5
426
102
{ACAD_REACTORS
330
425
102
}
330
425
100
AcDbXrecord
280
     1
290
     1
  0
SORTENTSTABLE
  5
422
102
{ACAD_REACTORS
330
421
102
}
330
421
100
AcDbSortentsTable
330
70
331
86
  5
87
331
87
  5
89
331
88
  5
8E
331
89
  5
91
331
8A
  5
92
331
8E
  5
93
331
8F
  5
94
331
90
  5
EA
331
91
  5
F6
331
92
  5
11E
331
93
  5
130
331
94
  5
13F
331
AA
  5
14C
331
B7
  5
158
331
C4
  5
159
331
D1
  5
15A
331
DE
  5
15B
331
EA
  5
15C
331
F6
  5
169
331
103
  5
176
331
110
  5
177
331
11D
  5
178
331
11E
  5
179
331
11F
  5
17A
331
120
  5
17B
331
12C
  5
188
331
130
  5
189
331
131
  5
18A
331
132
  5
18B
331
13F
  5
18C
331
14C
  5
18D
331
158
  5
18F
331
159
  5
190
331
15A
  5
191
331
15B
  5
192
331
15C
  5
194
331
169
  5
196
331
176
  5
86
331
177
  5
8A
331
178
  5
8F
331
179
  5
88
331
17A
  5
110
331
17B
  5
197
331
188
  5
198
331
189
  5
11F
331
18A
  5
103
331
18B
  5
11D
331
18C
  5
199
331
18D
  5
120
331
18E
  5
12C
331
18F
  5
131
331
190
  5
193
331
191
  5
195
331
192
  5
132
331
193
  5
18E
331
194
  5
DE
331
195
  5
90
331
196
  5
C4
331
197
  5
B7
331
198
  5
D1
331
199
  5
AA
  0
ACDBDETAILVIEWSTYLE
  5
6B
102
{ACAD_REACTORS
330
6A
102
}
330
6A
100
AcDbModelDocViewStyle
 70
     0
  3
Imperial24
290
     1
300
Imperial24
 90
        0
100
AcDbDetailViewStyle
 70
     0
 71
     0
 90
        3
 71
     1
340
55
 62
   256
 40
0.24
340
0
 62
   256
 40
0.24
300

 40
0.36
280
     3
 71
     2
340
5D
 90
       25
 62
   256
 71
     3
340
55
 62
   256
 40
0.24
 90
        1
 40
0.75
 90
        1
300
%<\AcVar ViewType \f "%tc1">% %<\AcVar ViewDetailId>%\PSCALE %<\AcVar ViewScale \f "%sn">%
 71
     4
340
5D
 90
       25
 62
   256
340
5D
 90
       25
 62
   256
280
     0
  0
ACDBDETAILVIEWSTYLE
  5
4EC
102
{ACAD_REACTORS
330
6A
102
}
330
6A
100
AcDbModelDocViewStyle
 70
     0
  3
Metric50
290
     1
300
Metric50
 90
        0
100
AcDbDetailViewStyle
 70
     0
 71
     0
 90
        3
 71
     1
340
55
 62
   256
 40
5.0
340
0
 62
   256
 40
5.0
300

 40
0.0
280
     1
 71
     2
340
5D
 90
       25
 62
   256
 71
     3
340
55
 62
   256
 40
5.0
 90
        0
 40
15.0
 90
        1
300
%<\AcVar ViewDetailId>% (%<\AcVar ViewScale \f "%sn">%)
 71
     4
340
5D
 90
       25
 62
   256
340
5D
 90
       25
 62
   256
280
     0
  0
LAYOUT
  5
73
102
{ACAD_REACTORS
330
62
102
}
330
62
100
AcDbPlotSettings
  1

  2
RICOH MP C3003 JPN RPCS V2
  4
A4
  6

 40
5.079999923706054
 41
5.154022216796875
 42
5.106658935546875
 43
5.079986572265625
 44
210.0
 45
297.0
 46
0.0
 47
0.0
 48
0.0
 49
0.0
140
0.0
141
0.0
142
1.0
143
1.801376295334783
 70
 11952
 72
     1
 73
     1
 74
     0
  7

 75
     0
147
0.5551310975889973
 76
     0
 77
     2
 78
   300
148
115.2764021971472
149
16.22534428048055
100
AcDbLayout
  1
Model
 70
     1
 71
     0
 10
0.0
 20
0.0
 11
12.0
 21
9.0
 12
0.0
 22
0.0
 32
0.0
 14
0.0
 24
0.0
 34
0.0
 15
0.0
 25
0.0
 35
0.0
146
0.0
 13
0.0
 23
0.0
 33
0.0
 16
1.0
 26
0.0
 36
0.0
 17
0.0
 27
1.0
 37
0.0
 76
     0
330
70
331
57
1001
ACAD_PSEXT
1000
RICOH MP C3003 JPN RPCS V2
1000
RICOH MP C3003 JPN RPCS V2
1000
IP_192.168.1.100
1000
RPCS Driver (For Windows)
1070
     0
  0
LAYOUT
  5
6F
102
{ACAD_REACTORS
330
62
102
}
330
62
100
AcDbPlotSettings
  1

  2
RICOH MP C3003 JPN RPCS V2
  4

  6

 40
0.0
 41
0.0
 42
0.0
 43
0.0
 44
0.0
 45
0.0
 46
0.0
 47
0.0
 48
0.0
 49
0.0
140
0.0
141
0.0
142
1.0
143
1.0
 70
   688
 72
     0
 73
     0
 74
     5
  7

 75
    16
147
1.0
 76
     0
 77
     2
 78
   300
148
0.0
149
0.0
100
AcDbLayout
  1
レイアウト1
 70
     0
 71
     1
 10
0.0
 20
0.0
 11
12.0
 21
9.0
 12
0.0
 22
0.0
 32
0.0
 14
1.000000000000000E+20
 24
1.000000000000000E+20
 34
1.000000000000000E+20
 15
-1.000000000000000E+20
 25
-1.000000000000000E+20
 35
-1.000000000000000E+20
146
0.0
 13
0.0
 23
0.0
 33
0.0
 16
1.0
 26
0.0
 36
0.0
 17
0.0
 27
1.0
 37
0.0
 76
     0
330
6C
  0
LAYOUT
  5
77
102
{ACAD_REACTORS
330
62
102
}
330
62
100
AcDbPlotSettings
  1

  2
RICOH MP C3003 JPN RPCS V2
  4

  6

 40
0.0
 41
0.0
 42
0.0
 43
0.0
 44
0.0
 45
0.0
 46
0.0
 47
0.0
 48
0.0
 49
0.0
140
0.0
141
0.0
142
1.0
143
1.0
 70
   688
 72
     0
 73
     0
 74
     5
  7

 75
    16
147
1.0
 76
     0
 77
     2
 78
   300
148
0.0
149
0.0
100
AcDbLayout
  1
レイアウト2
 70
     1
 71
     2
 10
0.0
 20
0.0
 11
12.0
 21
9.0
 12
0.0
 22
0.0
 32
0.0
 14
0.0
 24
0.0
 34
0.0
 15
0.0
 25
0.0
 35
0.0
146
0.0
 13
0.0
 23
0.0
 33
0.0
 16
1.0
 26
0.0
 36
0.0
 17
0.0
 27
1.0
 37
0.0
 76
     0
330
74
  0
MATERIAL
  5
19
102
{ACAD_XDICTIONARY
360
1A
102
}
102
{ACAD_REACTORS
330
10
102
}
330
10
100
AcDbMaterial
  1
ByBlock
 72
     0
 43
0.0208333333333333
 43
0.0
 43
0.0
 43
0.0
 43
0.0
 43
0.0208333333333333
 43
0.0
 43
0.0
 43
0.0
 43
0.0
 43
1.0
 43
0.0
 43
0.0
 43
0.0
 43
0.0
 43
1.0
 77
     0
 47
0.0208333333333333
 47
0.0
 47
0.0
 47
0.0
 47
0.0
 47
0.0208333333333333
 47
0.0
 47
0.0
 47
0.0
 47
0.0
 47
1.0
 47
0.0
 47
0.0
 47
0.0
 47
0.0
 47
1.0
171
     0
 49
0.0208333333333333
 49
0.0
 49
0.0
 49
0.0
 49
0.0
 49
0.0208333333333333
 49
0.0
 49
0.0
 49
0.0
 49
0.0
 49
1.0
 49
0.0
 49
0.0
 49
0.0
 49
0.0
 49
1.0
175
     0
142
0.0208333333333333
142
0.0
142
0.0
142
0.0
142
0.0
142
0.0208333333333333
142
0.0
142
0.0
142
0.0
142
0.0
142
1.0
142
0.0
142
0.0
142
0.0
142
0.0
142
1.0
179
     0
144
0.0208333333333333
144
0.0
144
0.0
144
0.0
144
0.0
144
0.0208333333333333
144
0.0
144
0.0
144
0.0
144
0.0
144
1.0
144
0.0
144
0.0
144
0.0
144
0.0
144
1.0
147
0.0208333333333333
147
0.0
147
0.0
147
0.0
147
0.0
147
0.0208333333333333
147
0.0
147
0.0
147
0.0
147
0.0
147
1.0
147
0.0
147
0.0
147
0.0
147
0.0
147
1.0
  0
MATERIAL
  5
11
102
{ACAD_XDICTIONARY
360
12
102
}
102
{ACAD_REACTORS
330
10
102
}
330
10
100
AcDbMaterial
  1
ByLayer
 72
     0
 43
0.0208333333333333
 43
0.0
 43
0.0
 43
0.0
 43
0.0
 43
0.0208333333333333
 43
0.0
 43
0.0
 43
0.0
 43
0.0
 43
1.0
 43
0.0
 43
0.0
 43
0.0
 43
0.0
 43
1.0
 77
     0
 47
0.0208333333333333
 47
0.0
 47
0.0
 47
0.0
 47
0.0
 47
0.0208333333333333
 47
0.0
 47
0.0
 47
0.0
 47
0.0
 47
1.0
 47
0.0
 47
0.0
 47
0.0
 47
0.0
 47
1.0
171
     0
 49
0.0208333333333333
 49
0.0
 49
0.0
 49
0.0
 49
0.0
 49
0.0208333333333333
 49
0.0
 49
0.0
 49
0.0
 49
0.0
 49
1.0
 49
0.0
 49
0.0
 49
0.0
 49
0.0
 49
1.0
175
     0
142
0.0208333333333333
142
0.0
142
0.0
142
0.0
142
0.0
142
0.0208333333333333
142
0.0
142
0.0
142
0.0
142
0.0
142
1.0
142
0.0
142
0.0
142
0.0
142
0.0
142
1.0
179
     0
144
0.0208333333333333
144
0.0
144
0.0
144
0.0
144
0.0
144
0.0208333333333333
144
0.0
144
0.0
144
0.0
144
0.0
144
1.0
144
0.0
144
0.0
144
0.0
144
0.0
144
1.0
147
0.0208333333333333
147
0.0
147
0.0
147
0.0
147
0.0
147
0.0208333333333333
147
0.0
147
0.0
147
0.0
147
0.0
147
1.0
147
0.0
147
0.0
147
0.0
147
0.0
147
1.0
  0
MATERIAL
  5
21
102
{ACAD_XDICTIONARY
360
22
102
}
102
{ACAD_REACTORS
330
10
102
}
330
10
100
AcDbMaterial
  1
Global
 72
     0
 43
0.0208333333333333
 43
0.0
 43
0.0
 43
0.0
 43
0.0
 43
0.0208333333333333
 43
0.0
 43
0.0
 43
0.0
 43
0.0
 43
1.0
 43
0.0
 43
0.0
 43
0.0
 43
0.0
 43
1.0
 77
     0
 47
0.0208333333333333
 47
0.0
 47
0.0
 47
0.0
 47
0.0
 47
0.0208333333333333
 47
0.0
 47
0.0
 47
0.0
 47
0.0
 47
1.0
 47
0.0
 47
0.0
 47
0.0
 47
0.0
 47
1.0
171
     0
 49
0.0208333333333333
 49
0.0
 49
0.0
 49
0.0
 49
0.0
 49
0.0208333333333333
 49
0.0
 49
0.0
 49
0.0
 49
0.0
 49
1.0
 49
0.0
 49
0.0
 49
0.0
 49
0.0
 49
1.0
175
     0
142
0.0208333333333333
142
0.0
142
0.0
142
0.0
142
0.0
142
0.0208333333333333
142
0.0
142
0.0
142
0.0
142
0.0
142
1.0
142
0.0
142
0.0
142
0.0
142
0.0
142
1.0
179
     0
144
0.0208333333333333
144
0.0
144
0.0
144
0.0
144
0.0
144
0.0208333333333333
144
0.0
144
0.0
144
0.0
144
0.0
144
1.0
144
0.0
144
0.0
144
0.0
144
0.0
144
1.0
147
0.0208333333333333
147
0.0
147
0.0
147
0.0
147
0.0
147
0.0208333333333333
147
0.0
147
0.0
147
0.0
147
0.0
147
1.0
147
0.0
147
0.0
147
0.0
147
0.0
147
1.0
  0
MLEADERSTYLE
  5
67
102
{ACAD_REACTORS
330
66
102
}
330
66
100
AcDbMLeaderStyle
179
     2
170
     2
171
     1
172
     0
 90
        2
 40
0.0
 41
0.0
173
     1
 91
-1056964608
340
5B
 92
       -2
290
     1
 42
0.09
291
     1
 43
0.36
  3
Standard
 44
0.18
300

342
55
174
     1
178
     6
175
     1
176
     0
 93
-1056964608
 45
0.18
292
     0
297
     0
 46
0.18
 94
-1056964608
 47
1.0
 49
1.0
140
1.0
293
     1
141
0.0
294
     1
177
     0
142
1.0
295
     1
296
     0
143
0.125
271
     0
272
     9
273
     9
298
     1
  0
MLINESTYLE
  5
60
102
{ACAD_REACTORS
330
5F
102
}
330
5F
100
AcDbMlineStyle
  2
STANDARD
 70
     0
  3

 62
   256
 51
90.0
 52
90.0
 71
     2
 49
0.5
 62
   256
  6
BYLAYER
 49
-0.5
 62
   256
  6
BYLAYER
  0
ACDBPLACEHOLDER
  5
F
102
{ACAD_REACTORS
330
E
102
}
330
E
  0
SCALE
  5
43
102
{ACAD_REACTORS
330
42
102
}
330
42
100
AcDbScale
 70
     0
300
1:1
140
1.0
141
1.0
290
     1
  0
SCALE
  5
44
102
{ACAD_REACTORS
330
42
102
}
330
42
100
AcDbScale
 70
     0
300
1:2
140
1.0
141
2.0
290
     0
  0
SCALE
  5
45
102
{ACAD_REACTORS
330
42
102
}
330
42
100
AcDbScale
 70
     0
300
1:4
140
1.0
141
4.0
290
     0
  0
SCALE
  5
46
102
{ACAD_REACTORS
330
42
102
}
330
42
100
AcDbScale
 70
     0
300
1:5
140
1.0
141
5.0
290
     0
  0
SCALE
  5
47
102
{ACAD_REACTORS
330
42
102
}
330
42
100
AcDbScale
 70
     0
300
1:8
140
1.0
141
8.0
290
     0
  0
SCALE
  5
48
102
{ACAD_REACTORS
330
42
102
}
330
42
100
AcDbScale
 70
     0
300
1:10
140
1.0
141
10.0
290
     0
  0
SCALE
  5
49
102
{ACAD_REACTORS
330
42
102
}
330
42
100
AcDbScale
 70
     0
300
1:16
140
1.0
141
16.0
290
     0
  0
SCALE
  5
4A
102
{ACAD_REACTORS
330
42
102
}
330
42
100
AcDbScale
 70
     0
300
1:20
140
1.0
141
20.0
290
     0
  0
SCALE
  5
4B
102
{ACAD_REACTORS
330
42
102
}
330
42
100
AcDbScale
 70
     0
300
1:30
140
1.0
141
30.0
290
     0
  0
SCALE
  5
4C
102
{ACAD_REACTORS
330
42
102
}
330
42
100
AcDbScale
 70
     0
300
1:40
140
1.0
141
40.0
290
     0
  0
SCALE
  5
4D
102
{ACAD_REACTORS
330
42
102
}
330
42
100
AcDbScale
 70
     0
300
1:50
140
1.0
141
50.0
290
     0
  0
SCALE
  5
4E
102
{ACAD_REACTORS
330
42
102
}
330
42
100
AcDbScale
 70
     0
300
1:100
140
1.0
141
100.0
290
     0
  0
SCALE
  5
4F
102
{ACAD_REACTORS
330
42
102
}
330
42
100
AcDbScale
 70
     0
300
2:1
140
2.0
141
1.0
290
     0
  0
SCALE
  5
50
102
{ACAD_REACTORS
330
42
102
}
330
42
100
AcDbScale
 70
     0
300
4:1
140
4.0
141
1.0
290
     0
  0
SCALE
  5
51
102
{ACAD_REACTORS
330
42
102
}
330
42
100
AcDbScale
 70
     0
300
8:1
140
8.0
141
1.0
290
     0
  0
SCALE
  5
52
102
{ACAD_REACTORS
330
42
102
}
330
42
100
AcDbScale
 70
     0
300
10:1
140
10.0
141
1.0
290
     0
  0
SCALE
  5
53
102
{ACAD_REACTORS
330
42
102
}
330
42
100
AcDbScale
 70
     0
300
100:1
140
100.0
141
1.0
290
     0
  0
ACDBSECTIONVIEWSTYLE
  5
69
102
{ACAD_REACTORS
330
68
102
}
330
68
100
AcDbModelDocViewStyle
 70
     0
  3
Imperial24
290
     1
300
Imperial24
 90
        0
100
AcDbSectionViewStyle
 70
     0
 71
     0
 90
       78
 71
     1
340
55
 62
   256
 40
0.24
340
0
340
0
 62
   256
 40
0.24
300
I, O, Q, S, X, Z
 40
0.48
 90
        3
 40
0.18
 90
        1
 71
     2
340
5D
 90
       25
 62
   256
340
5D
 90
       50
 62
   256
 40
0.24
 40
0.0
 40
0.24
 71
     3
340
55
 62
   256
 40
0.24
 90
        1
 40
0.75
 90
        1
300
%<\AcVar ViewType \f "%tc1">% %<\AcVar ViewSectionStartId>%-%<\AcVar ViewSectionEndId>%\PSCALE %<\AcVar ViewScale \f "%sn">%
 71
     4
 62
   256
 62
   257
300
ANSI31
 40
1.0
 90
        0
290
     0
290
     0
 90
        6
 40
0.0
 40
1.570796326794896
 40
0.2617993877991494
 40
1.308996938995747
 40
-0.2617993877991494
 40
1.832595714594046
  0
ACDBSECTIONVIEWSTYLE
  5
4EB
102
{ACAD_REACTORS
330
68
102
}
330
68
100
AcDbModelDocViewStyle
 70
     0
  3
Metric50
290
     1
300
Metric50
 90
        0
100
AcDbSectionViewStyle
 70
     0
 71
     0
 90
      102
 71
     1
340
55
 62
   256
 40
5.0
340
0
340
0
 62
   256
 40
5.0
300
I, O, Q, S, X, Z
 40
10.0
 90
        0
 40
2.5
 90
        0
 71
     2
340
5D
 90
       25
 62
   256
340
5D
 90
       50
 62
   256
 40
5.0
 40
2.5
 40
5.0
 71
     3
340
55
 62
   256
 40
5.0
 90
        0
 40
15.0
 90
        1
300
%<\AcVar ViewSectionStartId>%-%<\AcVar ViewSectionEndId>% (%<\AcVar ViewScale \f "%sn">%)
 71
     4
 62
   256
 62
   257
300
ANSI31
 40
1.0
 90
        0
290
     0
290
     0
 90
        6
 40
0.0
 40
1.570796326794896
 40
0.2617993877991494
 40
1.308996938995747
 40
-0.2617993877991494
 40
1.832595714594046
  0
TABLESTYLE
  5
65
102
{ACAD_XDICTIONARY
360
4F5
102
}
102
{ACAD_REACTORS
330
64
102
}
330
64
100
AcDbTableStyle
280
     0
  3
Standard
 70
     0
 71
     3
 40
1.5
 41
1.5
280
     0
281
     0
  7
STANDARD
140
1.25
170
     2
 62
     0
 63
     7
283
     0
 90
      512
 91
        0
  1

274
    -2
284
     1
 64
     0
275
    -2
285
     1
 65
     0
276
    -2
286
     1
 66
     0
277
    -2
287
     1
 67
     0
278
    -2
288
     1
 68
     0
279
    -2
289
     1
 69
     0
  7
STANDARD
140
1.25
170
     5
 62
     0
 63
     7
283
     0
 90
      512
 91
        0
  1

274
    -2
284
     1
 64
     0
275
    -2
285
     1
 65
     0
276
    -2
286
     1
 66
     0
277
    -2
287
     1
 67
     0
278
    -2
288
     1
 68
     0
279
    -2
289
     1
 69
     0
  7
STANDARD
140
1.25
170
     5
 62
     0
 63
     7
283
     0
 90
      512
 91
        0
  1

274
    -2
284
     1
 64
     0
275
    -2
285
     1
 65
     0
276
    -2
286
     1
 66
     0
277
    -2
287
     1
 67
     0
278
    -2
288
     1
 68
     0
279
    -2
289
     1
 69
     0
  0
VISUALSTYLE
  5
2F
102
{ACAD_REACTORS
330
29
102
}
330
29
100
AcDbVisualStyle
  2
2dWireframe
 70
     4
177
     3
291
     0
 70
    58
 90
        0
176
     1
 90
        2
176
     1
 90
        0
176
     1
 90
        0
176
     1
 40
0.6
176
     1
 40
30.0
176
     1
 62
     7
420
 16777215
176
     1
 90
        1
176
     1
 90
        4
176
     1
 62
     7
176
     1
 62
   257
176
     1
 90
        1
176
     1
 90
        1
176
     1
 40
1.0
176
     1
 90
        0
176
     1
 62
   257
176
     1
 40
1.0
176
     1
 90
        1
176
     1
 90
        6
176
     1
 90
        2
176
     1
 62
     7
176
     1
 90
        5
176
     1
 90
        0
176
     1
 90
        0
176
     1
290
     0
176
     1
 90
        1
176
     1
 40
0.0
176
     1
 90
        0
176
     1
290
     1
176
     1
290
     1
176
     1
290
     0
176
     1
290
     0
176
     1
290
     0
176
     1
290
     0
176
     1
290
     0
176
     1
290
     0
176
     1
290
     0
176
     1
 90
       50
176
     1
 40
0.0
176
     1
 40
1.0
176
     1
 90
        0
176
     1
 62
    18
420
        0
176
     1
 90
       50
176
     1
 90
        3
176
     1
 62
     5
420
      255
176
     1
290
     0
176
     1
 90
       50
176
     1
 90
       50
176
     1
 90
       50
176
     1
290
     0
176
     1
 90
       50
176
     1
 62
   256
176
     0
 40
1.0
176
     0
 90
        2
176
     1
  1
strokes_ogs.tif
176
     1
290
     0
176
     1
 40
1.0
176
     1
 40
1.0
176
     1
  0
VISUALSTYLE
  5
2E
102
{ACAD_REACTORS
330
29
102
}
330
29
100
AcDbVisualStyle
  2
Basic
 70
     7
177
     3
291
     1
 70
    58
 90
        1
176
     1
 90
        0
176
     1
 90
        1
176
     1
 90
        0
176
     1
 40
0.6
176
     1
 40
30.0
176
     1
 62
     7
420
 16777215
176
     1
 90
        0
176
     1
 90
        4
176
     1
 62
     7
176
     1
 62
   257
176
     1
 90
        1
176
     1
 90
        1
176
     1
 40
1.0
176
     1
 90
        8
176
     1
 62
     7
176
     1
 40
1.0
176
     1
 90
        1
176
     1
 90
        6
176
     1
 90
        2
176
     1
 62
     7
176
     1
 90
        5
176
     1
 90
        0
176
     1
 90
        0
176
     1
290
     0
176
     1
 90
        1
176
     1
 40
0.0
176
     1
 90
        0
176
     1
290
     0
176
     1
290
     1
176
     1
290
     1
176
     1
290
     0
176
     1
290
     0
176
     1
290
     0
176
     1
290
     0
176
     1
290
     0
176
     1
290
     0
176
     1
 90
       50
176
     1
 40
0.0
176
     1
 40
1.0
176
     1
 90
        0
176
     1
 62
    18
420
        0
176
     1
 90
       50
176
     1
 90
        3
176
     1
 62
     5
420
      255
176
     1
290
     0
176
     1
 90
       50
176
     1
 90
       50
176
     1
 90
       50
176
     1
290
     0
176
     1
 90
       50
176
     1
 62
   256
176
     0
 40
1.0
176
     0
 90
        2
176
     1
  1
strokes_ogs.tif
176
     1
290
     0
176
     1
 40
1.0
176
     1
 40
1.0
176
     1
  0
VISUALSTYLE
  5
35
102
{ACAD_REACTORS
330
29
102
}
330
29
100
AcDbVisualStyle
  2
Brighten
 70
    12
177
     3
291
     1
 70
    58
 90
        2
176
     1
 90
        2
176
     1
 90
        0
176
     1
 90
        0
176
     1
 40
0.6
176
     1
 40
30.0
176
     1
 62
     7
420
 16777215
176
     1
 90
        1
176
     1
 90
        4
176
     1
 62
     7
176
     1
 62
   257
176
     1
 90
        1
176
     1
 90
        1
176
     1
 40
1.0
176
     1
 90
        8
176
     1
 62
     7
176
     1
 40
1.0
176
     1
 90
        1
176
     1
 90
        6
176
     1
 90
        2
176
     1
 62
     7
176
     1
 90
        5
176
     1
 90
        0
176
     1
 90
        0
176
     1
290
     0
176
     1
 90
        1
176
     1
 40
50.0
176
     1
 90
        0
176
     1
290
     0
176
     1
290
     1
176
     1
290
     1
176
     1
290
     0
176
     1
290
     0
176
     1
290
     0
176
     1
290
     0
176
     1
290
     0
176
     1
290
     0
176
     1
 90
       50
176
     1
 40
0.0
176
     1
 40
1.0
176
     1
 90
        0
176
     1
 62
    18
420
        0
176
     1
 90
       50
176
     1
 90
        3
176
     1
 62
     5
420
      255
176
     1
290
     0
176
     1
 90
       50
176
     1
 90
       50
176
     1
 90
       50
176
     1
290
     0
176
     1
 90
       50
176
     1
 62
   256
176
     0
 40
1.0
176
     0
 90
        2
176
     1
  1
strokes_ogs.tif
176
     1
290
     0
176
     1
 40
1.0
176
     1
 40
1.0
176
     1
  0
VISUALSTYLE
  5
39
102
{ACAD_REACTORS
330
29
102
}
330
29
100
AcDbVisualStyle
  2
ColorChange
 70
    16
177
     3
291
     1
 70
    58
 90
        2
176
     1
 90
        2
176
     1
 90
        3
176
     1
 90
        0
176
     1
 40
0.6
176
     1
 40
30.0
176
     1
 62
     8
420
  8421504
176
     1
 90
        1
176
     1
 90
        4
176
     1
 62
     7
176
     1
 62
   257
176
     1
 90
        1
176
     1
 90
        1
176
     1
 40
1.0
176
     1
 90
        8
176
     1
 62
     8
420
  8421504
176
     1
 40
1.0
176
     1
 90
        1
176
     1
 90
        6
176
     1
 90
        2
176
     1
 62
     7
176
     1
 90
        5
176
     1
 90
        0
176
     1
 90
        0
176
     1
290
     0
176
     1
 90
        1
176
     1
 40
0.0
176
     1
 90
        0
176
     1
290
     0
176
     1
290
     1
176
     1
290
     1
176
     1
290
     0
176
     1
290
     0
176
     1
290
     0
176
     1
290
     0
176
     1
290
     0
176
     1
290
     0
176
     1
 90
       50
176
     1
 40
0.0
176
     1
 40
1.0
176
     1
 90
        0
176
     1
 62
    18
420
        0
176
     1
 90
       50
176
     1
 90
        3
176
     1
 62
     5
420
      255
176
     1
290
     0
176
     1
 90
       50
176
     1
 90
       50
176
     1
 90
       50
176
     1
290
     0
176
     1
 90
       50
176
     1
 62
   256
176
     0
 40
1.0
176
     0
 90
        2
176
     1
  1
strokes_ogs.tif
176
     1
290
     0
176
     1
 40
1.0
176
     1
 40
1.0
176
     1
  0
VISUALSTYLE
  5
32
102
{ACAD_REACTORS
330
29
102
}
330
29
100
AcDbVisualStyle
  2
Conceptual
 70
     9
177
     3
291
     0
 70
    58
 90
        3
176
     1
 90
        2
176
     1
 90
        0
176
     1
 90
        0
176
     1
 40
0.6
176
     1
 40
30.0
176
     1
 62
     7
420
 16777215
176
     1
 90
        2
176
     1
 90
        2
176
     1
 62
     7
176
     1
 62
   257
176
     1
 90
        1
176
     1
 90
        1
176
     1
 40
179.0
176
     1
 90
        8
176
     1
 62
     7
176
     1
 40
1.0
176
     1
 90
        1
176
     1
 90
        6
176
     1
 90
        2
176
     1
 62
     7
176
     1
 90
        3
176
     1
 90
        0
176
     1
 90
        0
176
     1
290
     0
176
     1
 90
        1
176
     1
 40
0.0
176
     1
 90
        0
176
     1
290
     0
176
     1
290
     1
176
     1
290
     1
176
     1
290
     0
176
     1
290
     0
176
     1
290
     0
176
     1
290
     0
176
     1
290
     0
176
     1
290
     0
176
     1
 90
       50
176
     1
 40
0.0
176
     1
 40
1.0
176
     1
 90
        0
176
     1
 62
    18
420
        0
176
     1
 90
       50
176
     1
 90
        3
176
     1
 62
     5
420
      255
176
     1
290
     0
176
     1
 90
       50
176
     1
 90
       50
176
     1
 90
       50
176
     1
290
     0
176
     1
 90
       50
176
     1
 62
   256
176
     0
 40
1.0
176
     0
 90
        2
176
     1
  1
strokes_ogs.tif
176
     1
290
     0
176
     1
 40
1.0
176
     1
 40
1.0
176
     1
  0
VISUALSTYLE
  5
34
102
{ACAD_REACTORS
330
29
102
}
330
29
100
AcDbVisualStyle
  2
Dim
 70
    11
177
     3
291
     1
 70
    58
 90
        2
176
     1
 90
        2
176
     1
 90
        0
176
     1
 90
        0
176
     1
 40
0.6
176
     1
 40
30.0
176
     1
 62
     7
420
 16777215
176
     1
 90
        1
176
     1
 90
        4
176
     1
 62
     7
176
     1
 62
   257
176
     1
 90
        1
176
     1
 90
        1
176
     1
 40
1.0
176
     1
 90
        8
176
     1
 62
     7
176
     1
 40
1.0
176
     1
 90
        1
176
     1
 90
        6
176
     1
 90
        2
176
     1
 62
     7
176
     1
 90
        5
176
     1
 90
        0
176
     1
 90
        0
176
     1
290
     0
176
     1
 90
        1
176
     1
 40
-50.0
176
     1
 90
        0
176
     1
290
     0
176
     1
290
     1
176
     1
290
     1
176
     1
290
     0
176
     1
290
     0
176
     1
290
     0
176
     1
290
     0
176
     1
290
     0
176
     1
290
     0
176
     1
 90
       50
176
     1
 40
0.0
176
     1
 40
1.0
176
     1
 90
        0
176
     1
 62
    18
420
        0
176
     1
 90
       50
176
     1
 90
        3
176
     1
 62
     5
420
      255
176
     1
290
     0
176
     1
 90
       50
176
     1
 90
       50
176
     1
 90
       50
176
     1
290
     0
176
     1
 90
       50
176
     1
 62
   256
176
     0
 40
1.0
176
     0
 90
        2
176
     1
  1
strokes_ogs.tif
176
     1
290
     0
176
     1
 40
1.0
176
     1
 40
1.0
176
     1
  0
VISUALSTYLE
  5
41
102
{ACAD_REACTORS
330
29
102
}
330
29
100
AcDbVisualStyle
  2
EdgeColorOff
 70
    22
177
     3
291
     1
 70
    58
 90
        2
176
     0
 90
        2
176
     0
 90
        0
176
     0
 90
        0
176
     0
 40
0.6
176
     0
 40
30.0
176
     0
 62
     7
420
 16777215
176
     0
 90
        1
176
     0
 90
        4
176
     0
 62
     7
176
     0
 62
   257
176
     0
 90
        1
176
     0
 90
        1
176
     0
 40
1.0
176
     0
 90
        8
176
     2
 62
     7
176
     0
 40
1.0
176
     0
 90
        1
176
     0
 90
        6
176
     0
 90
        2
176
     0
 62
     7
176
     0
 90
        5
176
     0
 90
        0
176
     0
 90
        0
176
     0
290
     0
176
     0
 90
        1
176
     0
 40
0.0
176
     0
 90
        0
176
     0
290
     0
176
     0
290
     1
176
     0
290
     1
176
     0
290
     0
176
     0
290
     0
176
     0
290
     0
176
     0
290
     0
176
     0
290
     0
176
     0
290
     0
176
     0
 90
       50
176
     0
 40
0.0
176
     0
 40
1.0
176
     0
 90
        0
176
     0
 62
    18
420
        0
176
     0
 90
       50
176
     0
 90
        3
176
     0
 62
     5
420
      255
176
     0
290
     0
176
     0
 90
       50
176
     0
 90
       50
176
     0
 90
       50
176
     0
290
     0
176
     0
 90
       50
176
     0
 62
   256
176
     0
 40
1.0
176
     0
 90
        2
176
     0
  1
strokes_ogs.tif
176
     0
290
     0
176
     0
 40
1.0
176
     0
 40
1.0
176
     0
  0
VISUALSTYLE
  5
38
102
{ACAD_REACTORS
330
29
102
}
330
29
100
AcDbVisualStyle
  2
Facepattern
 70
    15
177
     3
291
     1
 70
    58
 90
        2
176
     1
 90
        2
176
     1
 90
        0
176
     1
 90
        0
176
     1
 40
0.6
176
     1
 40
30.0
176
     1
 62
     7
420
 16777215
176
     1
 90
        1
176
     1
 90
        4
176
     1
 62
     7
176
     1
 62
   257
176
     1
 90
        1
176
     1
 90
        1
176
     1
 40
1.0
176
     1
 90
        8
176
     1
 62
     7
176
     1
 40
1.0
176
     1
 90
        1
176
     1
 90
        6
176
     1
 90
        2
176
     1
 62
     7
176
     1
 90
        5
176
     1
 90
        0
176
     1
 90
        0
176
     1
290
     0
176
     1
 90
        1
176
     1
 40
0.0
176
     1
 90
        0
176
     1
290
     0
176
     1
290
     1
176
     1
290
     1
176
     1
290
     0
176
     1
290
     0
176
     1
290
     0
176
     1
290
     0
176
     1
290
     0
176
     1
290
     0
176
     1
 90
       50
176
     1
 40
0.0
176
     1
 40
1.0
176
     1
 90
        0
176
     1
 62
    18
420
        0
176
     1
 90
       50
176
     1
 90
        3
176
     1
 62
     5
420
      255
176
     1
290
     0
176
     1
 90
       50
176
     1
 90
       50
176
     1
 90
       50
176
     1
290
     0
176
     1
 90
       50
176
     1
 62
   256
176
     0
 40
1.0
176
     0
 90
        2
176
     1
  1
strokes_ogs.tif
176
     1
290
     0
176
     1
 40
1.0
176
     1
 40
1.0
176
     1
  0
VISUALSTYLE
  5
2A
102
{ACAD_REACTORS
330
29
102
}
330
29
100
AcDbVisualStyle
  2
Flat
 70
     0
177
     3
291
     1
 70
    58
 90
        2
176
     1
 90
        1
176
     1
 90
        1
176
     1
 90
        2
176
     1
 40
0.6
176
     1
 40
30.0
176
     1
 62
     7
420
 16777215
176
     1
 90
        0
176
     1
 90
        0
176
     1
 62
     7
176
     1
 62
   257
176
     1
 90
        1
176
     1
 90
        1
176
     1
 40
1.0
176
     1
 90
        8
176
     1
 62
     7
176
     1
 40
1.0
176
     1
 90
        1
176
     1
 90
        6
176
     1
 90
        2
176
     1
 62
     7
176
     1
 90
        5
176
     1
 90
        0
176
     1
 90
        0
176
     1
290
     0
176
     1
 90
       13
176
     1
 40
0.0
176
     1
 90
        0
176
     1
290
     0
176
     1
290
     1
176
     1
290
     1
176
     1
290
     0
176
     1
290
     0
176
     1
290
     0
176
     1
290
     0
176
     1
290
     0
176
     1
290
     0
176
     1
 90
       50
176
     1
 40
0.0
176
     1
 40
1.0
176
     1
 90
        0
176
     1
 62
    18
420
        0
176
     1
 90
       50
176
     1
 90
        3
176
     1
 62
     5
420
      255
176
     1
290
     0
176
     1
 90
       50
176
     1
 90
       50
176
     1
 90
       50
176
     1
290
     0
176
     1
 90
       50
176
     1
 62
   256
176
     0
 40
1.0
176
     0
 90
        2
176
     1
  1
strokes_ogs.tif
176
     1
290
     0
176
     1
 40
1.0
176
     1
 40
1.0
176
     1
  0
VISUALSTYLE
  5
2B
102
{ACAD_REACTORS
330
29
102
}
330
29
100
AcDbVisualStyle
  2
FlatWithEdges
 70
     1
177
     3
291
     1
 70
    58
 90
        2
176
     1
 90
        1
176
     1
 90
        1
176
     1
 90
        2
176
     1
 40
0.6
176
     1
 40
30.0
176
     1
 62
     7
420
 16777215
176
     1
 90
        1
176
     1
 90
        0
176
     1
 62
     7
176
     1
 62
   257
176
     1
 90
        1
176
     1
 90
        1
176
     1
 40
1.0
176
     1
 90
        0
176
     1
 62
   257
176
     1
 40
1.0
176
     1
 90
        1
176
     1
 90
        6
176
     1
 90
        2
176
     1
 62
     7
176
     1
 90
        5
176
     1
 90
        0
176
     1
 90
        0
176
     1
290
     0
176
     1
 90
       13
176
     1
 40
0.0
176
     1
 90
        0
176
     1
290
     0
176
     1
290
     1
176
     1
290
     1
176
     1
290
     0
176
     1
290
     0
176
     1
290
     0
176
     1
290
     0
176
     1
290
     0
176
     1
290
     0
176
     1
 90
       50
176
     1
 40
0.0
176
     1
 40
1.0
176
     1
 90
        0
176
     1
 62
    18
420
        0
176
     1
 90
       50
176
     1
 90
        3
176
     1
 62
     5
420
      255
176
     1
290
     0
176
     1
 90
       50
176
     1
 90
       50
176
     1
 90
       50
176
     1
290
     0
176
     1
 90
       50
176
     1
 62
   256
176
     0
 40
1.0
176
     0
 90
        2
176
     1
  1
strokes_ogs.tif
176
     1
290
     0
176
     1
 40
1.0
176
     1
 40
1.0
176
     1
  0
VISUALSTYLE
  5
2C
102
{ACAD_REACTORS
330
29
102
}
330
29
100
AcDbVisualStyle
  2
Gouraud
 70
     2
177
     3
291
     1
 70
    58
 90
        2
176
     1
 90
        2
176
     1
 90
        1
176
     1
 90
        2
176
     1
 40
0.6
176
     1
 40
30.0
176
     1
 62
     7
420
 16777215
176
     1
 90
        0
176
     1
 90
        0
176
     1
 62
     7
176
     1
 62
   257
176
     1
 90
        1
176
     1
 90
        1
176
     1
 40
1.0
176
     1
 90
        0
176
     1
 62
     7
176
     1
 40
1.0
176
     1
 90
        1
176
     1
 90
        6
176
     1
 90
        2
176
     1
 62
     7
176
     1
 90
        5
176
     1
 90
        0
176
     1
 90
        0
176
     1
290
     0
176
     1
 90
       13
176
     1
 40
0.0
176
     1
 90
        0
176
     1
290
     0
176
     1
290
     1
176
     1
290
     1
176
     1
290
     0
176
     1
290
     0
176
     1
290
     0
176
     1
290
     0
176
     1
290
     0
176
     1
290
     0
176
     1
 90
       50
176
     1
 40
0.0
176
     1
 40
1.0
176
     1
 90
        0
176
     1
 62
    18
420
        0
176
     1
 90
       50
176
     1
 90
        3
176
     1
 62
     5
420
      255
176
     1
290
     0
176
     1
 90
       50
176
     1
 90
       50
176
     1
 90
       50
176
     1
290
     0
176
     1
 90
       50
176
     1
 62
   256
176
     0
 40
1.0
176
     0
 90
        2
176
     1
  1
strokes_ogs.tif
176
     1
290
     0
176
     1
 40
1.0
176
     1
 40
1.0
176
     1
  0
VISUALSTYLE
  5
2D
102
{ACAD_REACTORS
330
29
102
}
330
29
100
AcDbVisualStyle
  2
GouraudWithEdges
 70
     3
177
     3
291
     1
 70
    58
 90
        2
176
     1
 90
        2
176
     1
 90
        1
176
     1
 90
        2
176
     1
 40
0.6
176
     1
 40
30.0
176
     1
 62
     7
420
 16777215
176
     1
 90
        1
176
     1
 90
        0
176
     1
 62
     7
176
     1
 62
   257
176
     1
 90
        1
176
     1
 90
        1
176
     1
 40
1.0
176
     1
 90
        0
176
     1
 62
   257
176
     1
 40
1.0
176
     1
 90
        1
176
     1
 90
        6
176
     1
 90
        2
176
     1
 62
     7
176
     1
 90
        5
176
     1
 90
        0
176
     1
 90
        0
176
     1
290
     0
176
     1
 90
       13
176
     1
 40
0.0
176
     1
 90
        0
176
     1
290
     0
176
     1
290
     1
176
     1
290
     1
176
     1
290
     0
176
     1
290
     0
176
     1
290
     0
176
     1
290
     0
176
     1
290
     0
176
     1
290
     0
176
     1
 90
       50
176
     1
 40
0.0
176
     1
 40
1.0
176
     1
 90
        0
176
     1
 62
    18
420
        0
176
     1
 90
       50
176
     1
 90
        3
176
     1
 62
     5
420
      255
176
     1
290
     0
176
     1
 90
       50
176
     1
 90
       50
176
     1
 90
       50
176
     1
290
     0
176
     1
 90
       50
176
     1
 62
   256
176
     0
 40
1.0
176
     0
 90
        2
176
     1
  1
strokes_ogs.tif
176
     1
290
     0
176
     1
 40
1.0
176
     1
 40
1.0
176
     1
  0
VISUALSTYLE
  5
31
102
{ACAD_REACTORS
330
29
102
}
330
29
100
AcDbVisualStyle
  2
Hidden
 70
     6
177
     3
291
     0
 70
    58
 90
        1
176
     1
 90
        2
176
     1
 90
        2
176
     1
 90
        0
176
     1
 40
0.6
176
     1
 40
30.0
176
     1
 62
     7
420
 16777215
176
     1
 90
        2
176
     1
 90
        2
176
     1
 62
     7
176
     1
 62
   257
176
     1
 90
        2
176
     1
 90
        1
176
     1
 40
40.0
176
     1
 90
        0
176
     1
 62
   257
176
     1
 40
1.0
176
     1
 90
        1
176
     1
 90
        6
176
     1
 90
        2
176
     1
 62
     7
176
     1
 90
        3
176
     1
 90
        0
176
     1
 90
        0
176
     1
290
     0
176
     1
 90
        1
176
     1
 40
0.0
176
     1
 90
        0
176
     1
290
     0
176
     1
290
     1
176
     1
290
     1
176
     1
290
     0
176
     1
290
     0
176
     1
290
     0
176
     1
290
     0
176
     1
290
     0
176
     1
290
     0
176
     1
 90
       50
176
     1
 40
0.0
176
     1
 40
1.0
176
     1
 90
        0
176
     1
 62
    18
420
        0
176
     1
 90
       50
176
     1
 90
        3
176
     1
 62
     5
420
      255
176
     1
290
     0
176
     1
 90
       50
176
     1
 90
       50
176
     1
 90
       50
176
     1
290
     0
176
     1
 90
       50
176
     1
 62
   256
176
     0
 40
1.0
176
     0
 90
        2
176
     1
  1
strokes_ogs.tif
176
     1
290
     0
176
     1
 40
1.0
176
     1
 40
1.0
176
     1
  0
VISUALSTYLE
  5
3F
102
{ACAD_REACTORS
330
29
102
}
330
29
100
AcDbVisualStyle
  2
JitterOff
 70
    20
177
     3
291
     1
 70
    58
 90
        2
176
     0
 90
        2
176
     0
 90
        0
176
     0
 90
        0
176
     0
 40
0.6
176
     0
 40
30.0
176
     0
 62
     7
420
 16777215
176
     0
 90
        1
176
     0
 90
        4
176
     0
 62
     7
176
     0
 62
   257
176
     0
 90
        1
176
     0
 90
        1
176
     0
 40
1.0
176
     0
 90
       10
176
     2
 62
     7
176
     0
 40
1.0
176
     0
 90
        1
176
     0
 90
        6
176
     0
 90
        2
176
     0
 62
     7
176
     0
 90
        5
176
     0
 90
        0
176
     0
 90
        0
176
     0
290
     0
176
     0
 90
        1
176
     0
 40
0.0
176
     0
 90
        0
176
     0
290
     0
176
     0
290
     1
176
     0
290
     1
176
     0
290
     0
176
     0
290
     0
176
     0
290
     0
176
     0
290
     0
176
     0
290
     0
176
     0
290
     0
176
     0
 90
       50
176
     0
 40
0.0
176
     0
 40
1.0
176
     0
 90
        0
176
     0
 62
    18
420
        0
176
     0
 90
       50
176
     0
 90
        3
176
     0
 62
     5
420
      255
176
     0
290
     0
176
     0
 90
       50
176
     0
 90
       50
176
     0
 90
       50
176
     0
290
     0
176
     0
 90
       50
176
     0
 62
   256
176
     0
 40
1.0
176
     0
 90
        2
176
     0
  1
strokes_ogs.tif
176
     0
290
     0
176
     0
 40
1.0
176
     0
 40
1.0
176
     0
  0
VISUALSTYLE
  5
37
102
{ACAD_REACTORS
330
29
102
}
330
29
100
AcDbVisualStyle
  2
Linepattern
 70
    14
177
     3
291
     1
 70
    58
 90
        2
176
     1
 90
        2
176
     1
 90
        0
176
     1
 90
        0
176
     1
 40
0.6
176
     1
 40
30.0
176
     1
 62
     7
420
 16777215
176
     1
 90
        1
176
     1
 90
        4
176
     1
 62
     7
176
     1
 62
   257
176
     1
 90
        7
176
     1
 90
        7
176
     1
 40
1.0
176
     1
 90
        8
176
     1
 62
     7
176
     1
 40
1.0
176
     1
 90
        1
176
     1
 90
        6
176
     1
 90
        2
176
     1
 62
     7
176
     1
 90
        5
176
     1
 90
        0
176
     1
 90
        0
176
     1
290
     0
176
     1
 90
        1
176
     1
 40
0.0
176
     1
 90
        0
176
     1
290
     0
176
     1
290
     1
176
     1
290
     1
176
     1
290
     0
176
     1
290
     0
176
     1
290
     0
176
     1
290
     0
176
     1
290
     0
176
     1
290
     0
176
     1
 90
       50
176
     1
 40
0.0
176
     1
 40
1.0
176
     1
 90
        0
176
     1
 62
    18
420
        0
176
     1
 90
       50
176
     1
 90
        3
176
     1
 62
     5
420
      255
176
     1
290
     0
176
     1
 90
       50
176
     1
 90
       50
176
     1
 90
       50
176
     1
290
     0
176
     1
 90
       50
176
     1
 62
   256
176
     0
 40
1.0
176
     0
 90
        2
176
     1
  1
strokes_ogs.tif
176
     1
290
     0
176
     1
 40
1.0
176
     1
 40
1.0
176
     1
  0
VISUALSTYLE
  5
40
102
{ACAD_REACTORS
330
29
102
}
330
29
100
AcDbVisualStyle
  2
OverhangOff
 70
    21
177
     3
291
     1
 70
    58
 90
        2
176
     0
 90
        2
176
     0
 90
        0
176
     0
 90
        0
176
     0
 40
0.6
176
     0
 40
30.0
176
     0
 62
     7
420
 16777215
176
     0
 90
        1
176
     0
 90
        4
176
     0
 62
     7
176
     0
 62
   257
176
     0
 90
        1
176
     0
 90
        1
176
     0
 40
1.0
176
     0
 90
        9
176
     2
 62
     7
176
     0
 40
1.0
176
     0
 90
        1
176
     0
 90
        6
176
     0
 90
        2
176
     0
 62
     7
176
     0
 90
        5
176
     0
 90
        0
176
     0
 90
        0
176
     0
290
     0
176
     0
 90
        1
176
     0
 40
0.0
176
     0
 90
        0
176
     0
290
     0
176
     0
290
     1
176
     0
290
     1
176
     0
290
     0
176
     0
290
     0
176
     0
290
     0
176
     0
290
     0
176
     0
290
     0
176
     0
290
     0
176
     0
 90
       50
176
     0
 40
0.0
176
     0
 40
1.0
176
     0
 90
        0
176
     0
 62
    18
420
        0
176
     0
 90
       50
176
     0
 90
        3
176
     0
 62
     5
420
      255
176
     0
290
     0
176
     0
 90
       50
176
     0
 90
       50
176
     0
 90
       50
176
     0
290
     0
176
     0
 90
       50
176
     0
 62
   256
176
     0
 40
1.0
176
     0
 90
        2
176
     0
  1
strokes_ogs.tif
176
     0
290
     0
176
     0
 40
1.0
176
     0
 40
1.0
176
     0
  0
VISUALSTYLE
  5
33
102
{ACAD_REACTORS
330
29
102
}
330
29
100
AcDbVisualStyle
  2
Realistic
 70
     8
177
     3
291
     0
 70
    58
 90
        2
176
     1
 90
        3
176
     1
 90
        0
176
     1
 90
        2
176
     1
 40
0.6
176
     1
 40
30.0
176
     1
 62
     7
420
 16777215
176
     1
 90
        0
176
     1
 90
        0
176
     1
 62
     7
176
     1
 62
   257
176
     1
 90
        1
176
     1
 90
        1
176
     1
 40
1.0
176
     1
 90
        8
176
     1
 62
   257
176
     1
 40
1.0
176
     1
 90
        1
176
     1
 90
        6
176
     1
 90
        2
176
     1
 62
     7
176
     1
 90
        3
176
     1
 90
        0
176
     1
 90
        0
176
     1
290
     0
176
     1
 90
       13
176
     1
 40
0.0
176
     1
 90
        0
176
     1
290
     0
176
     1
290
     1
176
     1
290
     1
176
     1
290
     0
176
     1
290
     0
176
     1
290
     0
176
     1
290
     0
176
     1
290
     0
176
     1
290
     0
176
     1
 90
       50
176
     1
 40
0.0
176
     1
 40
1.0
176
     1
 90
        0
176
     1
 62
    18
420
        0
176
     1
 90
       50
176
     1
 90
        3
176
     1
 62
     5
420
      255
176
     1
290
     0
176
     1
 90
       50
176
     1
 90
       50
176
     1
 90
       50
176
     1
290
     0
176
     1
 90
       50
176
     1
 62
   256
176
     0
 40
1.0
176
     0
 90
        2
176
     1
  1
strokes_ogs.tif
176
     1
290
     0
176
     1
 40
1.0
176
     1
 40
1.0
176
     1
  0
VISUALSTYLE
  5
3E
102
{ACAD_REACTORS
330
29
102
}
330
29
100
AcDbVisualStyle
  2
Shaded
 70
    27
177
     3
291
     0
 70
    58
 90
        2
176
     1
 90
        2
176
     1
 90
        1
176
     1
 90
        2
176
     1
 40
0.6
176
     1
 40
30.0
176
     1
 62
     7
420
 16777215
176
     1
 90
        0
176
     1
 90
        4
176
     1
 62
     7
176
     1
 62
   257
176
     1
 90
        1
176
     1
 90
        1
176
     1
 40
1.0
176
     1
 90
        8
176
     1
 62
   257
176
     1
 40
1.0
176
     1
 90
        1
176
     1
 90
        6
176
     1
 90
        2
176
     1
 62
     8
420
  7895160
176
     1
 90
        3
176
     1
 90
        0
176
     1
 90
        0
176
     1
290
     0
176
     1
 90
        5
176
     1
 40
0.0
176
     1
 90
        0
176
     1
290
     0
176
     1
290
     1
176
     1
290
     1
176
     1
290
     0
176
     1
290
     0
176
     1
290
     0
176
     1
290
     0
176
     1
290
     0
176
     1
290
     0
176
     1
 90
       50
176
     1
 40
0.0
176
     1
 40
1.0
176
     1
 90
        0
176
     1
 62
    18
420
        0
176
     1
 90
       50
176
     1
 90
        3
176
     1
 62
     5
420
      255
176
     1
290
     0
176
     1
 90
       50
176
     1
 90
       50
176
     1
 90
       50
176
     1
290
     0
176
     1
 90
       50
176
     1
 62
   256
176
     0
 40
1.0
176
     0
 90
        2
176
     1
  1
strokes_ogs.tif
176
     1
290
     0
176
     1
 40
1.0
176
     1
 40
1.0
176
     1
  0
VISUALSTYLE
  5
3D
102
{ACAD_REACTORS
330
29
102
}
330
29
100
AcDbVisualStyle
  2
Shaded with edges
 70
    26
177
     3
291
     0
 70
    58
 90
        2
176
     1
 90
        2
176
     1
 90
        1
176
     1
 90
        2
176
     1
 40
0.6
176
     1
 40
30.0
176
     1
 62
     7
420
 16777215
176
     1
 90
        1
176
     1
 90
        2
176
     1
 62
     7
176
     1
 62
   257
176
     1
 90
        2
176
     1
 90
        1
176
     1
 40
1.0
176
     1
 90
        8
176
     1
 62
   257
176
     1
 40
1.0
176
     1
 90
        1
176
     1
 90
        6
176
     1
 90
        2
176
     1
 62
     7
176
     1
 90
        3
176
     1
 90
        0
176
     1
 90
        0
176
     1
290
     0
176
     1
 90
        5
176
     1
 40
0.0
176
     1
 90
        0
176
     1
290
     0
176
     1
290
     1
176
     1
290
     1
176
     1
290
     0
176
     1
290
     0
176
     1
290
     0
176
     1
290
     0
176
     1
290
     0
176
     1
290
     0
176
     1
 90
       50
176
     1
 40
0.0
176
     1
 40
1.0
176
     1
 90
        0
176
     1
 62
    18
420
        0
176
     1
 90
       50
176
     1
 90
        3
176
     1
 62
     5
420
      255
176
     1
290
     0
176
     1
 90
       50
176
     1
 90
       50
176
     1
 90
       50
176
     1
290
     0
176
     1
 90
       50
176
     1
 62
   256
176
     0
 40
1.0
176
     0
 90
        2
176
     1
  1
strokes_ogs.tif
176
     1
290
     0
176
     1
 40
1.0
176
     1
 40
1.0
176
     1
  0
VISUALSTYLE
  5
3A
102
{ACAD_REACTORS
330
29
102
}
330
29
100
AcDbVisualStyle
  2
Shades of Gray
 70
    23
177
     3
291
     0
 70
    58
 90
        2
176
     1
 90
        2
176
     1
 90
        3
176
     1
 90
        0
176
     1
 40
0.6
176
     1
 40
30.0
176
     1
 62
     7
420
 16777215
176
     1
 90
        2
176
     1
 90
        2
176
     1
 62
     7
176
     1
 62
     7
176
     1
 90
        1
176
     1
 90
        1
176
     1
 40
40.0
176
     1
 90
        8
176
     1
 62
     7
176
     1
 40
1.0
176
     1
 90
        1
176
     1
 90
        6
176
     1
 90
        2
176
     1
 62
     7
176
     1
 90
        3
176
     1
 90
        0
176
     1
 90
        0
176
     1
290
     0
176
     1
 90
        1
176
     1
 40
0.0
176
     1
 90
        0
176
     1
290
     0
176
     1
290
     1
176
     1
290
     1
176
     1
290
     0
176
     1
290
     0
176
     1
290
     0
176
     1
290
     0
176
     1
290
     0
176
     1
290
     0
176
     1
 90
       50
176
     1
 40
0.0
176
     1
 40
1.0
176
     1
 90
        0
176
     1
 62
    18
420
        0
176
     1
 90
       50
176
     1
 90
        3
176
     1
 62
     5
420
      255
176
     1
290
     0
176
     1
 90
       50
176
     1
 90
       50
176
     1
 90
       50
176
     1
290
     0
176
     1
 90
       50
176
     1
 62
   256
176
     0
 40
1.0
176
     0
 90
        2
176
     1
  1
strokes_ogs.tif
176
     1
290
     0
176
     1
 40
1.0
176
     1
 40
1.0
176
     1
  0
VISUALSTYLE
  5
3B
102
{ACAD_REACTORS
330
29
102
}
330
29
100
AcDbVisualStyle
  2
Sketchy
 70
    24
177
     3
291
     0
 70
    58
 90
        1
176
     1
 90
        2
176
     1
 90
        2
176
     1
 90
        0
176
     1
 40
0.6
176
     1
 40
30.0
176
     1
 62
     7
420
 16777215
176
     1
 90
        2
176
     1
 90
        2
176
     1
 62
     7
176
     1
 62
     7
176
     1
 90
        1
176
     1
 90
        1
176
     1
 40
40.0
176
     1
 90
       11
176
     1
 62
     7
176
     1
 40
1.0
176
     1
 90
        1
176
     1
 90
        6
176
     1
 90
        2
176
     1
 62
     7
176
     1
 90
        6
176
     1
 90
        0
176
     1
 90
        0
176
     1
290
     0
176
     1
 90
        1
176
     1
 40
0.0
176
     1
 90
        0
176
     1
290
     0
176
     1
290
     1
176
     1
290
     1
176
     1
290
     0
176
     1
290
     0
176
     1
290
     0
176
     1
290
     0
176
     1
290
     0
176
     1
290
     0
176
     1
 90
       50
176
     1
 40
0.0
176
     1
 40
1.0
176
     1
 90
        0
176
     1
 62
    18
420
        0
176
     1
 90
       50
176
     1
 90
        3
176
     1
 62
     5
420
      255
176
     1
290
     0
176
     1
 90
       50
176
     1
 90
       50
176
     1
 90
       50
176
     1
290
     0
176
     1
 90
       50
176
     1
 62
   256
176
     0
 40
1.0
176
     0
 90
        2
176
     1
  1
strokes_ogs.tif
176
     1
290
     0
176
     1
 40
1.0
176
     1
 40
1.0
176
     1
  0
VISUALSTYLE
  5
36
102
{ACAD_REACTORS
330
29
102
}
330
29
100
AcDbVisualStyle
  2
Thicken
 70
    13
177
     3
291
     1
 70
    58
 90
        2
176
     1
 90
        2
176
     1
 90
        0
176
     1
 90
        0
176
     1
 40
0.6
176
     1
 40
30.0
176
     1
 62
     7
420
 16777215
176
     1
 90
        1
176
     1
 90
        4
176
     1
 62
     7
176
     1
 62
   257
176
     1
 90
        1
176
     1
 90
        1
176
     1
 40
1.0
176
     1
 90
       12
176
     1
 62
     7
176
     1
 40
1.0
176
     1
 90
        1
176
     1
 90
        6
176
     1
 90
        2
176
     1
 62
     7
176
     1
 90
        5
176
     1
 90
        0
176
     1
 90
        0
176
     1
290
     0
176
     1
 90
        1
176
     1
 40
0.0
176
     1
 90
        0
176
     1
290
     0
176
     1
290
     1
176
     1
290
     1
176
     1
290
     0
176
     1
290
     0
176
     1
290
     0
176
     1
290
     0
176
     1
290
     0
176
     1
290
     0
176
     1
 90
       50
176
     1
 40
0.0
176
     1
 40
1.0
176
     1
 90
        0
176
     1
 62
    18
420
        0
176
     1
 90
       50
176
     1
 90
        3
176
     1
 62
     5
420
      255
176
     1
290
     0
176
     1
 90
       50
176
     1
 90
       50
176
     1
 90
       50
176
     1
290
     0
176
     1
 90
       50
176
     1
 62
   256
176
     0
 40
1.0
176
     0
 90
        2
176
     1
  1
strokes_ogs.tif
176
     1
290
     0
176
     1
 40
1.0
176
     1
 40
1.0
176
     1
  0
VISUALSTYLE
  5
30
102
{ACAD_REACTORS
330
29
102
}
330
29
100
AcDbVisualStyle
  2
Wireframe
 70
     5
177
     3
291
     0
 70
    58
 90
        0
176
     1
 90
        2
176
     1
 90
        0
176
     1
 90
        0
176
     1
 40
0.6
176
     1
 40
30.0
176
     1
 62
     7
420
 16777215
176
     1
 90
        1
176
     1
 90
        4
176
     1
 62
     7
176
     1
 62
   257
176
     1
 90
        1
176
     1
 90
        1
176
     1
 40
1.0
176
     1
 90
        0
176
     1
 62
   257
176
     1
 40
1.0
176
     1
 90
        1
176
     1
 90
        6
176
     1
 90
        2
176
     1
 62
     7
176
     1
 90
        3
176
     1
 90
        0
176
     1
 90
        0
176
     1
290
     0
176
     1
 90
        1
176
     1
 40
0.0
176
     1
 90
        0
176
     1
290
     0
176
     1
290
     1
176
     1
290
     1
176
     1
290
     0
176
     1
290
     0
176
     1
290
     0
176
     1
290
     0
176
     1
290
     0
176
     1
290
     0
176
     1
 90
       50
176
     1
 40
0.0
176
     1
 40
1.0
176
     1
 90
        0
176
     1
 62
    18
420
        0
176
     1
 90
       50
176
     1
 90
        3
176
     1
 62
     5
420
      255
176
     1
290
     0
176
     1
 90
       50
176
     1
 90
       50
176
     1
 90
       50
176
     1
290
     0
176
     1
 90
       50
176
     1
 62
   256
176
     0
 40
1.0
176
     0
 90
        2
176
     1
  1
strokes_ogs.tif
176
     1
290
     0
176
     1
 40
1.0
176
     1
 40
1.0
176
     1
  0
VISUALSTYLE
  5
3C
102
{ACAD_REACTORS
330
29
102
}
330
29
100
AcDbVisualStyle
  2
X-Ray
 70
    25
177
     3
291
     0
 70
    58
 90
        2
176
     1
 90
        2
176
     1
 90
        1
176
     1
 90
        1
176
     1
 40
0.5
176
     1
 40
30.0
176
     1
 62
     7
420
 16777215
176
     1
 90
        1
176
     1
 90
        0
176
     1
 62
     7
176
     1
 62
   257
176
     1
 90
        1
176
     1
 90
        1
176
     1
 40
1.0
176
     1
 90
        8
176
     1
 62
     7
176
     1
 40
1.0
176
     1
 90
        1
176
     1
 90
        6
176
     1
 90
        2
176
     1
 62
     7
176
     1
 90
        3
176
     1
 90
        0
176
     1
 90
        0
176
     1
290
     0
176
     1
 90
       13
176
     1
 40
0.0
176
     1
 90
        0
176
     1
290
     0
176
     1
290
     1
176
     1
290
     1
176
     1
290
     0
176
     1
290
     0
176
     1
290
     0
176
     1
290
     0
176
     1
290
     0
176
     1
290
     0
176
     1
 90
       50
176
     1
 40
0.0
176
     1
 40
1.0
176
     1
 90
        0
176
     1
 62
    18
420
        0
176
     1
 90
       50
176
     1
 90
        3
176
     1
 62
     5
420
      255
176
     1
290
     0
176
     1
 90
       50
176
     1
 90
       50
176
     1
 90
       50
176
     1
290
     0
176
     1
 90
       50
176
     1
 62
   256
176
     0
 40
1.0
176
     0
 90
        2
176
     1
  1
strokes_ogs.tif
176
     1
290
     0
176
     1
 40
1.0
176
     1
 40
1.0
176
     1
  0
DICTIONARYVAR
  5
4E5
102
{ACAD_REACTORS
330
4DF
102
}
330
4DF
100
DictionaryVariables
280
     0
  1
0
  0
DICTIONARYVAR
  5
4E6
102
{ACAD_REACTORS
330
4DF
102
}
330
4DF
100
DictionaryVariables
280
     0
  1
1:1
  0
DICTIONARYVAR
  5
4E1
102
{ACAD_REACTORS
330
4DF
102
}
330
4DF
100
DictionaryVariables
280
     0
  1
STANDARD
  0
DICTIONARYVAR
  5
4E0
102
{ACAD_REACTORS
330
4DF
102
}
330
4DF
100
DictionaryVariables
280
     0
  1
STANDARD
  0
DICTIONARYVAR
  5
4E2
102
{ACAD_REACTORS
330
4DF
102
}
330
4DF
100
DictionaryVariables
280
     0
  1
Imperial24
  0
DICTIONARYVAR
  5
4E3
102
{ACAD_REACTORS
330
4DF
102
}
330
4DF
100
DictionaryVariables
280
     0
  1
Imperial24
  0
DICTIONARYVAR
  5
4E8
102
{ACAD_REACTORS
330
4DF
102
}
330
4DF
100
DictionaryVariables
280
     0
  1
1
  0
DICTIONARYVAR
  5
4E9
102
{ACAD_REACTORS
330
4DF
102
}
330
4DF
100
DictionaryVariables
280
     0
  1
15
  0
DICTIONARYVAR
  5
4E7
102
{ACAD_REACTORS
330
4DF
102
}
330
4DF
100
DictionaryVariables
280
     0
  1
0
  0
DICTIONARYVAR
  5
4E4
102
{ACAD_REACTORS
330
4DF
102
}
330
4DF
100
DictionaryVariables
280
     0
  1
0
  0
DICTIONARY
  5
1A
330
19
100
AcDbDictionary
280
     1
281
     1
  3
BUMPTILE
360
1C
  3
DIFFUSETILE
360
1B
  3
OPACITYTILE
360
1F
  3
REFLECTIONTILE
360
1E
  3
REFRACTIONTILE
360
20
  3
SPECULARTILE
360
1D
  0
DICTIONARY
  5
12
330
11
100
AcDbDictionary
280
     1
281
     1
  3
BUMPTILE
360
14
  3
DIFFUSETILE
360
13
  3
OPACITYTILE
360
17
  3
REFLECTIONTILE
360
16
  3
REFRACTIONTILE
360
18
  3
SPECULARTILE
360
15
  0
DICTIONARY
  5
22
330
21
100
AcDbDictionary
280
     1
281
     1
  3
BUMPTILE
360
24
  3
DIFFUSETILE
360
23
  3
OPACITYTILE
360
27
  3
REFLECTIONTILE
360
26
  3
REFRACTIONTILE
360
28
  3
SPECULARTILE
360
25
  0
DICTIONARY
  5
4F5
330
65
100
AcDbDictionary
280
     1
281
     1
  3
ACAD_ROUNDTRIP_2008_TABLESTYLE_CELLSTYLEMAP
360
4F6
  0
XRECORD
  5
1C
102
{ACAD_REACTORS
330
1A
102
}
330
1A
100
AcDbXrecord
280
     1
270
     1
271
     1
  0
XRECORD
  5
1B
102
{ACAD_REACTORS
330
1A
102
}
330
1A
100
AcDbXrecord
280
     1
270
     1
271
     1
  0
XRECORD
  5
1F
102
{ACAD_REACTORS
330
1A
102
}
330
1A
100
AcDbXrecord
280
     1
270
     1
271
     1
  0
XRECORD
  5
1E
102
{ACAD_REACTORS
330
1A
102
}
330
1A
100
AcDbXrecord
280
     1
270
     1
271
     1
  0
XRECORD
  5
20
102
{ACAD_REACTORS
330
1A
102
}
330
1A
100
AcDbXrecord
280
     1
270
     1
271
     1
  0
XRECORD
  5
1D
102
{ACAD_REACTORS
330
1A
102
}
330
1A
100
AcDbXrecord
280
     1
270
     1
271
     1
  0
XRECORD
  5
14
102
{ACAD_REACTORS
330
12
102
}
330
12
100
AcDbXrecord
280
     1
270
     1
271
     1
  0
XRECORD
  5
13
102
{ACAD_REACTORS
330
12
102
}
330
12
100
AcDbXrecord
280
     1
270
     1
271
     1
  0
XRECORD
  5
17
102
{ACAD_REACTORS
330
12
102
}
330
12
100
AcDbXrecord
280
     1
270
     1
271
     1
  0
XRECORD
  5
16
102
{ACAD_REACTORS
330
12
102
}
330
12
100
AcDbXrecord
280
     1
270
     1
271
     1
  0
XRECORD
  5
18
102
{ACAD_REACTORS
330
12
102
}
330
12
100
AcDbXrecord
280
     1
270
     1
271
     1
  0
XRECORD
  5
15
102
{ACAD_REACTORS
330
12
102
}
330
12
100
AcDbXrecord
280
     1
270
     1
271
     1
  0
XRECORD
  5
24
102
{ACAD_REACTORS
330
22
102
}
330
22
100
AcDbXrecord
280
     1
270
     1
271
     1
  0
XRECORD
  5
23
102
{ACAD_REACTORS
330
22
102
}
330
22
100
AcDbXrecord
280
     1
270
     1
271
     1
  0
XRECORD
  5
27
102
{ACAD_REACTORS
330
22
102
}
330
22
100
AcDbXrecord
280
     1
270
     1
271
     1
  0
XRECORD
  5
26
102
{ACAD_REACTORS
330
22
102
}
330
22
100
AcDbXrecord
280
     1
270
     1
271
     1
  0
XRECORD
  5
28
102
{ACAD_REACTORS
330
22
102
}
330
22
100
AcDbXrecord
280
     1
270
     1
271
     1
  0
XRECORD
  5
25
102
{ACAD_REACTORS
330
22
102
}
330
22
100
AcDbXrecord
280
     1
270
     1
271
     1
  0
CELLSTYLEMAP
  5
4F6
102
{ACAD_REACTORS
330
4F5
102
}
330
4F5
100
AcDbCellStyleMap
 90
        3
300
CELLSTYLE
  1
TABLEFORMAT_BEGIN
 90
        5
170
     1
 91
        0
 92
    32768
 62
   257
 93
        1
300
CONTENTFORMAT
  1
CONTENTFORMAT_BEGIN
 90
        0
 91
        0
 92
      512
 93
        0
300

 40
0.0
140
1.0
 94
        5
 62
     0
340
55
144
1.25
309
CONTENTFORMAT_END
171
     1
301
MARGIN
  1
CELLMARGIN_BEGIN
 40
1.5
 40
1.5
 40
1.5
 40
1.5
 40
4.5
 40
4.5
309
CELLMARGIN_END
 94
        6
 95
        1
302
GRIDFORMAT
  1
GRIDFORMAT_BEGIN
 90
        0
 91
        1
 62
     0
 92
       -2
340
0
 93
        0
 40
1.125
309
GRIDFORMAT_END
 95
        2
302
GRIDFORMAT
  1
GRIDFORMAT_BEGIN
 90
        0
 91
        1
 62
     0
 92
       -2
340
0
 93
        0
 40
1.125
309
GRIDFORMAT_END
 95
        4
302
GRIDFORMAT
  1
GRIDFORMAT_BEGIN
 90
        0
 91
        1
 62
     0
 92
       -2
340
0
 93
        0
 40
1.125
309
GRIDFORMAT_END
 95
        8
302
GRIDFORMAT
  1
GRIDFORMAT_BEGIN
 90
        0
 91
        1
 62
     0
 92
       -2
340
0
 93
        0
 40
1.125
309
GRIDFORMAT_END
 95
       16
302
GRIDFORMAT
  1
GRIDFORMAT_BEGIN
 90
        0
 91
        1
 62
     0
 92
       -2
340
0
 93
        0
 40
1.125
309
GRIDFORMAT_END
 95
       32
302
GRIDFORMAT
  1
GRIDFORMAT_BEGIN
 90
        0
 91
        1
 62
     0
 92
       -2
340
0
 93
        0
 40
1.125
309
GRIDFORMAT_END
309
TABLEFORMAT_END
  1
CELLSTYLE_BEGIN
 90
        1
 91
        1
300
_TITLE
309
CELLSTYLE_END
300
CELLSTYLE
  1
TABLEFORMAT_BEGIN
 90
        5
170
     1
 91
        0
 92
        0
 62
   257
 93
        1
300
CONTENTFORMAT
  1
CONTENTFORMAT_BEGIN
 90
        0
 91
        0
 92
      512
 93
        0
300

 40
0.0
140
1.0
 94
        5
 62
     0
340
55
144
1.25
309
CONTENTFORMAT_END
171
     1
301
MARGIN
  1
CELLMARGIN_BEGIN
 40
1.5
 40
1.5
 40
1.5
 40
1.5
 40
4.5
 40
4.5
309
CELLMARGIN_END
 94
        6
 95
        1
302
GRIDFORMAT
  1
GRIDFORMAT_BEGIN
 90
        0
 91
        1
 62
     0
 92
       -2
340
0
 93
        0
 40
1.125
309
GRIDFORMAT_END
 95
        2
302
GRIDFORMAT
  1
GRIDFORMAT_BEGIN
 90
        0
 91
        1
 62
     0
 92
       -2
340
0
 93
        0
 40
1.125
309
GRIDFORMAT_END
 95
        4
302
GRIDFORMAT
  1
GRIDFORMAT_BEGIN
 90
        0
 91
        1
 62
     0
 92
       -2
340
0
 93
        0
 40
1.125
309
GRIDFORMAT_END
 95
        8
302
GRIDFORMAT
  1
GRIDFORMAT_BEGIN
 90
        0
 91
        1
 62
     0
 92
       -2
340
0
 93
        0
 40
1.125
309
GRIDFORMAT_END
 95
       16
302
GRIDFORMAT
  1
GRIDFORMAT_BEGIN
 90
        0
 91
        1
 62
     0
 92
       -2
340
0
 93
        0
 40
1.125
309
GRIDFORMAT_END
 95
       32
302
GRIDFORMAT
  1
GRIDFORMAT_BEGIN
 90
        0
 91
        1
 62
     0
 92
       -2
340
0
 93
        0
 40
1.125
309
GRIDFORMAT_END
309
TABLEFORMAT_END
  1
CELLSTYLE_BEGIN
 90
        2
 91
        1
300
_HEADER
309
CELLSTYLE_END
300
CELLSTYLE
  1
TABLEFORMAT_BEGIN
 90
        5
170
     1
 91
        0
 92
        0
 62
   257
 93
        1
300
CONTENTFORMAT
  1
CONTENTFORMAT_BEGIN
 90
        0
 91
        0
 92
      512
 93
        0
300

 40
0.0
140
1.0
 94
        2
 62
     0
340
55
144
1.25
309
CONTENTFORMAT_END
171
     1
301
MARGIN
  1
CELLMARGIN_BEGIN
 40
1.5
 40
1.5
 40
1.5
 40
1.5
 40
4.5
 40
4.5
309
CELLMARGIN_END
 94
        6
 95
        1
302
GRIDFORMAT
  1
GRIDFORMAT_BEGIN
 90
        0
 91
        1
 62
     0
 92
       -2
340
0
 93
        0
 40
1.125
309
GRIDFORMAT_END
 95
        2
302
GRIDFORMAT
  1
GRIDFORMAT_BEGIN
 90
        0
 91
        1
 62
     0
 92
       -2
340
0
 93
        0
 40
1.125
309
GRIDFORMAT_END
 95
        4
302
GRIDFORMAT
  1
GRIDFORMAT_BEGIN
 90
        0
 91
        1
 62
     0
 92
       -2
340
0
 93
        0
 40
1.125
309
GRIDFORMAT_END
 95
        8
302
GRIDFORMAT
  1
GRIDFORMAT_BEGIN
 90
        0
 91
        1
 62
     0
 92
       -2
340
0
 93
        0
 40
1.125
309
GRIDFORMAT_END
 95
       16
302
GRIDFORMAT
  1
GRIDFORMAT_BEGIN
 90
        0
 91
        1
 62
     0
 92
       -2
340
0
 93
        0
 40
1.125
309
GRIDFORMAT_END
 95
       32
302
GRIDFORMAT
  1
GRIDFORMAT_BEGIN
 90
        0
 91
        1
 62
     0
 92
       -2
340
0
 93
        0
 40
1.125
309
GRIDFORMAT_END
309
TABLEFORMAT_END
  1
CELLSTYLE_BEGIN
 90
        3
 91
        2
300
_DATA
309
CELLSTYLE_END
  0
ENDSEC
  0
EOF
