  0
SECTION
  2
HEADER
  9
$ACADVER
  1
AC1032
  9
$ACADMAINTVER
 90
      175
  9
$DWGCODEPAGE
  3
ANSI_932
  9
$LASTSAVEDBY
  1
Kousuke
  9
$REQUIREDVERSIONS
160
                 0
  9
$INSBASE
 10
0.0
 20
0.0
 30
0.0
  9
$EXTMIN
 10
-6.241401228335575
 20
-4.491978581708622
 30
0.0
  9
$EXTMAX
 10
290.6071518780412
 20
207.9033958339542
 30
0.0
  9
$LIMMIN
 10
-11.45832948361817
 20
-9.70374993046575
  9
$LIMMAX
 10
303.6590740877482
 20
213.1151716903917
  9
$ORTHOMODE
 70
     1
  9
$REGENMODE
 70
     1
  9
$FILLMODE
 70
     1
  9
$QTEXTMODE
 70
     0
  9
$MIRRTEXT
 70
     1
  9
$LTSCALE
 40
0.5
  9
$ATTMODE
 70
     1
  9
$TEXTSIZE
 40
4.0
  9
$TRACEWID
 40
1.0
  9
$TEXTSTYLE
  7
STANDARD
  9
$CLAYER
  8
寸法線
  9
$CELTYPE
  6
ByLayer
  9
$CECOLOR
 62
   256
  9
$CELTSCALE
 40
1.0
  9
$DISPSILH
 70
     0
  9
$DIMSCALE
 40
1.0
  9
$DIMASZ
 40
2.5
  9
$DIMEXO
 40
0.625
  9
$DIMDLI
 40
3.75
  9
$DIMRND
 40
0.0
  9
$DIMDLE
 40
0.0
  9
$DIMEXE
 40
1.25
  9
$DIMTP
 40
0.0
  9
$DIMTM
 40
0.0
  9
$DIMTXT
 40
2.5
  9
$DIMCEN
 40
2.5
  9
$DIMTSZ
 40
0.0
  9
$DIMTOL
 70
     0
  9
$DIMLIM
 70
     0
  9
$DIMTIH
 70
     0
  9
$DIMTOH
 70
     0
  9
$DIMSE1
 70
     0
  9
$DIMSE2
 70
     0
  9
$DIMTAD
 70
     1
  9
$DIMZIN
 70
     8
  9
$DIMBLK
  1

  9
$DIMASO
 70
     1
  9
$DIMSHO
 70
     1
  9
$DIMPOST
  1

  9
$DIMAPOST
  1

  9
$DIMALT
 70
     0
  9
$DIMALTD
 70
     4
  9
$DIMALTF
 40
0.0394
  9
$DIMLFAC
 40
1.0
  9
$DIMTOFL
 70
     1
  9
$DIMTVP
 40
0.0
  9
$DIMTIX
 70
     0
  9
$DIMSOXD
 70
     0
  9
$DIMSAH
 70
     1
  9
$DIMBLK1
  1
OPEN
  9
$DIMBLK2
  1
OPEN
  9
$DIMSTYLE
  2
STANDARD_WS
  9
$DIMCLRD
 70
     0
  9
$DIMCLRE
 70
     0
  9
$DIMCLRT
 70
     0
  9
$DIMTFAC
 40
1.0
  9
$DIMGAP
 40
0.625
  9
$DIMJUST
 70
     0
  9
$DIMSD1
 70
     0
  9
$DIMSD2
 70
     0
  9
$DIMTOLJ
 70
     1
  9
$DIMTZIN
 70
     0
  9
$DIMALTZ
 70
     0
  9
$DIMALTTZ
 70
     0
  9
$DIMUPT
 70
     1
  9
$DIMDEC
 70
     1
  9
$DIMTDEC
 70
     1
  9
$DIMALTU
 70
     8
  9
$DIMALTTD
 70
     4
  9
$DIMTXSTY
  7
STANDARD
  9
$DIMAUNIT
 70
     0
  9
$DIMADEC
 70
     0
  9
$DIMALTRND
 40
0.0
  9
$DIMAZIN
 70
     0
  9
$DIMDSEP
 70
    46
  9
$DIMATFIT
 70
     3
  9
$DIMFRAC
 70
     0
  9
$DIMLDRBLK
  1

  9
$DIMLUNIT
 70
     2
  9
$DIMLWD
 70
    -2
  9
$DIMLWE
 70
    -2
  9
$DIMTMOVE
 70
     1
  9
$DIMFXL
 40
1.0
  9
$DIMFXLON
 70
     0
  9
$DIMJOGANG
 40
0.7853981633974483
  9
$DIMTFILL
 70
     0
  9
$DIMTFILLCLR
 70
     0
  9
$DIMARCSYM
 70
     0
  9
$DIMLTYPE
  6

  9
$DIMLTEX1
  6

  9
$DIMLTEX2
  6

  9
$DIMTXTDIRECTION
 70
     0
  9
$LUNITS
 70
     2
  9
$LUPREC
 70
     4
  9
$SKETCHINC
 40
1.0
  9
$FILLETRAD
 40
6.5
  9
$AUNITS
 70
     0
  9
$AUPREC
 70
     0
  9
$MENU
  1
.
  9
$ELEVATION
 40
0.0
  9
$PELEVATION
 40
0.0
  9
$THICKNESS
 40
0.0
  9
$LIMCHECK
 70
     0
  9
$CHAMFERA
 40
0.5
  9
$CHAMFERB
 40
0.5
  9
$CHAMFERC
 40
14.006734006734
  9
$CHAMFERD
 40
0.0
  9
$SKPOLY
 70
     0
  9
$TDCREATE
 40
2459171.697812500
  9
$TDUCREATE
 40
2459171.322812500
  9
$TDUPDATE
 40
2459171.698206019
  9
$TDUUPDATE
 40
2459171.323206019
  9
$TDINDWG
 40
0.0003703704
  9
$TDUSRTIMER
 40
0.0003703704
  9
$USRTIMER
 70
     1
  9
$ANGBASE
 50
0.0
  9
$ANGDIR
 70
     0
  9
$PDMODE
 70
     0
  9
$PDSIZE
 40
0.0
  9
$PLINEWID
 40
0.0
  9
$SPLFRAME
 70
     0
  9
$SPLINETYPE
 70
     6
  9
$SPLINESEGS
 70
     8
  9
$HANDSEED
  5
2F3
  9
$SURFTAB1
 70
     6
  9
$SURFTAB2
 70
     6
  9
$SURFTYPE
 70
     6
  9
$SURFU
 70
     6
  9
$SURFV
 70
     6
  9
$UCSBASE
  2

  9
$UCSNAME
  2

  9
$UCSORG
 10
0.0
 20
0.0
 30
0.0
  9
$UCSXDIR
 10
1.0
 20
0.0
 30
0.0
  9
$UCSYDIR
 10
0.0
 20
1.0
 30
0.0
  9
$UCSORTHOREF
  2

  9
$UCSORTHOVIEW
 70
     0
  9
$UCSORGTOP
 10
0.0
 20
0.0
 30
0.0
  9
$UCSORGBOTTOM
 10
0.0
 20
0.0
 30
0.0
  9
$UCSORGLEFT
 10
0.0
 20
0.0
 30
0.0
  9
$UCSORGRIGHT
 10
0.0
 20
0.0
 30
0.0
  9
$UCSORGFRONT
 10
0.0
 20
0.0
 30
0.0
  9
$UCSORGBACK
 10
0.0
 20
0.0
 30
0.0
  9
$PUCSBASE
  2

  9
$PUCSNAME
  2

  9
$PUCSORG
 10
0.0
 20
0.0
 30
0.0
  9
$PUCSXDIR
 10
1.0
 20
0.0
 30
0.0
  9
$PUCSYDIR
 10
0.0
 20
1.0
 30
0.0
  9
$PUCSORTHOREF
  2

  9
$PUCSORTHOVIEW
 70
     0
  9
$PUCSORGTOP
 10
0.0
 20
0.0
 30
0.0
  9
$PUCSORGBOTTOM
 10
0.0
 20
0.0
 30
0.0
  9
$PUCSORGLEFT
 10
0.0
 20
0.0
 30
0.0
  9
$PUCSORGRIGHT
 10
0.0
 20
0.0
 30
0.0
  9
$PUCSORGFRONT
 10
0.0
 20
0.0
 30
0.0
  9
$PUCSORGBACK
 10
0.0
 20
0.0
 30
0.0
  9
$USERI1
 70
     0
  9
$USERI2
 70
     0
  9
$USERI3
 70
     0
  9
$USERI4
 70
     0
  9
$USERI5
 70
     0
  9
$USERR1
 40
0.0
  9
$USERR2
 40
0.0
  9
$USERR3
 40
0.0
  9
$USERR4
 40
0.0
  9
$USERR5
 40
0.0
  9
$WORLDVIEW
 70
     1
  9
$SHADEDGE
 70
     3
  9
$SHADEDIF
 70
    70
  9
$TILEMODE
 70
     1
  9
$MAXACTVP
 70
    48
  9
$PINSBASE
 10
0.0
 20
0.0
 30
0.0
  9
$PLIMCHECK
 70
     0
  9
$PEXTMIN
 10
1.000000000000000E+20
 20
1.000000000000000E+20
 30
1.000000000000000E+20
  9
$PEXTMAX
 10
-1.000000000000000E+20
 20
-1.000000000000000E+20
 30
-1.000000000000000E+20
  9
$PLIMMIN
 10
0.0
 20
0.0
  9
$PLIMMAX
 10
12.0
 20
9.0
  9
$UNITMODE
 70
     0
  9
$VISRETAIN
 70
     1
  9
$PLINEGEN
 70
     0
  9
$PSLTSCALE
 70
     0
  9
$TREEDEPTH
 70
  3020
  9
$CMLSTYLE
  2
Standard
  9
$CMLJUST
 70
     0
  9
$CMLSCALE
 40
20.0
  9
$PROXYGRAPHICS
 70
     1
  9
$MEASUREMENT
 70
     1
  9
$CELWEIGHT
370
    -1
  9
$ENDCAPS
280
     0
  9
$JOINSTYLE
280
     0
  9
$LWDISPLAY
290
     0
  9
$INSUNITS
 70
     0
  9
$HYPERLINKBASE
  1

  9
$STYLESHEET
  1

  9
$XEDIT
290
     1
  9
$CEPSNTYPE
380
     0
  9
$PSTYLEMODE
290
     1
  9
$FINGERPRINTGUID
  2
{498449EB-B92F-A145-9ACD-8ACF6FCCCB66}
  9
$VERSIONGUID
  2
{D4B6A77B-CD5F-234B-B2DA-E5E6096368B9}
  9
$EXTNAMES
290
     1
  9
$PSVPSCALE
 40
0.0
  9
$OLESTARTUP
290
     0
  9
$SORTENTS
280
   127
  9
$INDEXCTL
280
     0
  9
$HIDETEXT
280
     1
  9
$XCLIPFRAME
280
     2
  9
$HALOGAP
280
     0
  9
$OBSCOLOR
 70
   257
  9
$OBSLTYPE
280
     0
  9
$INTERSECTIONDISPLAY
280
     0
  9
$INTERSECTIONCOLOR
 70
   257
  9
$DIMASSOC
280
     1
  9
$PROJECTNAME
  1

  9
$CAMERADISPLAY
290
     0
  9
$LENSLENGTH
 40
50.0
  9
$CAMERAHEIGHT
 40
0.0
  9
$STEPSPERSEC
 40
2.0
  9
$STEPSIZE
 40
6.0
  9
$3DDWFPREC
 40
2.0
  9
$PSOLWIDTH
 40
0.25
  9
$PSOLHEIGHT
 40
4.0
  9
$LOFTANG1
 40
1.570796326794896
  9
$LOFTANG2
 40
1.570796326794896
  9
$LOFTMAG1
 40
0.0
  9
$LOFTMAG2
 40
0.0
  9
$LOFTPARAM
 70
     7
  9
$LOFTNORMALS
280
     1
  9
$LATITUDE
 40
37.795
  9
$LONGITUDE
 40
-122.394
  9
$NORTHDIRECTION
 40
0.0
  9
$TIMEZONE
 70
 -8000
  9
$LIGHTGLYPHDISPLAY
280
     1
  9
$TILEMODELIGHTSYNCH
280
     1
  9
$CMATERIAL
347
11
  9
$SOLIDHIST
280
     0
  9
$SHOWHIST
280
     1
  9
$DWFFRAME
280
     2
  9
$DGNFRAME
280
     0
  9
$REALWORLDSCALE
290
     1
  9
$INTERFERECOLOR
 62
     1
  9
$INTERFEREOBJVS
345
33
  9
$INTERFEREVPVS
346
30
  9
$CSHADOW
280
     0
  9
$SHADOWPLANELOCATION
 40
0.0
  0
ENDSEC
  0
SECTION
  2
CLASSES
  0
CLASS
  1
ACDBDICTIONARYWDFLT
  2
AcDbDictionaryWithDefault
  3
ObjectDBX Classes
 90
        0
 91
        1
280
     0
281
     0
  0
CLASS
  1
MATERIAL
  2
AcDbMaterial
  3
ObjectDBX Classes
 90
     1153
 91
        3
280
     0
281
     0
  0
CLASS
  1
VISUALSTYLE
  2
AcDbVisualStyle
  3
ObjectDBX Classes
 90
     4095
 91
       24
280
     0
281
     0
  0
CLASS
  1
SCALE
  2
AcDbScale
  3
ObjectDBX Classes
 90
     1153
 91
       17
280
     0
281
     0
  0
CLASS
  1
TABLESTYLE
  2
AcDbTableStyle
  3
ObjectDBX Classes
 90
     4095
 91
        1
280
     0
281
     0
  0
CLASS
  1
MLEADERSTYLE
  2
AcDbMLeaderStyle
  3
ACDB_MLEADERSTYLE_CLASS
 90
     4095
 91
        1
280
     0
281
     0
  0
CLASS
  1
ACDBSECTIONVIEWSTYLE
  2
AcDbSectionViewStyle
  3
ObjectDBX Classes
 90
     1025
 91
        2
280
     0
281
     0
  0
CLASS
  1
ACDBDETAILVIEWSTYLE
  2
AcDbDetailViewStyle
  3
ObjectDBX Classes
 90
     1025
 91
        2
280
     0
281
     0
  0
CLASS
  1
SORTENTSTABLE
  2
AcDbSortentsTable
  3
ObjectDBX Classes
 90
        0
 91
        1
280
     0
281
     0
  0
CLASS
  1
DICTIONARYVAR
  2
AcDbDictionaryVar
  3
ObjectDBX Classes
 90
        0
 91
       10
280
     0
281
     0
  0
CLASS
  1
CELLSTYLEMAP
  2
AcDbCellStyleMap
  3
ObjectDBX Classes
 90
     1152
 91
        1
280
     0
281
     0
  0
ENDSEC
  0
SECTION
  2
TABLES
  0
TABLE
  2
VPORT
  5
8
330
0
100
AcDbSymbolTable
 70
     1
  0
VPORT
  5
57
330
8
100
AcDbSymbolTableRecord
100
AcDbViewportTableRecord
  2
*Active
 70
     0
 10
0.0
 20
0.0
 11
1.0
 21
1.0
 12
142.181600388513
 22
101.7057113987537
 13
0.0
 23
0.0
 14
10.0
 24
10.0
 15
10.0
 25
10.0
 16
0.0
 26
0.0
 36
1.0
 17
0.0
 27
0.0
 37
0.0
 40
214.0826469546949
 41
2.370967741935483
 42
50.0
 43
0.0
 44
0.0
 50
0.0
 51
0.0
 71
     0
 72
   100
 73
     1
 74
     1
 75
     0
 76
     0
 77
     0
 78
     0
281
     0
 65
     1
110
0.0
120
0.0
130
0.0
111
1.0
121
0.0
131
0.0
112
0.0
122
1.0
132
0.0
 79
     0
146
0.0
348
2F
 60
     0
 61
     5
292
     1
282
     1
141
0.0
142
0.0
 63
   250
421
  3355443
1001
ACAD_NAV_VCDISPLAY
1070
     3
  0
ENDTAB
  0
TABLE
  2
LTYPE
  5
5
330
0
100
AcDbSymbolTable
 70
     2
  0
LTYPE
  5
5B
330
5
100
AcDbSymbolTableRecord
100
AcDbLinetypeTableRecord
  2
ByBlock
 70
     0
  3

 72
    65
 73
     0
 40
0.0
  0
LTYPE
  5
5C
330
5
100
AcDbSymbolTableRecord
100
AcDbLinetypeTableRecord
  2
ByLayer
 70
     0
  3

 72
    65
 73
     0
 40
0.0
  0
LTYPE
  5
5D
330
5
100
AcDbSymbolTableRecord
100
AcDbLinetypeTableRecord
  2
Continuous
 70
     0
  3
Solid line
 72
    65
 73
     0
 40
0.0
  0
LTYPE
  5
7A
330
5
100
AcDbSymbolTableRecord
100
AcDbLinetypeTableRecord
  2
HIDDEN2
 70
     0
  3
Hidden (.5x) _ _ _ _ _ _ _ _ _ _ _ _ _ _ _ _ _
 72
    65
 73
     2
 40
4.762499999999999
 49
3.174999999999999
 74
     0
 49
-1.587499999999999
 74
     0
  0
ENDTAB
  0
TABLE
  2
LAYER
  5
2
330
0
100
AcDbSymbolTable
 70
     6
  0
LAYER
  5
54
102
{ACAD_XDICTIONARY
360
2ED
102
}
330
2
100
AcDbSymbolTableRecord
100
AcDbLayerTableRecord
  2
0
 70
     0
 62
     7
  6
Continuous
370
    -3
390
F
347
21
348
0
1001
AcAecLayerStandard
1000

1000

  0
LAYER
  5
79
330
2
100
AcDbSymbolTableRecord
100
AcDbLayerTableRecord
  2
Defpoints
 70
     0
 62
     7
  6
Continuous
290
     0
370
    -3
390
F
347
21
348
0
1001
AcAecLayerStandard
1000

1000

  0
LAYER
  5
7D
102
{ACAD_XDICTIONARY
360
7E
102
}
330
2
100
AcDbSymbolTableRecord
100
AcDbLayerTableRecord
  2
VIEWPORT
 70
     0
 62
     7
  6
Continuous
370
    -3
390
F
347
21
348
0
  0
LAYER
  5
81
102
{ACAD_XDICTIONARY
360
82
102
}
330
2
100
AcDbSymbolTableRecord
100
AcDbLayerTableRecord
  2
基本図面
 70
     0
 62
     7
  6
Continuous
370
    -3
390
F
347
21
348
0
  0
LAYER
  5
9C
102
{ACAD_XDICTIONARY
360
9D
102
}
330
2
100
AcDbSymbolTableRecord
100
AcDbLayerTableRecord
  2
寸法線
 70
     0
 62
     6
  6
Continuous
370
    -3
390
F
347
21
348
0
  0
LAYER
  5
26A
102
{ACAD_XDICTIONARY
360
26B
102
}
330
2
100
AcDbSymbolTableRecord
100
AcDbLayerTableRecord
  2
図面枠
 70
     0
 62
     5
  6
Continuous
370
    -3
390
F
347
21
348
0
  0
ENDTAB
  0
TABLE
  2
STYLE
  5
3
330
0
100
AcDbSymbolTable
 70
     2
  0
STYLE
  5
55
330
3
100
AcDbSymbolTableRecord
100
AcDbTextStyleTableRecord
  2
STANDARD
 70
     0
 40
0.0
 41
1.0
 50
0.0
 71
     0
 42
4.0
  3

  4

  0
STYLE
  5
5A
330
3
100
AcDbSymbolTableRecord
100
AcDbTextStyleTableRecord
  2
Annotative
 70
     0
 40
0.0
 41
1.0
 50
0.0
 71
     0
 42
0.2
  3
txt
  4

1001
AcadAnnotative
1000
AnnotativeData
1002
{
1070
     1
1070
     1
1002
}
  0
ENDTAB
  0
TABLE
  2
VIEW
  5
6
330
0
100
AcDbSymbolTable
 70
     0
  0
ENDTAB
  0
TABLE
  2
UCS
  5
7
330
0
100
AcDbSymbolTable
 70
     0
  0
ENDTAB
  0
TABLE
  2
APPID
  5
9
330
0
100
AcDbSymbolTable
 70
     5
  0
APPID
  5
56
330
9
100
AcDbSymbolTableRecord
100
AcDbRegAppTableRecord
  2
ACAD
 70
     0
  0
APPID
  5
5E
330
9
100
AcDbSymbolTableRecord
100
AcDbRegAppTableRecord
  2
AcadAnnotative
 70
     0
  0
APPID
  5
78
330
9
100
AcDbSymbolTableRecord
100
AcDbRegAppTableRecord
  2
ACAD_PSEXT
 70
     0
  0
APPID
  5
28F
330
9
100
AcDbSymbolTableRecord
100
AcDbRegAppTableRecord
  2
AcAecLayerStandard
 70
     0
  0
APPID
  5
2EF
330
9
100
AcDbSymbolTableRecord
100
AcDbRegAppTableRecord
  2
ACAD_NAV_VCDISPLAY
 70
     0
  0
ENDTAB
  0
TABLE
  2
DIMSTYLE
  5
A
330
0
100
AcDbSymbolTable
 70
     3
100
AcDbDimStyleTable
 71
     1
340
7B
  0
DIMSTYLE
105
58
330
A
100
AcDbSymbolTableRecord
100
AcDbDimStyleTableRecord
  2
Standard
 70
     0
340
55
  0
DIMSTYLE
105
59
330
A
100
AcDbSymbolTableRecord
100
AcDbDimStyleTableRecord
  2
Annotative
 70
     0
340
55
1001
AcadAnnotative
1000
AnnotativeData
1002
{
1070
     1
1070
     1
1002
}
  0
DIMSTYLE
105
7B
102
{ACAD_REACTORS
330
9B
330
B3
330
C0
330
CD
330
DA
330
E7
330
F0
330
10B
330
118
102
}
330
A
100
AcDbSymbolTableRecord
100
AcDbDimStyleTableRecord
  2
STANDARD_WS
 70
     0
 40
0.7003367003367004
 41
2.5
 42
0.625
 43
3.75
 44
1.25
 73
     0
 74
     0
 77
     1
 78
     8
140
2.5
141
2.5
143
0.0394
147
0.625
171
     4
172
     1
273
     8
274
     4
340
55
  0
ENDTAB
  0
TABLE
  2
BLOCK_RECORD
  5
1
330
0
100
AcDbSymbolTable
 70
    21
  0
BLOCK_RECORD
  5
70
102
{ACAD_XDICTIONARY
360
267
102
}
330
1
100
AcDbSymbolTableRecord
100
AcDbBlockTableRecord
  2
*Model_Space
340
73
 70
     0
280
     1
281
     0
  0
BLOCK_RECORD
  5
6C
330
1
100
AcDbSymbolTableRecord
100
AcDbBlockTableRecord
  2
*Paper_Space
340
6F
 70
     0
280
     1
281
     0
  0
BLOCK_RECORD
  5
74
330
1
100
AcDbSymbolTableRecord
100
AcDbBlockTableRecord
  2
*Paper_Space0
340
77
 70
     0
280
     1
281
     0
  0
BLOCK_RECORD
  5
A5
330
1
100
AcDbSymbolTableRecord
100
AcDbBlockTableRecord
  2
_OPEN
340
0
102
{BLKREFS
331
2B8
331
2BF
331
2C4
331
2CA
331
2CB
331
2D3
331
2D4
331
293
331
294
331
29C
331
29D
331
2A5
331
2A6
331
2AE
331
2AF
331
2B7
102
}
 70
     0
280
     1
281
     0
  0
BLOCK_RECORD
  5
127
330
1
100
AcDbSymbolTableRecord
100
AcDbBlockTableRecord
  2
*D11
340
0
 70
     0
280
     1
281
     0
  0
BLOCK_RECORD
  5
133
330
1
100
AcDbSymbolTableRecord
100
AcDbBlockTableRecord
  2
*D12
340
0
 70
     0
280
     1
281
     0
  0
BLOCK_RECORD
  5
13F
330
1
100
AcDbSymbolTableRecord
100
AcDbBlockTableRecord
  2
*D13
340
0
 70
     0
280
     1
281
     0
  0
BLOCK_RECORD
  5
14B
330
1
100
AcDbSymbolTableRecord
100
AcDbBlockTableRecord
  2
*D14
340
0
 70
     0
280
     1
281
     0
  0
BLOCK_RECORD
  5
157
330
1
100
AcDbSymbolTableRecord
100
AcDbBlockTableRecord
  2
*D15
340
0
 70
     0
280
     1
281
     0
  0
BLOCK_RECORD
  5
163
330
1
100
AcDbSymbolTableRecord
100
AcDbBlockTableRecord
  2
*D16
340
0
 70
     0
280
     1
281
     0
  0
BLOCK_RECORD
  5
16B
330
1
100
AcDbSymbolTableRecord
100
AcDbBlockTableRecord
  2
*D17
340
0
 70
     0
280
     1
281
     0
  0
BLOCK_RECORD
  5
173
330
1
100
AcDbSymbolTableRecord
100
AcDbBlockTableRecord
  2
*D18
340
0
 70
     0
280
     1
281
     0
  0
BLOCK_RECORD
  5
17F
330
1
100
AcDbSymbolTableRecord
100
AcDbBlockTableRecord
  2
*D19
340
0
 70
     0
280
     1
281
     0
  0
BLOCK_RECORD
  5
26D
330
1
100
AcDbSymbolTableRecord
100
AcDbBlockTableRecord
  2
TITLE_BLOCK
340
0
102
{BLKREFS
331
269
102
}
 70
     0
280
     1
281
     0
  0
ENDTAB
  0
ENDSEC
  0
SECTION
  2
BLOCKS
  0
BLOCK
  5
71
330
70
100
AcDbEntity
  8
0
100
AcDbBlockBegin
  2
*Model_Space
 70
     0
 10
0.0
 20
0.0
 30
0.0
  3
*Model_Space
  1

  0
ENDBLK
  5
72
330
70
100
AcDbEntity
  8
0
100
AcDbBlockEnd
  0
BLOCK
  5
6D
330
6C
100
AcDbEntity
 67
     1
  8
0
100
AcDbBlockBegin
  2
*Paper_Space
 70
     0
 10
0.0
 20
0.0
 30
0.0
  3
*Paper_Space
  1

  0
ENDBLK
  5
6E
330
6C
100
AcDbEntity
 67
     1
  8
0
100
AcDbBlockEnd
  0
BLOCK
  5
75
330
74
100
AcDbEntity
 67
     1
  8
0
100
AcDbBlockBegin
  2
*Paper_Space0
 70
     0
 10
0.0
 20
0.0
 30
0.0
  3
*Paper_Space0
  1

  0
ENDBLK
  5
76
330
74
100
AcDbEntity
 67
     1
  8
0
100
AcDbBlockEnd
  0
BLOCK
  5
A6
330
A5
100
AcDbEntity
  8
0
100
AcDbBlockBegin
  2
_OPEN
 70
     0
 10
0.0
 20
0.0
 30
0.0
  3
_OPEN
  1

  0
LINE
  5
A7
330
A5
100
AcDbEntity
  8
0
  6
ByBlock
 62
     0
100
AcDbLine
 10
-1.0
 20
0.1666666666666666
 30
0.0
 11
0.0
 21
0.0
 31
0.0
  0
LINE
  5
A8
330
A5
100
AcDbEntity
  8
0
  6
ByBlock
 62
     0
100
AcDbLine
 10
0.0
 20
0.0
 30
0.0
 11
-1.0
 21
-0.1666666666666666
 31
0.0
  0
LINE
  5
A9
330
A5
100
AcDbEntity
  8
0
  6
ByBlock
 62
     0
100
AcDbLine
 10
0.0
 20
0.0
 30
0.0
 11
-1.0
 21
0.0
 31
0.0
  0
ENDBLK
  5
AA
330
A5
100
AcDbEntity
  8
0
100
AcDbBlockEnd
  0
BLOCK
  5
128
330
127
100
AcDbEntity
  8
0
100
AcDbBlockBegin
  2
*D11
 70
     1
 10
0.0
 20
0.0
 30
0.0
  3
*D11
  1

  0
LINE
  5
290
330
127
100
AcDbEntity
  8
寸法線
 62
     0
440
 16777216
 48
0.9994900776095029
370
    -2
100
AcDbLine
 10
53.87857562134195
 20
144.252018532925
 30
0.0
 11
53.87857562134195
 21
150.6332591260361
 31
0.0
  0
LINE
  5
291
330
127
100
AcDbEntity
  8
寸法線
 62
     0
440
 16777216
 48
0.9994900776095029
370
    -2
100
AcDbLine
 10
133.8377818301021
 20
144.252018532925
 30
0.0
 11
133.8377818301021
 21
150.6332591260361
 31
0.0
  0
LINE
  5
292
330
127
100
AcDbEntity
  8
寸法線
 62
     0
440
 16777216
 48
0.9994900776095029
370
    -2
100
AcDbLine
 10
56.3773008153657
 20
149.3838965290242
 30
0.0
 11
131.3390566360783
 21
149.3838965290242
 31
0.0
  0
INSERT
  5
293
330
127
100
AcDbEntity
  8
寸法線
 62
     0
440
 16777216
 48
0.9994900776095029
370
    -2
100
AcDbBlockReference
  2
_OPEN
 10
53.87857562134195
 20
149.3838965290242
 30
0.0
 41
2.498725194023757
 42
2.498725194023757
 43
2.498725194023757
 50
180.0
  0
INSERT
  5
294
330
127
100
AcDbEntity
  8
寸法線
 62
     0
440
 16777216
 48
0.9994900776095029
370
    -2
100
AcDbBlockReference
  2
_OPEN
 10
133.8377818301021
 20
149.3838965290242
 30
0.0
 41
2.498725194023757
 42
2.498725194023757
 43
2.498725194023757
  0
MTEXT
  5
295
330
127
100
AcDbEntity
  8
寸法線
 62
     0
440
 16777216
 48
0.9994900776095029
100
AcDbMText
 10
93.85817872572237
 20
151.2843594153383
 30
0.0
 40
2.498725194023757
 41
0.0
 46
0.0
 71
     5
 72
     1
  1
\A1;80
 73
     1
 44
1.0
  0
POINT
  5
296
330
127
100
AcDbEntity
  8
Defpoints
 62
     0
440
 16777216
 48
0.9994900776095029
100
AcDbPoint
 10
53.87857562134195
 20
143.627337234419
 30
0.0
  0
POINT
  5
297
330
127
100
AcDbEntity
  8
Defpoints
 62
     0
440
 16777216
 48
0.9994900776095029
100
AcDbPoint
 10
133.8377818301021
 20
143.627337234419
 30
0.0
  0
POINT
  5
298
330
127
100
AcDbEntity
  8
Defpoints
 62
     0
440
 16777216
 48
0.9994900776095029
100
AcDbPoint
 10
133.8377818301021
 20
149.3838965290242
 30
0.0
  0
ENDBLK
  5
129
330
127
100
AcDbEntity
  8
0
100
AcDbBlockEnd
  0
BLOCK
  5
134
330
133
100
AcDbEntity
  8
0
100
AcDbBlockBegin
  2
*D12
 70
     1
 10
0.0
 20
0.0
 30
0.0
  3
*D12
  1

  0
LINE
  5
299
330
133
100
AcDbEntity
  8
寸法線
 62
     0
440
 16777216
 48
0.9994900776095029
370
    -2
100
AcDbLine
 10
132.8632790044331
 20
145.2265213585943
 30
0.0
 11
143.8517480722339
 21
145.2265213585943
 31
0.0
  0
LINE
  5
29A
330
133
100
AcDbEntity
  8
寸法線
 62
     0
440
 16777216
 48
0.9994900776095029
370
    -2
100
AcDbLine
 10
134.4624631286081
 20
120.2392694183567
 30
0.0
 11
143.8517480722339
 21
120.2392694183567
 31
0.0
  0
LINE
  5
29B
330
133
100
AcDbEntity
  8
寸法線
 62
     0
440
 16777216
 48
0.9994900776095029
370
    -2
100
AcDbLine
 10
142.602385475222
 20
142.7277961645706
 30
0.0
 11
142.602385475222
 21
122.7379946123805
 31
0.0
  0
INSERT
  5
29C
330
133
100
AcDbEntity
  8
寸法線
 62
     0
440
 16777216
 48
0.9994900776095029
370
    -2
100
AcDbBlockReference
  2
_OPEN
 10
142.602385475222
 20
145.2265213585943
 30
0.0
 41
2.498725194023757
 42
2.498725194023757
 43
2.498725194023757
 50
90.0
  0
INSERT
  5
29D
330
133
100
AcDbEntity
  8
寸法線
 62
     0
440
 16777216
 48
0.9994900776095029
370
    -2
100
AcDbBlockReference
  2
_OPEN
 10
142.602385475222
 20
120.2392694183567
 30
0.0
 41
2.498725194023757
 42
2.498725194023757
 43
2.498725194023757
 50
270.0
  0
MTEXT
  5
29E
330
133
100
AcDbEntity
  8
寸法線
 62
     0
440
 16777216
 48
0.9994900776095029
100
AcDbMText
 10
140.7019225889079
 20
132.67979757043
 30
0.0
 40
2.498725194023757
 41
0.0
 46
0.0
 71
     5
 72
     1
  1
\A1;25
 11
0.0000000000000001
 21
1.0
 31
0.0
 73
     1
 44
1.0
  0
POINT
  5
29F
330
133
100
AcDbEntity
  8
Defpoints
 62
     0
440
 16777216
 48
0.9994900776095029
100
AcDbPoint
 10
132.2385977059271
 20
145.2265213585943
 30
0.0
  0
POINT
  5
2A0
330
133
100
AcDbEntity
  8
Defpoints
 62
     0
440
 16777216
 48
0.9994900776095029
100
AcDbPoint
 10
133.8377818301022
 20
120.2392694183567
 30
0.0
  0
POINT
  5
2A1
330
133
100
AcDbEntity
  8
Defpoints
 62
     0
440
 16777216
 48
0.9994900776095029
100
AcDbPoint
 10
142.602385475222
 20
120.2392694183567
 30
0.0
  0
ENDBLK
  5
135
330
133
100
AcDbEntity
  8
0
100
AcDbBlockEnd
  0
BLOCK
  5
140
330
13F
100
AcDbEntity
  8
0
100
AcDbBlockBegin
  2
*D13
 70
     1
 10
0.0
 20
0.0
 30
0.0
  3
*D13
  1

  0
LINE
  5
2A2
330
13F
100
AcDbEntity
  8
寸法線
 62
     0
440
 16777216
 48
0.9994900776095029
370
    -2
100
AcDbLine
 10
132.8632790044331
 20
145.2265213585943
 30
0.0
 11
149.4116161239914
 21
145.2265213585943
 31
0.0
  0
LINE
  5
2A3
330
13F
100
AcDbEntity
  8
寸法線
 62
     0
440
 16777216
 48
0.9994900776095029
370
    -2
100
AcDbLine
 10
133.9058613680818
 20
95.25201747811911
 30
0.0
 11
149.4116161239914
 21
95.25201747811911
 31
0.0
  0
LINE
  5
2A4
330
13F
100
AcDbEntity
  8
寸法線
 62
     0
440
 16777216
 48
0.9994900776095029
370
    -2
100
AcDbLine
 10
148.1622535269796
 20
142.7277961645706
 30
0.0
 11
148.1622535269796
 21
97.75074267214289
 31
0.0
  0
INSERT
  5
2A5
330
13F
100
AcDbEntity
  8
寸法線
 62
     0
440
 16777216
 48
0.9994900776095029
370
    -2
100
AcDbBlockReference
  2
_OPEN
 10
148.1622535269796
 20
145.2265213585943
 30
0.0
 41
2.498725194023757
 42
2.498725194023757
 43
2.498725194023757
 50
90.0
  0
INSERT
  5
2A6
330
13F
100
AcDbEntity
  8
寸法線
 62
     0
440
 16777216
 48
0.9994900776095029
370
    -2
100
AcDbBlockReference
  2
_OPEN
 10
148.1622535269796
 20
95.25201747811911
 30
0.0
 41
2.498725194023757
 42
2.498725194023757
 43
2.498725194023757
 50
270.0
  0
MTEXT
  5
2A7
330
13F
100
AcDbEntity
  8
寸法線
 62
     0
440
 16777216
 48
0.9994900776095029
100
AcDbMText
 10
146.2617906406655
 20
114.3868390195059
 30
0.0
 40
2.498725194023757
 41
0.0
 46
0.0
 71
     5
 72
     1
  1
\A1;50
 11
0.0000000000000001
 21
1.0
 31
0.0
 73
     1
 44
1.0
  0
POINT
  5
2A8
330
13F
100
AcDbEntity
  8
Defpoints
 62
     0
440
 16777216
 48
0.9994900776095029
100
AcDbPoint
 10
132.2385977059271
 20
145.2265213585943
 30
0.0
  0
POINT
  5
2A9
330
13F
100
AcDbEntity
  8
Defpoints
 62
     0
440
 16777216
 48
0.9994900776095029
100
AcDbPoint
 10
133.2811800695759
 20
95.25201747811911
 30
0.0
  0
POINT
  5
2AA
330
13F
100
AcDbEntity
  8
Defpoints
 62
     0
440
 16777216
 48
0.9994900776095029
100
AcDbPoint
 10
148.1622535269796
 20
95.25201747811911
 30
0.0
  0
ENDBLK
  5
141
330
13F
100
AcDbEntity
  8
0
100
AcDbBlockEnd
  0
BLOCK
  5
14C
330
14B
100
AcDbEntity
  8
0
100
AcDbBlockBegin
  2
*D14
 70
     1
 10
0.0
 20
0.0
 30
0.0
  3
*D14
  1

  0
LINE
  5
2AB
330
14B
100
AcDbEntity
  8
寸法線
 62
     0
440
 16777216
 48
0.9994900776095029
370
    -2
100
AcDbLine
 10
132.8632790044331
 20
145.2265213585943
 30
0.0
 11
156.0558371848246
 21
145.2265213585943
 31
0.0
  0
LINE
  5
2AC
330
14B
100
AcDbEntity
  8
寸法線
 62
     0
440
 16777216
 48
0.9994900776095029
370
    -2
100
AcDbLine
 10
111.9058470336784
 20
75.26221592592905
 30
0.0
 11
156.0558371848246
 21
75.26221592592905
 31
0.0
  0
LINE
  5
2AD
330
14B
100
AcDbEntity
  8
寸法線
 62
     0
440
 16777216
 48
0.9994900776095029
370
    -2
100
AcDbLine
 10
154.8064745878128
 20
142.7277961645706
 30
0.0
 11
154.8064745878128
 21
77.76094111995281
 31
0.0
  0
INSERT
  5
2AE
330
14B
100
AcDbEntity
  8
寸法線
 62
     0
440
 16777216
 48
0.9994900776095029
370
    -2
100
AcDbBlockReference
  2
_OPEN
 10
154.8064745878128
 20
145.2265213585943
 30
0.0
 41
2.498725194023757
 42
2.498725194023757
 43
2.498725194023757
 50
90.0
  0
INSERT
  5
2AF
330
14B
100
AcDbEntity
  8
寸法線
 62
     0
440
 16777216
 48
0.9994900776095029
370
    -2
100
AcDbBlockReference
  2
_OPEN
 10
154.8064745878128
 20
75.26221592592905
 30
0.0
 41
2.498725194023757
 42
2.498725194023757
 43
2.498725194023757
 50
270.0
  0
MTEXT
  5
2B0
330
14B
100
AcDbEntity
  8
寸法線
 62
     0
440
 16777216
 48
0.9994900776095029
100
AcDbMText
 10
152.9060117014986
 20
108.3008175723906
 30
0.0
 40
2.498725194023757
 41
0.0
 46
0.0
 71
     5
 72
     1
  1
\A1;70
 11
0.0000000000000001
 21
1.0
 31
0.0
 73
     1
 44
1.0
  0
POINT
  5
2B1
330
14B
100
AcDbEntity
  8
Defpoints
 62
     0
440
 16777216
 48
0.9994900776095029
100
AcDbPoint
 10
132.2385977059271
 20
145.2265213585943
 30
0.0
  0
POINT
  5
2B2
330
14B
100
AcDbEntity
  8
Defpoints
 62
     0
440
 16777216
 48
0.9994900776095029
100
AcDbPoint
 10
111.2811657351724
 20
75.26221592592905
 30
0.0
  0
POINT
  5
2B3
330
14B
100
AcDbEntity
  8
Defpoints
 62
     0
440
 16777216
 48
0.9994900776095029
100
AcDbPoint
 10
154.8064745878128
 20
75.26221592592905
 30
0.0
  0
ENDBLK
  5
14D
330
14B
100
AcDbEntity
  8
0
100
AcDbBlockEnd
  0
BLOCK
  5
158
330
157
100
AcDbEntity
  8
0
100
AcDbBlockBegin
  2
*D15
 70
     1
 10
0.0
 20
0.0
 30
0.0
  3
*D15
  1

  0
LINE
  5
2B4
330
157
100
AcDbEntity
  8
寸法線
 62
     0
440
 16777216
 48
0.9994900776095029
370
    -2
100
AcDbLine
 10
73.86837717353206
 20
75.19413638794929
 30
0.0
 11
73.86837717353206
 21
66.82438106052437
 31
0.0
  0
LINE
  5
2B5
330
157
100
AcDbEntity
  8
寸法線
 62
     0
440
 16777216
 48
0.9994900776095029
370
    -2
100
AcDbLine
 10
113.847980277912
 20
75.19413638794929
 30
0.0
 11
113.847980277912
 21
66.82438106052437
 31
0.0
  0
LINE
  5
2B6
330
157
100
AcDbEntity
  8
寸法線
 62
     0
440
 16777216
 48
0.9994900776095029
370
    -2
100
AcDbLine
 10
76.36710236755582
 20
68.07374365753625
 30
0.0
 11
111.3492550838882
 21
68.07374365753625
 31
0.0
  0
INSERT
  5
2B7
330
157
100
AcDbEntity
  8
寸法線
 62
     0
440
 16777216
 48
0.9994900776095029
370
    -2
100
AcDbBlockReference
  2
_OPEN
 10
73.86837717353206
 20
68.07374365753625
 30
0.0
 41
2.498725194023757
 42
2.498725194023757
 43
2.498725194023757
 50
180.0
  0
INSERT
  5
2B8
330
157
100
AcDbEntity
  8
寸法線
 62
     0
440
 16777216
 48
0.9994900776095029
370
    -2
100
AcDbBlockReference
  2
_OPEN
 10
113.847980277912
 20
68.07374365753625
 30
0.0
 41
2.498725194023757
 42
2.498725194023757
 43
2.498725194023757
  0
MTEXT
  5
2B9
330
157
100
AcDbEntity
  8
寸法線
 62
     0
440
 16777216
 48
0.9994900776095029
100
AcDbMText
 10
93.85817872572216
 20
69.97420654385037
 30
0.0
 40
2.498725194023757
 41
0.0
 46
0.0
 71
     5
 72
     1
  1
\A1;40
 73
     1
 44
1.0
  0
POINT
  5
2BA
330
157
100
AcDbEntity
  8
Defpoints
 62
     0
440
 16777216
 48
0.9994900776095029
100
AcDbPoint
 10
73.86837717353206
 20
75.81881768645523
 30
0.0
  0
POINT
  5
2BB
330
157
100
AcDbEntity
  8
Defpoints
 62
     0
440
 16777216
 48
0.9994900776095029
100
AcDbPoint
 10
113.847980277912
 20
75.81881768645523
 30
0.0
  0
POINT
  5
2BC
330
157
100
AcDbEntity
  8
Defpoints
 62
     0
440
 16777216
 48
0.9994900776095029
100
AcDbPoint
 10
113.847980277912
 20
68.07374365753625
 30
0.0
  0
ENDBLK
  5
159
330
157
100
AcDbEntity
  8
0
100
AcDbBlockEnd
  0
BLOCK
  5
164
330
163
100
AcDbEntity
  8
0
100
AcDbBlockBegin
  2
*D16
 70
     1
 10
0.0
 20
0.0
 30
0.0
  3
*D16
  1

  0
LINE
  5
2BD
330
163
100
AcDbEntity
  8
寸法線
 62
     0
440
 16777216
 48
0.9994900776095029
370
    -2
100
AcDbLine
 10
108.769898572473
 20
88.29081159005381
 30
0.0
 11
111.4535858851998
 21
80.98999535360343
 31
0.0
  0
MTEXT
  5
2BE
330
163
100
AcDbEntity
  8
寸法線
 62
     0
440
 16777216
 48
0.9994900776095029
100
AcDbMText
 10
111.4650826669526
 20
86.46951804640981
 30
0.0
 40
2.498725194023757
 41
0.0
 46
0.0
 71
     5
 72
     1
  1
\A1;R3
 11
0.3450162315559488
 21
-0.9385967184914573
 31
0.0
 73
     1
 44
1.0
  0
INSERT
  5
2BF
330
163
100
AcDbEntity
  8
寸法線
 62
     0
440
 16777216
 48
0.9994900776095029
370
    -2
100
AcDbBlockReference
  2
_OPEN
 10
112.3156866353358
 20
78.6447000860808
 30
0.0
 41
2.498725194023757
 42
2.498725194023757
 43
2.498725194023757
 50
290.1827866042377
  0
POINT
  5
2C0
330
163
100
AcDbEntity
  8
Defpoints
 62
     0
440
 16777216
 48
0.9994900776095029
100
AcDbPoint
 10
112.3156866353358
 20
78.6447000860808
 30
0.0
  0
POINT
  5
2C1
330
163
100
AcDbEntity
  8
Defpoints
 62
     0
440
 16777216
 48
0.9994900776095029
100
AcDbPoint
 10
111.2811657351726
 20
81.45905440710805
 30
0.0
  0
ENDBLK
  5
165
330
163
100
AcDbEntity
  8
0
100
AcDbBlockEnd
  0
BLOCK
  5
16C
330
16B
100
AcDbEntity
  8
0
100
AcDbBlockBegin
  2
*D17
 70
     1
 10
0.0
 20
0.0
 30
0.0
  3
*D17
  1

  0
LINE
  5
2C2
330
16B
100
AcDbEntity
  8
寸法線
 62
     0
440
 16777216
 48
0.9994900776095029
370
    -2
100
AcDbLine
 10
120.9303596022645
 20
100.6379515196156
 30
0.0
 11
128.1016828009234
 21
97.62527515278081
 31
0.0
  0
MTEXT
  5
2C3
330
16B
100
AcDbEntity
  8
寸法線
 62
     0
440
 16777216
 48
0.9994900776095029
100
AcDbMText
 10
124.1000994650342
 20
101.3686201706631
 30
0.0
 40
2.498725194023757
 41
0.0
 46
0.0
 71
     5
 72
     1
  1
\A1;R3
 11
0.9219490264523471
 21
-0.3873112348274568
 31
0.0
 73
     1
 44
1.0
  0
INSERT
  5
2C4
330
16B
100
AcDbEntity
  8
寸法線
 62
     0
440
 16777216
 48
0.9994900776095029
370
    -2
100
AcDbBlockReference
  2
_OPEN
 10
130.4053800609256
 20
96.65749081238899
 30
0.0
 41
2.498725194023757
 42
2.498725194023757
 43
2.498725194023757
 50
337.2127003018207
  0
POINT
  5
2C5
330
16B
100
AcDbEntity
  8
Defpoints
 62
     0
440
 16777216
 48
0.9994900776095029
100
AcDbPoint
 10
130.4053800609256
 20
96.65749081238899
 30
0.0
  0
POINT
  5
2C6
330
16B
100
AcDbEntity
  8
Defpoints
 62
     0
440
 16777216
 48
0.9994900776095029
100
AcDbPoint
 10
127.6409433489232
 20
97.81883202085911
 30
0.0
  0
ENDBLK
  5
16D
330
16B
100
AcDbEntity
  8
0
100
AcDbBlockEnd
  0
BLOCK
  5
174
330
173
100
AcDbEntity
  8
0
100
AcDbBlockBegin
  2
*D18
 70
     1
 10
0.0
 20
0.0
 30
0.0
  3
*D18
  1

  0
LINE
  5
2C7
330
173
100
AcDbEntity
  8
寸法線
 62
     0
440
 16777216
 48
0.9994900776095029
370
    -2
100
AcDbLine
 10
206.8220641768907
 20
139.3545171526384
 30
0.0
 11
206.8220641768907
 21
150.4220778383856
 31
0.0
  0
LINE
  5
2C8
330
173
100
AcDbEntity
  8
寸法線
 62
     0
440
 16777216
 48
0.9994900776095029
370
    -2
100
AcDbLine
 10
219.8154351858145
 20
139.3545171526384
 30
0.0
 11
219.8154351858145
 21
150.4220778383856
 31
0.0
  0
LINE
  5
2C9
330
173
100
AcDbEntity
  8
寸法線
 62
     0
440
 16777216
 48
0.9994900776095029
370
    -2
100
AcDbLine
 10
209.3207893709145
 20
149.1727152413737
 30
0.0
 11
217.3167099917908
 21
149.1727152413737
 31
0.0
  0
INSERT
  5
2CA
330
173
100
AcDbEntity
  8
寸法線
 62
     0
440
 16777216
 48
0.9994900776095029
370
    -2
100
AcDbBlockReference
  2
_OPEN
 10
206.8220641768907
 20
149.1727152413737
 30
0.0
 41
2.498725194023757
 42
2.498725194023757
 43
2.498725194023757
 50
180.0
  0
INSERT
  5
2CB
330
173
100
AcDbEntity
  8
寸法線
 62
     0
440
 16777216
 48
0.9994900776095029
370
    -2
100
AcDbBlockReference
  2
_OPEN
 10
219.8154351858145
 20
149.1727152413737
 30
0.0
 41
2.498725194023757
 42
2.498725194023757
 43
2.498725194023757
  0
MTEXT
  5
2CC
330
173
100
AcDbEntity
  8
寸法線
 62
     0
440
 16777216
 48
0.9994900776095029
100
AcDbMText
 10
213.3187496813526
 20
151.0740303531974
 30
0.0
 40
2.498725194023757
 41
0.0
 46
0.0
 71
     5
 72
     1
  1
\A1;13
 73
     1
 44
1.0
  0
POINT
  5
2CD
330
173
100
AcDbEntity
  8
Defpoints
 62
     0
440
 16777216
 48
0.9994900776095029
100
AcDbPoint
 10
206.8220641768907
 20
138.7298358541325
 30
0.0
  0
POINT
  5
2CE
330
173
100
AcDbEntity
  8
Defpoints
 62
     0
440
 16777216
 48
0.9994900776095029
100
AcDbPoint
 10
219.8154351858145
 20
138.7298358541324
 30
0.0
  0
POINT
  5
2CF
330
173
100
AcDbEntity
  8
Defpoints
 62
     0
440
 16777216
 48
0.9994900776095029
100
AcDbPoint
 10
219.8154351858145
 20
149.1727152413737
 30
0.0
  0
ENDBLK
  5
175
330
173
100
AcDbEntity
  8
0
100
AcDbBlockEnd
  0
BLOCK
  5
180
330
17F
100
AcDbEntity
  8
0
100
AcDbBlockBegin
  2
*D19
 70
     1
 10
0.0
 20
0.0
 30
0.0
  3
*D19
  1

  0
LINE
  5
2D0
330
17F
100
AcDbEntity
  8
寸法線
 62
     0
440
 16777216
 48
0.9994900776095029
370
    -2
100
AcDbLine
 10
212.6940683828469
 20
145.2265213585943
 30
0.0
 11
197.1706673082674
 21
145.2265213585943
 31
0.0
  0
LINE
  5
2D1
330
17F
100
AcDbEntity
  8
寸法線
 62
     0
440
 16777216
 48
0.9994900776095029
370
    -2
100
AcDbLine
 10
206.1973828783849
 20
120.2392694183567
 30
0.0
 11
197.1706673082674
 21
120.2392694183567
 31
0.0
  0
LINE
  5
2D2
330
17F
100
AcDbEntity
  8
寸法線
 62
     0
440
 16777216
 48
0.9994900776095029
370
    -2
100
AcDbLine
 10
198.4200299052793
 20
142.7277961645705
 30
0.0
 11
198.4200299052793
 21
122.7379946123805
 31
0.0
  0
INSERT
  5
2D3
330
17F
100
AcDbEntity
  8
寸法線
 62
     0
440
 16777216
 48
0.9994900776095029
370
    -2
100
AcDbBlockReference
  2
_OPEN
 10
198.4200299052793
 20
145.2265213585943
 30
0.0
 41
2.498725194023757
 42
2.498725194023757
 43
2.498725194023757
 50
90.0
  0
INSERT
  5
2D4
330
17F
100
AcDbEntity
  8
寸法線
 62
     0
440
 16777216
 48
0.9994900776095029
370
    -2
100
AcDbBlockReference
  2
_OPEN
 10
198.4200299052793
 20
120.2392694183567
 30
0.0
 41
2.498725194023757
 42
2.498725194023757
 43
2.498725194023757
 50
270.0
  0
MTEXT
  5
2D5
330
17F
100
AcDbEntity
  8
寸法線
 62
     0
440
 16777216
 48
0.9994900776095029
100
AcDbMText
 10
196.5195670189651
 20
132.7328953884755
 30
0.0
 40
2.498725194023757
 41
0.0
 46
0.0
 71
     5
 72
     1
  1
\A1;25
 11
0.0000000000000001
 21
1.0
 31
0.0
 73
     1
 44
1.0
  0
POINT
  5
2D6
330
17F
100
AcDbEntity
  8
Defpoints
 62
     0
440
 16777216
 48
0.9994900776095029
100
AcDbPoint
 10
213.3187496813529
 20
145.2265213585943
 30
0.0
  0
POINT
  5
2D7
330
17F
100
AcDbEntity
  8
Defpoints
 62
     0
440
 16777216
 48
0.9994900776095029
100
AcDbPoint
 10
206.8220641768909
 20
120.2392694183567
 30
0.0
  0
POINT
  5
2D8
330
17F
100
AcDbEntity
  8
Defpoints
 62
     0
440
 16777216
 48
0.9994900776095029
100
AcDbPoint
 10
198.4200299052793
 20
120.2392694183567
 30
0.0
  0
ENDBLK
  5
181
330
17F
100
AcDbEntity
  8
0
100
AcDbBlockEnd
  0
BLOCK
  5
26E
330
26D
100
AcDbEntity
  8
0
100
AcDbBlockBegin
  2
TITLE_BLOCK
 70
     0
 10
0.0
 20
0.0
 30
0.0
  3
TITLE_BLOCK
  1

  0
LINE
  5
26F
330
26D
100
AcDbEntity
  8
0
 62
     5
100
AcDbLine
 10
10.0
 20
200.0
 30
0.0
 11
10.0
 21
10.0
 31
0.0
  0
LINE
  5
270
330
26D
100
AcDbEntity
  8
0
 62
     5
100
AcDbLine
 10
10.0
 20
10.0
 30
0.0
 11
287.0
 21
10.0
 31
0.0
  0
LINE
  5
271
330
26D
100
AcDbEntity
  8
0
 62
     5
100
AcDbLine
 10
287.0
 20
200.0
 30
0.0
 11
287.0
 21
10.0
 31
0.0
  0
LINE
  5
272
330
26D
100
AcDbEntity
  8
0
 62
     5
100
AcDbLine
 10
10.0
 20
200.0
 30
0.0
 11
287.0
 21
200.0
 31
0.0
  0
ENDBLK
  5
273
330
26D
100
AcDbEntity
  8
0
100
AcDbBlockEnd
  0
ENDSEC
  0
SECTION
  2
ENTITIES
  0
LWPOLYLINE
  5
7C
330
70
100
AcDbEntity
  8
VIEWPORT
  6
Continuous
100
AcDbPolyline
 90
        4
 70
     1
 43
0.0
 10
-6.241401228335575
 20
-4.491978581708622
 10
290.6071518780412
 20
-4.491978581708622
 10
290.6071518780412
 20
207.9033958339542
 10
-6.241401228335575
 20
207.9033958339542
  0
LINE
  5
80
330
70
100
AcDbEntity
  8
基本図面
 48
0.9994900776095029
100
AcDbLine
 10
55.47775974551701
 20
145.2265213585942
 30
0.0
 11
55.47775974551701
 21
145.2265213585943
 31
0.0
  0
LINE
  5
84
330
70
100
AcDbEntity
  8
基本図面
 48
0.9994900776095029
100
AcDbLine
 10
53.87857562134195
 20
143.627337234419
 30
0.0
 11
53.87857562134195
 21
97.81883202085891
 31
0.0
  0
LINE
  5
85
330
70
100
AcDbEntity
  8
基本図面
 48
0.9994900776095029
100
AcDbLine
 10
76.43519171627167
 20
75.26221592592903
 30
0.0
 11
111.2811657351724
 21
75.26221592592903
 31
0.0
  0
LINE
  5
86
330
70
100
AcDbEntity
  8
基本図面
 48
0.9994900776095029
100
AcDbLine
 10
55.69358759056149
 20
93.43700550889957
 30
0.0
 11
72.05336520431251
 21
77.0772278951486
 31
0.0
  0
LINE
  5
87
330
70
100
AcDbEntity
  8
基本図面
 48
0.9994900776095029
100
AcDbLine
 10
57.07694386969206
 20
143.6273372344191
 30
0.0
 11
57.07694386969251
 21
97.81883202085911
 31
0.0
  0
LINE
  5
88
330
70
100
AcDbEntity
  8
基本図面
 48
0.9994900776095029
100
AcDbLine
 10
57.95517546770224
 20
95.69859338604008
 30
0.0
 11
74.31495308145258
 21
79.33881577228889
 31
0.0
  0
LINE
  5
89
330
70
100
AcDbEntity
  8
基本図面
 48
0.9994900776095029
100
AcDbLine
 10
76.43519171627167
 20
78.4605841742794
 30
0.0
 11
111.2811657351724
 21
78.4605841742794
 31
0.0
  0
ARC
  5
8A
330
70
100
AcDbEntity
  8
基本図面
 48
0.9994900776095029
100
AcDbCircle
 10
60.07541410252111
 20
97.81883202085911
 30
0.0
 40
2.998470232828509
100
AcDbArc
 50
180.0
 51
225.0000000000023
  0
ARC
  5
8B
330
70
100
AcDbEntity
  8
基本図面
 48
0.9994900776095029
100
AcDbCircle
 10
76.43519171627167
 20
81.45905440710791
 30
0.0
 40
2.998470232828509
100
AcDbArc
 50
225.000000000002
 51
270.0
  0
ARC
  5
8C
330
70
100
AcDbEntity
  8
基本図面
 48
0.9994900776095029
100
AcDbCircle
 10
76.43519171627167
 20
81.45905440710794
 30
0.0
 40
6.196838481178918
100
AcDbArc
 50
225.0000000000026
 51
270.0
  0
ARC
  5
8D
330
70
100
AcDbEntity
  8
基本図面
 48
0.9994900776095029
100
AcDbCircle
 10
60.07541410252088
 20
97.81883202085891
 30
0.0
 40
6.196838481178918
100
AcDbArc
 50
180.0
 51
225.0000000000023
  0
ARC
  5
8E
330
70
100
AcDbEntity
  8
基本図面
 48
0.9994900776095029
100
AcDbCircle
 10
55.47775974551701
 20
143.627337234419
 30
0.0
 40
1.599184124175204
100
AcDbArc
 50
90.0
 51
180.0
  0
ARC
  5
8F
330
70
100
AcDbEntity
  8
基本図面
 48
0.9994900776095029
100
AcDbCircle
 10
55.47775974551701
 20
143.6273372344191
 30
0.0
 40
1.599184124175204
100
AcDbArc
 50
0.0000000000004073
 51
90.0
  0
LINE
  5
90
330
70
100
AcDbEntity
  8
基本図面
 48
0.9994900776095029
100
AcDbLine
 10
130.639413581752
 20
143.6273372344191
 30
0.0
 11
130.6394135817515
 21
97.81883202085911
 31
0.0
  0
LINE
  5
91
330
70
100
AcDbEntity
  8
基本図面
 48
0.9994900776095029
100
AcDbLine
 10
133.8377818301021
 20
143.627337234419
 30
0.0
 11
133.8377818301021
 21
97.81883202085891
 31
0.0
  0
ARC
  5
92
330
70
100
AcDbEntity
  8
基本図面
 48
0.9994900776095029
100
AcDbCircle
 10
127.6409433489232
 20
97.81883202085891
 30
0.0
 40
6.196838481178918
100
AcDbArc
 50
314.9999999999977
 51
0.0
  0
ARC
  5
93
330
70
100
AcDbEntity
  8
基本図面
 48
0.9994900776095029
100
AcDbCircle
 10
127.6409433489229
 20
97.81883202085911
 30
0.0
 40
2.998470232828509
100
AcDbArc
 50
314.9999999999977
 51
0.0
  0
LINE
  5
94
330
70
100
AcDbEntity
  8
基本図面
 48
0.9994900776095029
100
AcDbLine
 10
132.0227698608826
 20
93.43700550889957
 30
0.0
 11
115.6629922471318
 21
77.0772278951486
 31
0.0
  0
LINE
  5
95
330
70
100
AcDbEntity
  8
基本図面
 48
0.9994900776095029
100
AcDbLine
 10
129.7611819837418
 20
95.69859338604008
 30
0.0
 11
113.4014043699915
 21
79.33881577228889
 31
0.0
  0
ARC
  5
96
330
70
100
AcDbEntity
  8
基本図面
 48
0.9994900776095029
100
AcDbCircle
 10
111.2811657351724
 20
81.45905440710794
 30
0.0
 40
6.196838481178918
100
AcDbArc
 50
270.0
 51
314.9999999999974
  0
ARC
  5
97
330
70
100
AcDbEntity
  8
基本図面
 48
0.9994900776095029
100
AcDbCircle
 10
111.2811657351724
 20
81.45905440710791
 30
0.0
 40
2.998470232828509
100
AcDbArc
 50
270.0
 51
314.9999999999979
  0
ARC
  5
98
330
70
100
AcDbEntity
  8
基本図面
 48
0.9994900776095029
100
AcDbCircle
 10
132.238597705927
 20
143.6273372344191
 30
0.0
 40
1.599184124175204
100
AcDbArc
 50
90.0
 51
179.9999999999996
  0
ARC
  5
99
330
70
100
AcDbEntity
  8
基本図面
 48
0.9994900776095029
100
AcDbCircle
 10
132.238597705927
 20
143.627337234419
 30
0.0
 40
1.599184124175204
100
AcDbArc
 50
0.0
 51
90.0
  0
LINE
  5
9A
330
70
100
AcDbEntity
  8
基本図面
 48
0.9994900776095029
100
AcDbLine
 10
132.238597705927
 20
145.2265213585942
 30
0.0
 11
132.238597705927
 21
145.2265213585943
 31
0.0
  0
DIMENSION
  5
9B
330
70
100
AcDbEntity
  8
寸法線
 48
0.9994900776095029
100
AcDbDimension
280
     0
  2
*D11
 10
133.8377818301021
 20
149.3838965290242
 30
0.0
 11
93.85817872572237
 21
149.3838965290242
 31
0.0
 70
   160
 71
     5
 42
79.99999999999994
 73
     0
 74
     0
 75
     0
  3
STANDARD_WS
100
AcDbAlignedDimension
 13
53.87857562134195
 23
143.627337234419
 33
0.0
 14
133.8377818301021
 24
143.627337234419
 34
0.0
100
AcDbRotatedDimension
1001
ACAD
1000
DSTYLE
1002
{
1070
   144
1040
1.000510182543999
1070
    40
1040
0.9994900776095029
1070
   173
1070
     1
1070
   271
1070
     1
1070
   272
1070
     1
1070
   288
1070
     1
1070
   343
1005
A5
1070
   344
1005
A5
1002
}
  0
LINE
  5
B1
330
70
100
AcDbEntity
  8
基本図面
 48
0.9994900776095029
100
AcDbLine
 10
53.87857562134195
 20
120.2392694183567
 30
0.0
 11
57.07694386969229
 21
120.2392694183566
 31
0.0
  0
LINE
  5
B2
330
70
100
AcDbEntity
  8
基本図面
 48
0.9994900776095029
100
AcDbLine
 10
133.8377818301021
 20
120.2392694183567
 30
0.0
 11
130.6394135817518
 21
120.2392694183566
 31
0.0
  0
DIMENSION
  5
B3
330
70
100
AcDbEntity
  8
寸法線
 48
0.9994900776095029
100
AcDbDimension
280
     0
  2
*D12
 10
142.602385475222
 20
120.2392694183567
 30
0.0
 11
142.602385475222
 21
132.67979757043
 31
0.0
 70
   160
 71
     5
 42
25.00000000000003
 73
     0
 74
     0
 75
     0
  3
STANDARD_WS
100
AcDbAlignedDimension
 13
132.238597705927
 23
145.2265213585943
 33
0.0
 14
133.8377818301021
 24
120.2392694183567
 34
0.0
 50
90.0
100
AcDbRotatedDimension
1001
ACAD
1000
DSTYLE
1002
{
1070
   144
1040
1.000510182543999
1070
    40
1040
0.9994900776095029
1070
   173
1070
     1
1070
   271
1070
     1
1070
   272
1070
     1
1070
   288
1070
     1
1070
   343
1005
A5
1070
   344
1005
A5
1002
}
  0
DIMENSION
  5
C0
330
70
100
AcDbEntity
  8
寸法線
 48
0.9994900776095029
100
AcDbDimension
280
     0
  2
*D13
 10
148.1622535269796
 20
95.25201747811911
 30
0.0
 11
148.1622535269796
 21
114.3868390195059
 31
0.0
 70
   160
 71
     5
 42
50.00000000000007
 73
     0
 74
     0
 75
     0
  3
STANDARD_WS
100
AcDbAlignedDimension
 13
132.238597705927
 23
145.2265213585943
 33
0.0
 14
133.2811800695758
 24
95.25201747811909
 34
0.0
 50
90.0
100
AcDbRotatedDimension
1001
ACAD
1000
DSTYLE
1002
{
1070
   144
1040
1.000510182543999
1070
    40
1040
0.9994900776095029
1070
   173
1070
     1
1070
   271
1070
     1
1070
   272
1070
     1
1070
   288
1070
     1
1070
   343
1005
A5
1070
   344
1005
A5
1002
}
  0
DIMENSION
  5
CD
330
70
100
AcDbEntity
  8
寸法線
 48
0.9994900776095029
100
AcDbDimension
280
     0
  2
*D14
 10
154.8064745878128
 20
75.26221592592905
 30
0.0
 11
154.8064745878128
 21
108.3008175723906
 31
0.0
 70
   160
 71
     5
 42
70.00000000000007
 73
     0
 74
     0
 75
     0
  3
STANDARD_WS
100
AcDbAlignedDimension
 13
132.238597705927
 23
145.2265213585943
 33
0.0
 14
111.2811657351724
 24
75.26221592592903
 34
0.0
 50
90.0
100
AcDbRotatedDimension
1001
ACAD
1000
DSTYLE
1002
{
1070
   144
1040
1.000510182543999
1070
    40
1040
0.9994900776095029
1070
   173
1070
     1
1070
   271
1070
     1
1070
   272
1070
     1
1070
   288
1070
     1
1070
   343
1005
A5
1070
   344
1005
A5
1002
}
  0
DIMENSION
  5
DA
330
70
100
AcDbEntity
  8
寸法線
 48
0.9994900776095029
100
AcDbDimension
280
     0
  2
*D15
 10
113.847980277912
 20
68.07374365753625
 30
0.0
 11
93.85817872572216
 21
68.07374365753625
 31
0.0
 70
   160
 71
     5
 42
39.99999999999986
 73
     0
 74
     0
 75
     0
  3
STANDARD_WS
100
AcDbAlignedDimension
 13
73.86837717353206
 23
75.81881768645523
 33
0.0
 14
113.847980277912
 24
75.81881768645523
 34
0.0
100
AcDbRotatedDimension
1001
ACAD
1000
DSTYLE
1002
{
1070
   144
1040
1.000510182543999
1070
    40
1040
0.9994900776095029
1070
   173
1070
     1
1070
   271
1070
     1
1070
   272
1070
     1
1070
   288
1070
     1
1070
   343
1005
A5
1070
   344
1005
A5
1002
}
  0
DIMENSION
  5
E7
330
70
100
AcDbEntity
  8
寸法線
 48
0.9994900776095029
100
AcDbDimension
280
     0
  2
*D16
 10
111.2811657351726
 20
81.45905440710805
 30
0.0
 11
109.6805145421766
 21
85.81353347152802
 31
0.0
 70
   164
 71
     5
 42
3.000000000000107
 73
     0
 74
     0
 75
     0
  3
STANDARD_WS
100
AcDbRadialDimension
 15
112.3156866353358
 25
78.6447000860808
 35
0.0
 40
0.0
1001
ACAD
1000
DSTYLE
1002
{
1070
   144
1040
1.000510182543999
1070
    40
1040
0.9994900776095029
1070
   173
1070
     1
1070
   271
1070
     1
1070
   272
1070
     1
1070
   279
1070
     1
1070
   288
1070
     1
1070
   343
1005
A5
1070
   344
1005
A5
1002
}
  0
DIMENSION
  5
F0
330
70
100
AcDbEntity
  8
寸法線
 48
0.9994900776095029
100
AcDbDimension
280
     0
  2
*D17
 10
127.6409433489232
 20
97.81883202085911
 30
0.0
 11
123.3636987612777
 21
99.61570455433822
 31
0.0
 70
   164
 71
     5
 42
2.999999999999801
 73
     0
 74
     0
 75
     0
  3
STANDARD_WS
100
AcDbRadialDimension
 15
130.4053800609256
 25
96.65749081238899
 35
0.0
 40
0.0
1001
ACAD
1000
DSTYLE
1002
{
1070
   144
1040
1.000510182543999
1070
    40
1040
0.9994900776095029
1070
   173
1070
     1
1070
   271
1070
     1
1070
   272
1070
     1
1070
   279
1070
     1
1070
   288
1070
     1
1070
   343
1005
A5
1070
   344
1005
A5
1002
}
  0
LEADER
  5
F9
330
70
100
AcDbEntity
  8
寸法線
 48
0.9994900776095029
100
AcDbLeader
  3
STANDARD_WS
 73
     0
 75
     1
 40
3.202663464918581
 41
6.809281821367606
 76
     3
 10
130.6394135817518
 20
109.8586144262297
 30
0.0
 10
125.4832972885931
 20
113.1873637437542
 30
0.0
 10
122.9845720945693
 20
113.1873637437542
 30
0.0
340
FA
1001
ACAD
1000
DSTYLE
1002
{
1070
   341
1005
A5
1070
    40
1040
0.9994900776095029
1070
   173
1070
     1
1070
   271
1070
     1
1070
   272
1070
     1
1070
   287
1070
     4
1070
   288
1070
     1
1070
   343
1005
A5
1070
   344
1005
A5
1002
}
  0
MTEXT
  5
FA
102
{ACAD_REACTORS
330
F9
102
}
330
70
100
AcDbEntity
  8
寸法線
 48
0.9994900776095029
100
AcDbMText
 10
122.3598907960633
 20
115.4133767747194
 30
0.0
 40
2.498725194023757
 41
0.0
 46
0.0
 71
     6
 72
     1
  1
\A1;φ3.2
 73
     1
 44
1.0
  0
LINE
  5
FB
330
70
100
AcDbEntity
  8
基本図面
 48
0.9994900776095029
100
AcDbLine
 10
218.216251061639
 20
75.26221592592904
 30
0.0
 11
218.2162510616393
 21
75.26221592592904
 31
0.0
  0
LINE
  5
FC
330
70
100
AcDbEntity
  8
基本図面
 48
0.9994900776095029
100
AcDbLine
 10
219.8154351858143
 20
76.86140005010424
 30
0.0
 11
219.8154351858145
 21
138.7298358541324
 31
0.0
  0
LINE
  5
FD
330
70
100
AcDbEntity
  8
基本図面
 48
0.9994900776095029
100
AcDbLine
 10
213.3187496813525
 20
145.2265213585942
 30
0.0
 11
213.3187496813528
 21
145.2265213585942
 31
0.0
  0
LINE
  5
FE
330
70
100
AcDbEntity
  8
基本図面
 48
0.9994900776095029
100
AcDbLine
 10
216.617066937464
 20
95.25201747811911
 30
0.0
 11
219.8154351858143
 21
95.25201747811911
 31
0.0
  0
LINE
  5
FF
330
70
100
AcDbEntity
  8
基本図面
 48
0.9994900776095029
100
AcDbLine
 10
216.617066937464
 20
76.86140005010424
 30
0.0
 11
216.617066937464
 21
138.7298358541325
 31
0.0
  0
LINE
  5
100
330
70
100
AcDbEntity
  8
基本図面
 48
0.9994900776095029
100
AcDbLine
 10
206.8220641768907
 20
120.2392694183567
 30
0.0
 11
206.8220641768907
 21
138.7298358541325
 31
0.0
  0
LINE
  5
101
330
70
100
AcDbEntity
  8
基本図面
 48
0.9994900776095029
100
AcDbLine
 10
208.4212483010658
 20
120.2392694183567
 30
0.0
 11
208.421248301066
 21
120.2392694183567
 31
0.0
  0
LINE
  5
102
330
70
100
AcDbEntity
  8
基本図面
 48
0.9994900776095029
100
AcDbLine
 10
210.0204324252413
 20
120.2392694183567
 30
0.0
 11
210.020432425242
 21
138.7298358541326
 31
0.0
  0
LINE
  5
103
330
70
100
AcDbEntity
  8
基本図面
 48
0.9994900776095029
100
AcDbLine
 10
213.3187496813532
 20
142.0281531102439
 30
0.0
 11
213.3187496813525
 21
142.0281531102439
 31
0.0
  0
ARC
  5
104
330
70
100
AcDbEntity
  8
基本図面
 48
0.9994900776095029
100
AcDbCircle
 10
218.216251061639
 20
76.86140005010424
 30
0.0
 40
1.599184124175204
100
AcDbArc
 50
180.0
 51
270.0
  0
ARC
  5
105
330
70
100
AcDbEntity
  8
基本図面
 48
0.9994900776095029
100
AcDbCircle
 10
218.2162510616393
 20
76.86140005010424
 30
0.0
 40
1.599184124175204
100
AcDbArc
 50
270.0
 51
359.9999999999996
  0
ARC
  5
106
330
70
100
AcDbEntity
  8
基本図面
 48
0.9994900776095029
100
AcDbCircle
 10
213.3187496813532
 20
138.7298358541325
 30
0.0
 40
3.29831725611136
100
AcDbArc
 50
90.0
 51
179.9999999999988
  0
ARC
  5
107
330
70
100
AcDbEntity
  8
基本図面
 48
0.9994900776095029
100
AcDbCircle
 10
213.3187496813525
 20
138.7298358541325
 30
0.0
 40
3.29831725611136
100
AcDbArc
 50
0.0
 51
90.0
  0
ARC
  5
108
330
70
100
AcDbEntity
  8
基本図面
 48
0.9994900776095029
100
AcDbCircle
 10
213.3187496813525
 20
138.7298358541325
 30
0.0
 40
6.496685504461769
100
AcDbArc
 50
90.0
 51
180.0
  0
ARC
  5
109
330
70
100
AcDbEntity
  8
基本図面
 48
0.9994900776095029
100
AcDbCircle
 10
213.3187496813528
 20
138.7298358541325
 30
0.0
 40
6.496685504461769
100
AcDbArc
 50
359.9999999999996
 51
90.0
  0
LINE
  5
10A
330
70
100
AcDbEntity
  8
基本図面
 48
0.9994900776095029
100
AcDbLine
 10
210.0204324252413
 20
120.2392694183567
 30
0.0
 11
206.8220641768907
 21
120.2392694183567
 31
0.0
  0
DIMENSION
  5
10B
330
70
100
AcDbEntity
  8
寸法線
 48
0.9994900776095029
100
AcDbDimension
280
     0
  2
*D18
 10
219.8154351858145
 20
149.1727152413737
 30
0.0
 11
213.3187496813526
 21
151.0740303531974
 31
0.0
 70
    32
 71
     5
 42
13.00000000000022
 73
     0
 74
     0
 75
     0
  3
STANDARD_WS
100
AcDbAlignedDimension
 13
206.8220641768907
 23
138.7298358541325
 33
0.0
 14
219.8154351858145
 24
138.7298358541324
 34
0.0
100
AcDbRotatedDimension
1001
ACAD
1000
DSTYLE
1002
{
1070
   144
1040
1.000510182543999
1070
    40
1040
0.9994900776095029
1070
   173
1070
     1
1070
   271
1070
     1
1070
   272
1070
     1
1070
   279
1070
     1
1070
   288
1070
     1
1070
   343
1005
A5
1070
   344
1005
A5
1002
}
  0
DIMENSION
  5
118
330
70
100
AcDbEntity
  8
寸法線
 48
0.9994900776095029
100
AcDbDimension
280
     0
  2
*D19
 10
198.4200299052793
 20
120.2392694183567
 30
0.0
 11
196.5195670189651
 21
132.7328953884755
 31
0.0
 70
    32
 71
     5
 42
24.99999999999996
 73
     0
 74
     0
 75
     0
  3
STANDARD_WS
100
AcDbAlignedDimension
 13
213.3187496813528
 23
145.2265213585942
 33
0.0
 14
206.8220641768907
 24
120.2392694183567
 34
0.0
 50
90.0
100
AcDbRotatedDimension
1001
ACAD
1000
DSTYLE
1002
{
1070
   144
1040
1.000510182543999
1070
    40
1040
0.9994900776095029
1070
   173
1070
     1
1070
   271
1070
     1
1070
   272
1070
     1
1070
   279
1070
     1
1070
   288
1070
     1
1070
   343
1005
A5
1070
   344
1005
A5
1002
}
  0
ARC
  5
125
330
70
100
AcDbEntity
  8
基本図面
  6
HIDDEN2
 62
     9
 48
0.9994900776095029
100
AcDbCircle
 10
218.216251061639
 20
76.86140005010424
 30
0.0
 40
1.599184124175204
100
AcDbArc
 50
90.0
 51
180.0
  0
ARC
  5
126
330
70
100
AcDbEntity
  8
基本図面
  6
HIDDEN2
 62
     9
 48
0.9994900776095029
100
AcDbCircle
 10
218.2162510616393
 20
76.86140005010424
 30
0.0
 40
1.599184124175204
100
AcDbArc
 50
0.0000000000004073
 51
90.0
  0
INSERT
  5
269
330
70
100
AcDbEntity
  8
図面枠
100
AcDbBlockReference
  2
TITLE_BLOCK
 10
-5.235424494976541
 20
-4.708272101743148
 30
0.0
  0
LINE
  5
274
330
70
100
AcDbEntity
  8
図面枠
100
AcDbLine
 10
181.7645755050235
 20
5.291727903512253
 30
0.0
 11
181.7645755050235
 21
45.29172790351224
 31
0.0
  0
LINE
  5
275
330
70
100
AcDbEntity
  8
図面枠
100
AcDbLine
 10
281.7645755050234
 20
15.29172790351225
 30
0.0
 11
181.7645755050235
 21
15.29172790351225
 31
0.0
  0
LINE
  5
276
330
70
100
AcDbEntity
  8
図面枠
100
AcDbLine
 10
281.7645755050234
 20
25.29172790351225
 30
0.0
 11
242.7645755050235
 21
25.29172790351225
 31
0.0
  0
LINE
  5
277
330
70
100
AcDbEntity
  8
図面枠
100
AcDbLine
 10
281.7645755050234
 20
35.29172790351225
 30
0.0
 11
181.7645755050235
 21
35.29172790351225
 31
0.0
  0
LINE
  5
278
330
70
100
AcDbEntity
  8
図面枠
100
AcDbLine
 10
281.7645755050234
 20
45.29172790351225
 30
0.0
 11
181.7645755050235
 21
45.29172790351225
 31
0.0
  0
LINE
  5
279
330
70
100
AcDbEntity
  8
図面枠
100
AcDbLine
 10
196.7645755050235
 20
35.29172790351225
 30
0.0
 11
196.7645755050235
 21
45.29172790351224
 31
0.0
  0
LINE
  5
27A
330
70
100
AcDbEntity
  8
図面枠
100
AcDbLine
 10
186.7645755050235
 20
15.29172790351225
 30
0.0
 11
186.7645755050235
 21
35.29172790351225
 31
0.0
  0
LINE
  5
27B
330
70
100
AcDbEntity
  8
図面枠
100
AcDbLine
 10
199.7645755050235
 20
15.29172790351225
 30
0.0
 11
199.7645755050235
 21
35.29172790351225
 31
0.0
  0
LINE
  5
27C
330
70
100
AcDbEntity
  8
図面枠
100
AcDbLine
 10
204.7645755050235
 20
15.29172790351225
 30
0.0
 11
204.7645755050235
 21
35.29172790351225
 31
0.0
  0
LINE
  5
27D
330
70
100
AcDbEntity
  8
図面枠
100
AcDbLine
 10
217.7645755050235
 20
15.29172790351225
 30
0.0
 11
217.7645755050235
 21
25.29172790351225
 31
0.0
  0
LINE
  5
27E
330
70
100
AcDbEntity
  8
図面枠
100
AcDbLine
 10
222.7645755050235
 20
15.29172790351225
 30
0.0
 11
222.7645755050235
 21
25.29172790351225
 31
0.0
  0
LINE
  5
27F
330
70
100
AcDbEntity
  8
図面枠
100
AcDbLine
 10
235.7645755050235
 20
5.291727903512253
 30
0.0
 11
235.7645755050235
 21
35.29172790351225
 31
0.0
  0
LINE
  5
280
330
70
100
AcDbEntity
  8
図面枠
100
AcDbLine
 10
242.7645755050236
 20
5.291727903512253
 30
0.0
 11
242.7645755050235
 21
35.29172790351225
 31
0.0
  0
LINE
  5
281
330
70
100
AcDbEntity
  8
図面枠
100
AcDbLine
 10
235.7645755050235
 20
25.29172790351225
 30
0.0
 11
181.7645755050235
 21
25.29172790351225
 31
0.0
  0
MTEXT
  5
282
330
70
100
AcDbEntity
  8
図面枠
100
AcDbMText
 10
183.1960837740195
 20
43.30304212884811
 30
0.0
 40
4.0
 41
12.03643143182296
 46
0.0
 71
     1
 72
     5
  1
\fMS UI Gothic|b0|i0|c128|p2;名称
 73
     1
 44
1.0
  0
MTEXT
  5
283
330
70
100
AcDbEntity
  8
図面枠
100
AcDbMText
 10
184.2579230353821
 20
20.29172790351225
 30
0.0
 40
2.5
 41
4.98669506071708
 46
10.0
 71
     5
 72
     5
  1
{\fMS UI Gothic|b0|i0|c128|p50;縮尺}
 73
     1
 44
1.0
  0
MTEXT
  5
284
330
70
100
AcDbEntity
  8
図面枠
100
AcDbMText
 10
184.2579230353821
 20
30.29172790351225
 30
0.0
 40
2.5
 41
4.986695060717108
 46
9.999999999999998
 71
     5
 72
     5
  1
{\fMS UI Gothic|b0|i0|c128|p50;製図}
 73
     1
 44
1.0
  0
MTEXT
  5
285
330
70
100
AcDbEntity
  8
図面枠
100
AcDbMText
 10
202.2579230353821
 20
20.29172790351225
 30
0.0
 40
2.5
 41
4.986695060717108
 46
10.0
 71
     5
 72
     5
  1
{\fMS UI Gothic|b0|i0|c128|p50;検図}
 73
     1
 44
1.0
  0
MTEXT
  5
286
330
70
100
AcDbEntity
  8
図面枠
100
AcDbMText
 10
220.2645755050235
 20
20.29172790351225
 30
0.0
 40
2.5
 41
5.000000000000012
 46
10.0
 71
     5
 72
     5
  1
{\fMS UI Gothic|b0|i0|c128|p50;承認}
 73
     1
 44
1.0
  0
MTEXT
  5
287
330
70
100
AcDbEntity
  8
図面枠
100
AcDbMText
 10
239.2645755050236
 20
25.29172790351225
 30
0.0
 40
2.5
 41
7.00000000000004
 46
20.0
 71
     5
 72
     5
  1
{\fMS UI Gothic|b0|i0|c128|p50;訂　正}
 73
     1
 44
1.0
  0
MTEXT
  5
288
330
70
100
AcDbEntity
  8
図面枠
100
AcDbMText
 10
208.7645755050235
 20
10.29172790351225
 30
0.0
 40
4.0
 41
53.99999999999995
 46
10.0
 71
     5
 72
     5
  1
{\fMS UI Gothic|b0|i0|c128|p50;株式会社キョーワ}
 73
     1
 44
1.0
  0
MTEXT
  5
289
330
70
100
AcDbEntity
  8
図面枠
100
AcDbMText
 10
200.4249861881405
 20
42.98879028116442
 30
0.0
 40
4.0
 41
81.33958931688296
 46
0.0
 71
     1
 72
     5
  1
{\fMS UI Gothic|b0|i0|c128|p50;下部取付部品　B-4}
 73
     1
 44
1.0
  0
MTEXT
  5
28A
330
70
100
AcDbEntity
  8
図面枠
100
AcDbMText
 10
202.2645755050235
 20
30.29172790351225
 30
0.0
 40
2.5
 41
5.000000000000012
 46
10.0
 71
     5
 72
     5
  1
{\fMS UI Gothic|b0|i0|c128|p50;日付}
 73
     1
 44
1.0
  0
MTEXT
  5
28B
330
70
100
AcDbEntity
  8
図面枠
100
AcDbMText
 10
239.2645755050236
 20
10.29172790351225
 30
0.0
 40
2.5
 41
7.000000000000069
 46
10.0
 71
     5
 72
     5
  1
{\fMS UI Gothic|b0|i0|c128|p50;図\P番}
 73
     1
 44
1.0
  0
MTEXT
  5
28C
330
70
100
AcDbEntity
  8
図面枠
100
AcDbMText
 10
262.2645755050235
 20
10.29172790351225
 30
0.0
 40
4.0
 41
38.99999999999995
 46
10.0
 71
     5
 72
     5
  1
{\fMS UI Gothic|b0|i0|c128|p50;N1069C　0}
 73
     1
 44
1.0
  0
MTEXT
  5
28D
330
70
100
AcDbEntity
  8
図面枠
100
AcDbMText
 10
193.2645755050235
 20
20.4141313877312
 30
0.0
 40
4.0
 41
13.0
 46
10.2448069684379
 71
     5
 72
     5
  1
{\fMS UI Gothic|b0|i0|c128|p50;1：1}
 73
     1
 44
1.0
  0
MTEXT
  5
28E
330
70
100
AcDbEntity
  8
図面枠
100
AcDbMText
 10
55.30541685672545
 20
34.02419039976178
 30
0.0
 40
4.0
 41
104.2948669849054
 46
0.0
 71
     1
 72
     5
  1
{\fMS UI Gothic|b0|i0|c128|p50;材料：着色塗装7種亜鉛めっき鉄線　φ3.2}
 73
     1
 44
1.0
  0
ENDSEC
  0
SECTION
  2
OBJECTS
  0
DICTIONARY
  5
C
330
0
100
AcDbDictionary
281
     1
  3
ACAD_CIP_PREVIOUS_PRODUCT_INFO
350
2EC
  3
ACAD_COLOR
350
63
  3
ACAD_DETAILVIEWSTYLE
350
6A
  3
ACAD_GROUP
350
D
  3
ACAD_LAYOUT
350
62
  3
ACAD_MATERIAL
350
10
  3
ACAD_MLEADERSTYLE
350
66
  3
ACAD_MLINESTYLE
350
5F
  3
ACAD_PLOTSETTINGS
350
61
  3
ACAD_PLOTSTYLENAME
350
E
  3
ACAD_SCALELIST
350
42
  3
ACAD_SECTIONVIEWSTYLE
350
68
  3
ACAD_TABLESTYLE
350
64
  3
ACAD_VISUALSTYLE
350
29
  3
ACDB_RECOMPOSE_DATA
350
2F2
  3
AcDbVariableDictionary
350
2D9
  0
DICTIONARY
  5
2ED
330
54
100
AcDbDictionary
280
     1
281
     1
  3
ADSK_XREC_LAYER_RECONCILED
360
2EE
  0
DICTIONARY
  5
7E
330
7D
100
AcDbDictionary
280
     1
281
     1
  3
ADSK_XREC_LAYER_RECONCILED
360
7F
  0
DICTIONARY
  5
82
330
81
100
AcDbDictionary
280
     1
281
     1
  3
ADSK_XREC_LAYER_RECONCILED
360
83
  0
DICTIONARY
  5
9D
330
9C
100
AcDbDictionary
280
     1
281
     1
  3
ADSK_XREC_LAYER_RECONCILED
360
9E
  0
DICTIONARY
  5
26B
330
26A
100
AcDbDictionary
280
     1
281
     1
  3
ADSK_XREC_LAYER_RECONCILED
360
26C
  0
DICTIONARY
  5
267
330
70
100
AcDbDictionary
280
     1
281
     1
  3
ACAD_SORTENTS
360
268
  0
XRECORD
  5
2EC
102
{ACAD_REACTORS
330
C
102
}
330
C
100
AcDbXrecord
280
     1
300
ACDLT
300
2021
300

  0
DICTIONARY
  5
63
102
{ACAD_REACTORS
330
C
102
}
330
C
100
AcDbDictionary
281
     1
  0
DICTIONARY
  5
6A
102
{ACAD_REACTORS
330
C
102
}
330
C
100
AcDbDictionary
281
     1
  3
Imperial24
350
6B
  3
Metric50
350
2E6
  0
DICTIONARY
  5
D
102
{ACAD_REACTORS
330
C
102
}
330
C
100
AcDbDictionary
281
     1
  0
DICTIONARY
  5
62
102
{ACAD_REACTORS
330
C
102
}
330
C
100
AcDbDictionary
281
     1
  3
Model
350
73
  3
レイアウト1
350
6F
  3
レイアウト2
350
77
  0
DICTIONARY
  5
10
102
{ACAD_REACTORS
330
C
102
}
330
C
100
AcDbDictionary
281
     1
  3
ByBlock
350
19
  3
ByLayer
350
11
  3
Global
350
21
  0
DICTIONARY
  5
66
102
{ACAD_REACTORS
330
C
102
}
330
C
100
AcDbDictionary
281
     1
  3
Standard
350
67
  0
DICTIONARY
  5
5F
102
{ACAD_REACTORS
330
C
102
}
330
C
100
AcDbDictionary
281
     1
  3
Standard
350
60
  0
DICTIONARY
  5
61
102
{ACAD_REACTORS
330
C
102
}
330
C
100
AcDbDictionary
281
     1
  0
ACDBDICTIONARYWDFLT
  5
E
102
{ACAD_REACTORS
330
C
102
}
330
C
100
AcDbDictionary
281
     1
  3
Normal
350
F
100
AcDbDictionaryWithDefault
340
F
  0
DICTIONARY
  5
42
102
{ACAD_REACTORS
330
C
102
}
330
C
100
AcDbDictionary
281
     1
  3
A0
350
43
  3
A1
350
44
  3
A2
350
45
  3
A3
350
46
  3
A4
350
47
  3
A5
350
48
  3
A6
350
49
  3
A7
350
4A
  3
A8
350
4B
  3
A9
350
4C
  3
B0
350
4D
  3
B1
350
4E
  3
B2
350
4F
  3
B3
350
50
  3
B4
350
51
  3
B5
350
52
  3
B6
350
53
  0
DICTIONARY
  5
68
102
{ACAD_REACTORS
330
C
102
}
330
C
100
AcDbDictionary
281
     1
  3
Imperial24
350
69
  3
Metric50
350
2E5
  0
DICTIONARY
  5
64
102
{ACAD_REACTORS
330
C
102
}
330
C
100
AcDbDictionary
281
     1
  3
Standard
350
65
  0
DICTIONARY
  5
29
102
{ACAD_REACTORS
330
C
102
}
330
C
100
AcDbDictionary
281
     1
  3
2dWireframe
350
2F
  3
Basic
350
2E
  3
Brighten
350
35
  3
ColorChange
350
39
  3
Conceptual
350
32
  3
Dim
350
34
  3
EdgeColorOff
350
41
  3
Facepattern
350
38
  3
Flat
350
2A
  3
FlatWithEdges
350
2B
  3
Gouraud
350
2C
  3
GouraudWithEdges
350
2D
  3
Hidden
350
31
  3
JitterOff
350
3F
  3
Linepattern
350
37
  3
OverhangOff
350
40
  3
Realistic
350
33
  3
Shaded
350
3E
  3
Shaded with edges
350
3D
  3
Shades of Gray
350
3A
  3
Sketchy
350
3B
  3
Thicken
350
36
  3
Wireframe
350
30
  3
X-Ray
350
3C
  0
XRECORD
  5
2F2
102
{ACAD_REACTORS
330
C
102
}
330
C
100
AcDbXrecord
280
     1
 90
        1
330
65
  0
DICTIONARY
  5
2D9
102
{ACAD_REACTORS
330
C
102
}
330
C
100
AcDbDictionary
281
     1
  3
ANNOALLVISIBLE
350
2DF
  3
CANNOSCALE
350
2E0
  3
CMLEADERSTYLE
350
2DB
  3
CTABLESTYLE
350
2DA
  3
CVIEWDETAILSTYLE
350
2DC
  3
CVIEWSECTIONSTYLE
350
2DD
  3
LAYEREVAL
350
2E2
  3
LAYERNOTIFY
350
2E3
  3
LIGHTINGUNITS
350
2E1
  3
MSLTSCALE
350
2DE
  0
XRECORD
  5
2EE
102
{ACAD_REACTORS
330
2ED
102
}
330
2ED
100
AcDbXrecord
280
     1
290
     1
  0
XRECORD
  5
7F
102
{ACAD_REACTORS
330
7E
102
}
330
7E
100
AcDbXrecord
280
     1
290
     1
  0
XRECORD
  5
83
102
{ACAD_REACTORS
330
82
102
}
330
82
100
AcDbXrecord
280
     1
290
     1
  0
XRECORD
  5
9E
102
{ACAD_REACTORS
330
9D
102
}
330
9D
100
AcDbXrecord
280
     1
290
     1
  0
XRECORD
  5
26C
102
{ACAD_REACTORS
330
26B
102
}
330
26B
100
AcDbXrecord
280
     1
290
     1
  0
SORTENTSTABLE
  5
268
102
{ACAD_REACTORS
330
267
102
}
330
267
100
AcDbSortentsTable
330
70
  0
ACDBDETAILVIEWSTYLE
  5
6B
102
{ACAD_REACTORS
330
6A
102
}
330
6A
100
AcDbModelDocViewStyle
 70
     0
  3
Imperial24
290
     1
300
Imperial24
 90
        0
100
AcDbDetailViewStyle
 70
     0
 71
     0
 90
        3
 71
     1
340
55
 62
   256
 40
0.24
340
0
 62
   256
 40
0.24
300

 40
0.36
280
     3
 71
     2
340
5D
 90
       25
 62
   256
 71
     3
340
55
 62
   256
 40
0.24
 90
        1
 40
0.75
 90
        1
300
%<\AcVar ViewType \f "%tc1">% %<\AcVar ViewDetailId>%\PSCALE %<\AcVar ViewScale \f "%sn">%
 71
     4
340
5D
 90
       25
 62
   256
340
5D
 90
       25
 62
   256
280
     0
  0
ACDBDETAILVIEWSTYLE
  5
2E6
102
{ACAD_REACTORS
330
6A
102
}
330
6A
100
AcDbModelDocViewStyle
 70
     0
  3
Metric50
290
     1
300
Metric50
 90
        0
100
AcDbDetailViewStyle
 70
     0
 71
     0
 90
        3
 71
     1
340
55
 62
   256
 40
5.0
340
0
 62
   256
 40
5.0
300

 40
0.0
280
     1
 71
     2
340
5D
 90
       25
 62
   256
 71
     3
340
55
 62
   256
 40
5.0
 90
        0
 40
15.0
 90
        1
300
%<\AcVar ViewDetailId>% (%<\AcVar ViewScale \f "%sn">%)
 71
     4
340
5D
 90
       25
 62
   256
340
5D
 90
       25
 62
   256
280
     0
  0
LAYOUT
  5
73
102
{ACAD_REACTORS
330
62
102
}
330
62
100
AcDbPlotSettings
  1

  2
RICOH MP C3003 JPN RPCS V2
  4
A4
  6

 40
5.079999923706054
 41
5.154022216796875
 42
5.106658935546875
 43
5.079986572265625
 44
210.0
 45
297.0
 46
0.0
 47
0.0
 48
0.0
 49
0.0
140
0.0
141
0.0
142
1.0
143
1.769408744107597
 70
 11952
 72
     1
 73
     1
 74
     0
  7

 75
     0
147
0.5651605392649684
 76
     0
 77
     2
 78
   300
148
111.5215257921445
149
5.298328214856951
100
AcDbLayout
  1
Model
 70
     1
 71
     0
 10
0.0
 20
0.0
 11
12.0
 21
9.0
 12
0.0
 22
0.0
 32
0.0
 14
0.0
 24
0.0
 34
0.0
 15
0.0
 25
0.0
 35
0.0
146
0.0
 13
0.0
 23
0.0
 33
0.0
 16
1.0
 26
0.0
 36
0.0
 17
0.0
 27
1.0
 37
0.0
 76
     0
330
70
331
57
1001
ACAD_PSEXT
1000
RICOH MP C3003 JPN RPCS V2
1000
RICOH MP C3003 JPN RPCS V2
1000
IP_192.168.1.100
1000
RPCS Driver (For Windows)
1070
     0
  0
LAYOUT
  5
6F
102
{ACAD_REACTORS
330
62
102
}
330
62
100
AcDbPlotSettings
  1

  2
RICOH MP C3003 JPN RPCS V2
  4

  6

 40
0.0
 41
0.0
 42
0.0
 43
0.0
 44
0.0
 45
0.0
 46
0.0
 47
0.0
 48
0.0
 49
0.0
140
0.0
141
0.0
142
1.0
143
1.0
 70
   688
 72
     0
 73
     0
 74
     5
  7

 75
    16
147
1.0
 76
     0
 77
     2
 78
   300
148
0.0
149
0.0
100
AcDbLayout
  1
レイアウト1
 70
     0
 71
     1
 10
0.0
 20
0.0
 11
12.0
 21
9.0
 12
0.0
 22
0.0
 32
0.0
 14
1.000000000000000E+20
 24
1.000000000000000E+20
 34
1.000000000000000E+20
 15
-1.000000000000000E+20
 25
-1.000000000000000E+20
 35
-1.000000000000000E+20
146
0.0
 13
0.0
 23
0.0
 33
0.0
 16
1.0
 26
0.0
 36
0.0
 17
0.0
 27
1.0
 37
0.0
 76
     0
330
6C
  0
LAYOUT
  5
77
102
{ACAD_REACTORS
330
62
102
}
330
62
100
AcDbPlotSettings
  1

  2
RICOH MP C3003 JPN RPCS V2
  4

  6

 40
0.0
 41
0.0
 42
0.0
 43
0.0
 44
0.0
 45
0.0
 46
0.0
 47
0.0
 48
0.0
 49
0.0
140
0.0
141
0.0
142
1.0
143
1.0
 70
   688
 72
     0
 73
     0
 74
     5
  7

 75
    16
147
1.0
 76
     0
 77
     2
 78
   300
148
0.0
149
0.0
100
AcDbLayout
  1
レイアウト2
 70
     1
 71
     2
 10
0.0
 20
0.0
 11
12.0
 21
9.0
 12
0.0
 22
0.0
 32
0.0
 14
0.0
 24
0.0
 34
0.0
 15
0.0
 25
0.0
 35
0.0
146
0.0
 13
0.0
 23
0.0
 33
0.0
 16
1.0
 26
0.0
 36
0.0
 17
0.0
 27
1.0
 37
0.0
 76
     0
330
74
  0
MATERIAL
  5
19
102
{ACAD_XDICTIONARY
360
1A
102
}
102
{ACAD_REACTORS
330
10
102
}
330
10
100
AcDbMaterial
  1
ByBlock
 72
     0
 43
0.0208333333333333
 43
0.0
 43
0.0
 43
0.0
 43
0.0
 43
0.0208333333333333
 43
0.0
 43
0.0
 43
0.0
 43
0.0
 43
1.0
 43
0.0
 43
0.0
 43
0.0
 43
0.0
 43
1.0
 77
     0
 47
0.0208333333333333
 47
0.0
 47
0.0
 47
0.0
 47
0.0
 47
0.0208333333333333
 47
0.0
 47
0.0
 47
0.0
 47
0.0
 47
1.0
 47
0.0
 47
0.0
 47
0.0
 47
0.0
 47
1.0
171
     0
 49
0.0208333333333333
 49
0.0
 49
0.0
 49
0.0
 49
0.0
 49
0.0208333333333333
 49
0.0
 49
0.0
 49
0.0
 49
0.0
 49
1.0
 49
0.0
 49
0.0
 49
0.0
 49
0.0
 49
1.0
175
     0
142
0.0208333333333333
142
0.0
142
0.0
142
0.0
142
0.0
142
0.0208333333333333
142
0.0
142
0.0
142
0.0
142
0.0
142
1.0
142
0.0
142
0.0
142
0.0
142
0.0
142
1.0
179
     0
144
0.0208333333333333
144
0.0
144
0.0
144
0.0
144
0.0
144
0.0208333333333333
144
0.0
144
0.0
144
0.0
144
0.0
144
1.0
144
0.0
144
0.0
144
0.0
144
0.0
144
1.0
147
0.0208333333333333
147
0.0
147
0.0
147
0.0
147
0.0
147
0.0208333333333333
147
0.0
147
0.0
147
0.0
147
0.0
147
1.0
147
0.0
147
0.0
147
0.0
147
0.0
147
1.0
  0
MATERIAL
  5
11
102
{ACAD_XDICTIONARY
360
12
102
}
102
{ACAD_REACTORS
330
10
102
}
330
10
100
AcDbMaterial
  1
ByLayer
 72
     0
 43
0.0208333333333333
 43
0.0
 43
0.0
 43
0.0
 43
0.0
 43
0.0208333333333333
 43
0.0
 43
0.0
 43
0.0
 43
0.0
 43
1.0
 43
0.0
 43
0.0
 43
0.0
 43
0.0
 43
1.0
 77
     0
 47
0.0208333333333333
 47
0.0
 47
0.0
 47
0.0
 47
0.0
 47
0.0208333333333333
 47
0.0
 47
0.0
 47
0.0
 47
0.0
 47
1.0
 47
0.0
 47
0.0
 47
0.0
 47
0.0
 47
1.0
171
     0
 49
0.0208333333333333
 49
0.0
 49
0.0
 49
0.0
 49
0.0
 49
0.0208333333333333
 49
0.0
 49
0.0
 49
0.0
 49
0.0
 49
1.0
 49
0.0
 49
0.0
 49
0.0
 49
0.0
 49
1.0
175
     0
142
0.0208333333333333
142
0.0
142
0.0
142
0.0
142
0.0
142
0.0208333333333333
142
0.0
142
0.0
142
0.0
142
0.0
142
1.0
142
0.0
142
0.0
142
0.0
142
0.0
142
1.0
179
     0
144
0.0208333333333333
144
0.0
144
0.0
144
0.0
144
0.0
144
0.0208333333333333
144
0.0
144
0.0
144
0.0
144
0.0
144
1.0
144
0.0
144
0.0
144
0.0
144
0.0
144
1.0
147
0.0208333333333333
147
0.0
147
0.0
147
0.0
147
0.0
147
0.0208333333333333
147
0.0
147
0.0
147
0.0
147
0.0
147
1.0
147
0.0
147
0.0
147
0.0
147
0.0
147
1.0
  0
MATERIAL
  5
21
102
{ACAD_XDICTIONARY
360
22
102
}
102
{ACAD_REACTORS
330
10
102
}
330
10
100
AcDbMaterial
  1
Global
 72
     0
 43
0.0208333333333333
 43
0.0
 43
0.0
 43
0.0
 43
0.0
 43
0.0208333333333333
 43
0.0
 43
0.0
 43
0.0
 43
0.0
 43
1.0
 43
0.0
 43
0.0
 43
0.0
 43
0.0
 43
1.0
 77
     0
 47
0.0208333333333333
 47
0.0
 47
0.0
 47
0.0
 47
0.0
 47
0.0208333333333333
 47
0.0
 47
0.0
 47
0.0
 47
0.0
 47
1.0
 47
0.0
 47
0.0
 47
0.0
 47
0.0
 47
1.0
171
     0
 49
0.0208333333333333
 49
0.0
 49
0.0
 49
0.0
 49
0.0
 49
0.0208333333333333
 49
0.0
 49
0.0
 49
0.0
 49
0.0
 49
1.0
 49
0.0
 49
0.0
 49
0.0
 49
0.0
 49
1.0
175
     0
142
0.0208333333333333
142
0.0
142
0.0
142
0.0
142
0.0
142
0.0208333333333333
142
0.0
142
0.0
142
0.0
142
0.0
142
1.0
142
0.0
142
0.0
142
0.0
142
0.0
142
1.0
179
     0
144
0.0208333333333333
144
0.0
144
0.0
144
0.0
144
0.0
144
0.0208333333333333
144
0.0
144
0.0
144
0.0
144
0.0
144
1.0
144
0.0
144
0.0
144
0.0
144
0.0
144
1.0
147
0.0208333333333333
147
0.0
147
0.0
147
0.0
147
0.0
147
0.0208333333333333
147
0.0
147
0.0
147
0.0
147
0.0
147
1.0
147
0.0
147
0.0
147
0.0
147
0.0
147
1.0
  0
MLEADERSTYLE
  5
67
102
{ACAD_REACTORS
330
66
102
}
330
66
100
AcDbMLeaderStyle
179
     2
170
     2
171
     1
172
     0
 90
        2
 40
0.0
 41
0.0
173
     1
 91
-1056964608
340
5B
 92
       -2
290
     1
 42
0.09
291
     1
 43
0.36
  3
Standard
 44
0.18
300

342
55
174
     1
178
     6
175
     1
176
     0
 93
-1056964608
 45
0.18
292
     0
297
     0
 46
0.18
 94
-1056964608
 47
1.0
 49
1.0
140
1.0
293
     1
141
0.0
294
     1
177
     0
142
1.0
295
     1
296
     0
143
0.125
271
     0
272
     9
273
     9
298
     1
  0
MLINESTYLE
  5
60
102
{ACAD_REACTORS
330
5F
102
}
330
5F
100
AcDbMlineStyle
  2
STANDARD
 70
     0
  3

 62
   256
 51
90.0
 52
90.0
 71
     2
 49
0.5
 62
   256
  6
BYLAYER
 49
-0.5
 62
   256
  6
BYLAYER
  0
ACDBPLACEHOLDER
  5
F
102
{ACAD_REACTORS
330
E
102
}
330
E
  0
SCALE
  5
43
102
{ACAD_REACTORS
330
42
102
}
330
42
100
AcDbScale
 70
     0
300
1:1
140
1.0
141
1.0
290
     1
  0
SCALE
  5
44
102
{ACAD_REACTORS
330
42
102
}
330
42
100
AcDbScale
 70
     0
300
1:2
140
1.0
141
2.0
290
     0
  0
SCALE
  5
45
102
{ACAD_REACTORS
330
42
102
}
330
42
100
AcDbScale
 70
     0
300
1:4
140
1.0
141
4.0
290
     0
  0
SCALE
  5
46
102
{ACAD_REACTORS
330
42
102
}
330
42
100
AcDbScale
 70
     0
300
1:5
140
1.0
141
5.0
290
     0
  0
SCALE
  5
47
102
{ACAD_REACTORS
330
42
102
}
330
42
100
AcDbScale
 70
     0
300
1:8
140
1.0
141
8.0
290
     0
  0
SCALE
  5
48
102
{ACAD_REACTORS
330
42
102
}
330
42
100
AcDbScale
 70
     0
300
1:10
140
1.0
141
10.0
290
     0
  0
SCALE
  5
49
102
{ACAD_REACTORS
330
42
102
}
330
42
100
AcDbScale
 70
     0
300
1:16
140
1.0
141
16.0
290
     0
  0
SCALE
  5
4A
102
{ACAD_REACTORS
330
42
102
}
330
42
100
AcDbScale
 70
     0
300
1:20
140
1.0
141
20.0
290
     0
  0
SCALE
  5
4B
102
{ACAD_REACTORS
330
42
102
}
330
42
100
AcDbScale
 70
     0
300
1:30
140
1.0
141
30.0
290
     0
  0
SCALE
  5
4C
102
{ACAD_REACTORS
330
42
102
}
330
42
100
AcDbScale
 70
     0
300
1:40
140
1.0
141
40.0
290
     0
  0
SCALE
  5
4D
102
{ACAD_REACTORS
330
42
102
}
330
42
100
AcDbScale
 70
     0
300
1:50
140
1.0
141
50.0
290
     0
  0
SCALE
  5
4E
102
{ACAD_REACTORS
330
42
102
}
330
42
100
AcDbScale
 70
     0
300
1:100
140
1.0
141
100.0
290
     0
  0
SCALE
  5
4F
102
{ACAD_REACTORS
330
42
102
}
330
42
100
AcDbScale
 70
     0
300
2:1
140
2.0
141
1.0
290
     0
  0
SCALE
  5
50
102
{ACAD_REACTORS
330
42
102
}
330
42
100
AcDbScale
 70
     0
300
4:1
140
4.0
141
1.0
290
     0
  0
SCALE
  5
51
102
{ACAD_REACTORS
330
42
102
}
330
42
100
AcDbScale
 70
     0
300
8:1
140
8.0
141
1.0
290
     0
  0
SCALE
  5
52
102
{ACAD_REACTORS
330
42
102
}
330
42
100
AcDbScale
 70
     0
300
10:1
140
10.0
141
1.0
290
     0
  0
SCALE
  5
53
102
{ACAD_REACTORS
330
42
102
}
330
42
100
AcDbScale
 70
     0
300
100:1
140
100.0
141
1.0
290
     0
  0
ACDBSECTIONVIEWSTYLE
  5
69
102
{ACAD_REACTORS
330
68
102
}
330
68
100
AcDbModelDocViewStyle
 70
     0
  3
Imperial24
290
     1
300
Imperial24
 90
        0
100
AcDbSectionViewStyle
 70
     0
 71
     0
 90
       78
 71
     1
340
55
 62
   256
 40
0.24
340
0
340
0
 62
   256
 40
0.24
300
I, O, Q, S, X, Z
 40
0.48
 90
        3
 40
0.18
 90
        1
 71
     2
340
5D
 90
       25
 62
   256
340
5D
 90
       50
 62
   256
 40
0.24
 40
0.0
 40
0.24
 71
     3
340
55
 62
   256
 40
0.24
 90
        1
 40
0.75
 90
        1
300
%<\AcVar ViewType \f "%tc1">% %<\AcVar ViewSectionStartId>%-%<\AcVar ViewSectionEndId>%\PSCALE %<\AcVar ViewScale \f "%sn">%
 71
     4
 62
   256
 62
   257
300
ANSI31
 40
1.0
 90
        0
290
     0
290
     0
 90
        6
 40
0.0
 40
1.570796326794896
 40
0.2617993877991494
 40
1.308996938995747
 40
-0.2617993877991494
 40
1.832595714594046
  0
ACDBSECTIONVIEWSTYLE
  5
2E5
102
{ACAD_REACTORS
330
68
102
}
330
68
100
AcDbModelDocViewStyle
 70
     0
  3
Metric50
290
     1
300
Metric50
 90
        0
100
AcDbSectionViewStyle
 70
     0
 71
     0
 90
      102
 71
     1
340
55
 62
   256
 40
5.0
340
0
340
0
 62
   256
 40
5.0
300
I, O, Q, S, X, Z
 40
10.0
 90
        0
 40
2.5
 90
        0
 71
     2
340
5D
 90
       25
 62
   256
340
5D
 90
       50
 62
   256
 40
5.0
 40
2.5
 40
5.0
 71
     3
340
55
 62
   256
 40
5.0
 90
        0
 40
15.0
 90
        1
300
%<\AcVar ViewSectionStartId>%-%<\AcVar ViewSectionEndId>% (%<\AcVar ViewScale \f "%sn">%)
 71
     4
 62
   256
 62
   257
300
ANSI31
 40
1.0
 90
        0
290
     0
290
     0
 90
        6
 40
0.0
 40
1.570796326794896
 40
0.2617993877991494
 40
1.308996938995747
 40
-0.2617993877991494
 40
1.832595714594046
  0
TABLESTYLE
  5
65
102
{ACAD_XDICTIONARY
360
2F0
102
}
102
{ACAD_REACTORS
330
64
102
}
330
64
100
AcDbTableStyle
280
     0
  3
Standard
 70
     0
 71
     3
 40
1.5
 41
1.5
280
     0
281
     0
  7
STANDARD
140
2.5
170
     2
 62
     0
 63
     7
283
     0
 90
      512
 91
        0
  1

274
    -2
284
     1
 64
     0
275
    -2
285
     1
 65
     0
276
    -2
286
     1
 66
     0
277
    -2
287
     1
 67
     0
278
    -2
288
     1
 68
     0
279
    -2
289
     1
 69
     0
  7
STANDARD
140
2.5
170
     5
 62
     0
 63
     7
283
     0
 90
      512
 91
        0
  1

274
    -2
284
     1
 64
     0
275
    -2
285
     1
 65
     0
276
    -2
286
     1
 66
     0
277
    -2
287
     1
 67
     0
278
    -2
288
     1
 68
     0
279
    -2
289
     1
 69
     0
  7
STANDARD
140
2.5
170
     5
 62
     0
 63
     7
283
     0
 90
      512
 91
        0
  1

274
    -2
284
     1
 64
     0
275
    -2
285
     1
 65
     0
276
    -2
286
     1
 66
     0
277
    -2
287
     1
 67
     0
278
    -2
288
     1
 68
     0
279
    -2
289
     1
 69
     0
  0
VISUALSTYLE
  5
2F
102
{ACAD_REACTORS
330
29
102
}
330
29
100
AcDbVisualStyle
  2
2dWireframe
 70
     4
177
     3
291
     0
 70
    58
 90
        0
176
     1
 90
        2
176
     1
 90
        0
176
     1
 90
        0
176
     1
 40
0.6
176
     1
 40
30.0
176
     1
 62
     7
420
 16777215
176
     1
 90
        1
176
     1
 90
        4
176
     1
 62
     7
176
     1
 62
   257
176
     1
 90
        1
176
     1
 90
        1
176
     1
 40
1.0
176
     1
 90
        0
176
     1
 62
   257
176
     1
 40
1.0
176
     1
 90
        1
176
     1
 90
        6
176
     1
 90
        2
176
     1
 62
     7
176
     1
 90
        5
176
     1
 90
        0
176
     1
 90
        0
176
     1
290
     0
176
     1
 90
        1
176
     1
 40
0.0
176
     1
 90
        0
176
     1
290
     1
176
     1
290
     1
176
     1
290
     0
176
     1
290
     0
176
     1
290
     0
176
     1
290
     0
176
     1
290
     0
176
     1
290
     0
176
     1
290
     0
176
     1
 90
       50
176
     1
 40
0.0
176
     1
 40
1.0
176
     1
 90
        0
176
     1
 62
    18
420
        0
176
     1
 90
       50
176
     1
 90
        3
176
     1
 62
     5
420
      255
176
     1
290
     0
176
     1
 90
       50
176
     1
 90
       50
176
     1
 90
       50
176
     1
290
     0
176
     1
 90
       50
176
     1
 62
   256
176
     0
 40
1.0
176
     0
 90
        2
176
     1
  1
strokes_ogs.tif
176
     1
290
     0
176
     1
 40
1.0
176
     1
 40
1.0
176
     1
  0
VISUALSTYLE
  5
2E
102
{ACAD_REACTORS
330
29
102
}
330
29
100
AcDbVisualStyle
  2
Basic
 70
     7
177
     3
291
     1
 70
    58
 90
        1
176
     1
 90
        0
176
     1
 90
        1
176
     1
 90
        0
176
     1
 40
0.6
176
     1
 40
30.0
176
     1
 62
     7
420
 16777215
176
     1
 90
        0
176
     1
 90
        4
176
     1
 62
     7
176
     1
 62
   257
176
     1
 90
        1
176
     1
 90
        1
176
     1
 40
1.0
176
     1
 90
        8
176
     1
 62
     7
176
     1
 40
1.0
176
     1
 90
        1
176
     1
 90
        6
176
     1
 90
        2
176
     1
 62
     7
176
     1
 90
        5
176
     1
 90
        0
176
     1
 90
        0
176
     1
290
     0
176
     1
 90
        1
176
     1
 40
0.0
176
     1
 90
        0
176
     1
290
     0
176
     1
290
     1
176
     1
290
     1
176
     1
290
     0
176
     1
290
     0
176
     1
290
     0
176
     1
290
     0
176
     1
290
     0
176
     1
290
     0
176
     1
 90
       50
176
     1
 40
0.0
176
     1
 40
1.0
176
     1
 90
        0
176
     1
 62
    18
420
        0
176
     1
 90
       50
176
     1
 90
        3
176
     1
 62
     5
420
      255
176
     1
290
     0
176
     1
 90
       50
176
     1
 90
       50
176
     1
 90
       50
176
     1
290
     0
176
     1
 90
       50
176
     1
 62
   256
176
     0
 40
1.0
176
     0
 90
        2
176
     1
  1
strokes_ogs.tif
176
     1
290
     0
176
     1
 40
1.0
176
     1
 40
1.0
176
     1
  0
VISUALSTYLE
  5
35
102
{ACAD_REACTORS
330
29
102
}
330
29
100
AcDbVisualStyle
  2
Brighten
 70
    12
177
     3
291
     1
 70
    58
 90
        2
176
     1
 90
        2
176
     1
 90
        0
176
     1
 90
        0
176
     1
 40
0.6
176
     1
 40
30.0
176
     1
 62
     7
420
 16777215
176
     1
 90
        1
176
     1
 90
        4
176
     1
 62
     7
176
     1
 62
   257
176
     1
 90
        1
176
     1
 90
        1
176
     1
 40
1.0
176
     1
 90
        8
176
     1
 62
     7
176
     1
 40
1.0
176
     1
 90
        1
176
     1
 90
        6
176
     1
 90
        2
176
     1
 62
     7
176
     1
 90
        5
176
     1
 90
        0
176
     1
 90
        0
176
     1
290
     0
176
     1
 90
        1
176
     1
 40
50.0
176
     1
 90
        0
176
     1
290
     0
176
     1
290
     1
176
     1
290
     1
176
     1
290
     0
176
     1
290
     0
176
     1
290
     0
176
     1
290
     0
176
     1
290
     0
176
     1
290
     0
176
     1
 90
       50
176
     1
 40
0.0
176
     1
 40
1.0
176
     1
 90
        0
176
     1
 62
    18
420
        0
176
     1
 90
       50
176
     1
 90
        3
176
     1
 62
     5
420
      255
176
     1
290
     0
176
     1
 90
       50
176
     1
 90
       50
176
     1
 90
       50
176
     1
290
     0
176
     1
 90
       50
176
     1
 62
   256
176
     0
 40
1.0
176
     0
 90
        2
176
     1
  1
strokes_ogs.tif
176
     1
290
     0
176
     1
 40
1.0
176
     1
 40
1.0
176
     1
  0
VISUALSTYLE
  5
39
102
{ACAD_REACTORS
330
29
102
}
330
29
100
AcDbVisualStyle
  2
ColorChange
 70
    16
177
     3
291
     1
 70
    58
 90
        2
176
     1
 90
        2
176
     1
 90
        3
176
     1
 90
        0
176
     1
 40
0.6
176
     1
 40
30.0
176
     1
 62
     8
420
  8421504
176
     1
 90
        1
176
     1
 90
        4
176
     1
 62
     7
176
     1
 62
   257
176
     1
 90
        1
176
     1
 90
        1
176
     1
 40
1.0
176
     1
 90
        8
176
     1
 62
     8
420
  8421504
176
     1
 40
1.0
176
     1
 90
        1
176
     1
 90
        6
176
     1
 90
        2
176
     1
 62
     7
176
     1
 90
        5
176
     1
 90
        0
176
     1
 90
        0
176
     1
290
     0
176
     1
 90
        1
176
     1
 40
0.0
176
     1
 90
        0
176
     1
290
     0
176
     1
290
     1
176
     1
290
     1
176
     1
290
     0
176
     1
290
     0
176
     1
290
     0
176
     1
290
     0
176
     1
290
     0
176
     1
290
     0
176
     1
 90
       50
176
     1
 40
0.0
176
     1
 40
1.0
176
     1
 90
        0
176
     1
 62
    18
420
        0
176
     1
 90
       50
176
     1
 90
        3
176
     1
 62
     5
420
      255
176
     1
290
     0
176
     1
 90
       50
176
     1
 90
       50
176
     1
 90
       50
176
     1
290
     0
176
     1
 90
       50
176
     1
 62
   256
176
     0
 40
1.0
176
     0
 90
        2
176
     1
  1
strokes_ogs.tif
176
     1
290
     0
176
     1
 40
1.0
176
     1
 40
1.0
176
     1
  0
VISUALSTYLE
  5
32
102
{ACAD_REACTORS
330
29
102
}
330
29
100
AcDbVisualStyle
  2
Conceptual
 70
     9
177
     3
291
     0
 70
    58
 90
        3
176
     1
 90
        2
176
     1
 90
        0
176
     1
 90
        0
176
     1
 40
0.6
176
     1
 40
30.0
176
     1
 62
     7
420
 16777215
176
     1
 90
        2
176
     1
 90
        2
176
     1
 62
     7
176
     1
 62
   257
176
     1
 90
        1
176
     1
 90
        1
176
     1
 40
179.0
176
     1
 90
        8
176
     1
 62
     7
176
     1
 40
1.0
176
     1
 90
        1
176
     1
 90
        6
176
     1
 90
        2
176
     1
 62
     7
176
     1
 90
        3
176
     1
 90
        0
176
     1
 90
        0
176
     1
290
     0
176
     1
 90
        1
176
     1
 40
0.0
176
     1
 90
        0
176
     1
290
     0
176
     1
290
     1
176
     1
290
     1
176
     1
290
     0
176
     1
290
     0
176
     1
290
     0
176
     1
290
     0
176
     1
290
     0
176
     1
290
     0
176
     1
 90
       50
176
     1
 40
0.0
176
     1
 40
1.0
176
     1
 90
        0
176
     1
 62
    18
420
        0
176
     1
 90
       50
176
     1
 90
        3
176
     1
 62
     5
420
      255
176
     1
290
     0
176
     1
 90
       50
176
     1
 90
       50
176
     1
 90
       50
176
     1
290
     0
176
     1
 90
       50
176
     1
 62
   256
176
     0
 40
1.0
176
     0
 90
        2
176
     1
  1
strokes_ogs.tif
176
     1
290
     0
176
     1
 40
1.0
176
     1
 40
1.0
176
     1
  0
VISUALSTYLE
  5
34
102
{ACAD_REACTORS
330
29
102
}
330
29
100
AcDbVisualStyle
  2
Dim
 70
    11
177
     3
291
     1
 70
    58
 90
        2
176
     1
 90
        2
176
     1
 90
        0
176
     1
 90
        0
176
     1
 40
0.6
176
     1
 40
30.0
176
     1
 62
     7
420
 16777215
176
     1
 90
        1
176
     1
 90
        4
176
     1
 62
     7
176
     1
 62
   257
176
     1
 90
        1
176
     1
 90
        1
176
     1
 40
1.0
176
     1
 90
        8
176
     1
 62
     7
176
     1
 40
1.0
176
     1
 90
        1
176
     1
 90
        6
176
     1
 90
        2
176
     1
 62
     7
176
     1
 90
        5
176
     1
 90
        0
176
     1
 90
        0
176
     1
290
     0
176
     1
 90
        1
176
     1
 40
-50.0
176
     1
 90
        0
176
     1
290
     0
176
     1
290
     1
176
     1
290
     1
176
     1
290
     0
176
     1
290
     0
176
     1
290
     0
176
     1
290
     0
176
     1
290
     0
176
     1
290
     0
176
     1
 90
       50
176
     1
 40
0.0
176
     1
 40
1.0
176
     1
 90
        0
176
     1
 62
    18
420
        0
176
     1
 90
       50
176
     1
 90
        3
176
     1
 62
     5
420
      255
176
     1
290
     0
176
     1
 90
       50
176
     1
 90
       50
176
     1
 90
       50
176
     1
290
     0
176
     1
 90
       50
176
     1
 62
   256
176
     0
 40
1.0
176
     0
 90
        2
176
     1
  1
strokes_ogs.tif
176
     1
290
     0
176
     1
 40
1.0
176
     1
 40
1.0
176
     1
  0
VISUALSTYLE
  5
41
102
{ACAD_REACTORS
330
29
102
}
330
29
100
AcDbVisualStyle
  2
EdgeColorOff
 70
    22
177
     3
291
     1
 70
    58
 90
        2
176
     0
 90
        2
176
     0
 90
        0
176
     0
 90
        0
176
     0
 40
0.6
176
     0
 40
30.0
176
     0
 62
     7
420
 16777215
176
     0
 90
        1
176
     0
 90
        4
176
     0
 62
     7
176
     0
 62
   257
176
     0
 90
        1
176
     0
 90
        1
176
     0
 40
1.0
176
     0
 90
        8
176
     2
 62
     7
176
     0
 40
1.0
176
     0
 90
        1
176
     0
 90
        6
176
     0
 90
        2
176
     0
 62
     7
176
     0
 90
        5
176
     0
 90
        0
176
     0
 90
        0
176
     0
290
     0
176
     0
 90
        1
176
     0
 40
0.0
176
     0
 90
        0
176
     0
290
     0
176
     0
290
     1
176
     0
290
     1
176
     0
290
     0
176
     0
290
     0
176
     0
290
     0
176
     0
290
     0
176
     0
290
     0
176
     0
290
     0
176
     0
 90
       50
176
     0
 40
0.0
176
     0
 40
1.0
176
     0
 90
        0
176
     0
 62
    18
420
        0
176
     0
 90
       50
176
     0
 90
        3
176
     0
 62
     5
420
      255
176
     0
290
     0
176
     0
 90
       50
176
     0
 90
       50
176
     0
 90
       50
176
     0
290
     0
176
     0
 90
       50
176
     0
 62
   256
176
     0
 40
1.0
176
     0
 90
        2
176
     0
  1
strokes_ogs.tif
176
     0
290
     0
176
     0
 40
1.0
176
     0
 40
1.0
176
     0
  0
VISUALSTYLE
  5
38
102
{ACAD_REACTORS
330
29
102
}
330
29
100
AcDbVisualStyle
  2
Facepattern
 70
    15
177
     3
291
     1
 70
    58
 90
        2
176
     1
 90
        2
176
     1
 90
        0
176
     1
 90
        0
176
     1
 40
0.6
176
     1
 40
30.0
176
     1
 62
     7
420
 16777215
176
     1
 90
        1
176
     1
 90
        4
176
     1
 62
     7
176
     1
 62
   257
176
     1
 90
        1
176
     1
 90
        1
176
     1
 40
1.0
176
     1
 90
        8
176
     1
 62
     7
176
     1
 40
1.0
176
     1
 90
        1
176
     1
 90
        6
176
     1
 90
        2
176
     1
 62
     7
176
     1
 90
        5
176
     1
 90
        0
176
     1
 90
        0
176
     1
290
     0
176
     1
 90
        1
176
     1
 40
0.0
176
     1
 90
        0
176
     1
290
     0
176
     1
290
     1
176
     1
290
     1
176
     1
290
     0
176
     1
290
     0
176
     1
290
     0
176
     1
290
     0
176
     1
290
     0
176
     1
290
     0
176
     1
 90
       50
176
     1
 40
0.0
176
     1
 40
1.0
176
     1
 90
        0
176
     1
 62
    18
420
        0
176
     1
 90
       50
176
     1
 90
        3
176
     1
 62
     5
420
      255
176
     1
290
     0
176
     1
 90
       50
176
     1
 90
       50
176
     1
 90
       50
176
     1
290
     0
176
     1
 90
       50
176
     1
 62
   256
176
     0
 40
1.0
176
     0
 90
        2
176
     1
  1
strokes_ogs.tif
176
     1
290
     0
176
     1
 40
1.0
176
     1
 40
1.0
176
     1
  0
VISUALSTYLE
  5
2A
102
{ACAD_REACTORS
330
29
102
}
330
29
100
AcDbVisualStyle
  2
Flat
 70
     0
177
     3
291
     1
 70
    58
 90
        2
176
     1
 90
        1
176
     1
 90
        1
176
     1
 90
        2
176
     1
 40
0.6
176
     1
 40
30.0
176
     1
 62
     7
420
 16777215
176
     1
 90
        0
176
     1
 90
        0
176
     1
 62
     7
176
     1
 62
   257
176
     1
 90
        1
176
     1
 90
        1
176
     1
 40
1.0
176
     1
 90
        8
176
     1
 62
     7
176
     1
 40
1.0
176
     1
 90
        1
176
     1
 90
        6
176
     1
 90
        2
176
     1
 62
     7
176
     1
 90
        5
176
     1
 90
        0
176
     1
 90
        0
176
     1
290
     0
176
     1
 90
       13
176
     1
 40
0.0
176
     1
 90
        0
176
     1
290
     0
176
     1
290
     1
176
     1
290
     1
176
     1
290
     0
176
     1
290
     0
176
     1
290
     0
176
     1
290
     0
176
     1
290
     0
176
     1
290
     0
176
     1
 90
       50
176
     1
 40
0.0
176
     1
 40
1.0
176
     1
 90
        0
176
     1
 62
    18
420
        0
176
     1
 90
       50
176
     1
 90
        3
176
     1
 62
     5
420
      255
176
     1
290
     0
176
     1
 90
       50
176
     1
 90
       50
176
     1
 90
       50
176
     1
290
     0
176
     1
 90
       50
176
     1
 62
   256
176
     0
 40
1.0
176
     0
 90
        2
176
     1
  1
strokes_ogs.tif
176
     1
290
     0
176
     1
 40
1.0
176
     1
 40
1.0
176
     1
  0
VISUALSTYLE
  5
2B
102
{ACAD_REACTORS
330
29
102
}
330
29
100
AcDbVisualStyle
  2
FlatWithEdges
 70
     1
177
     3
291
     1
 70
    58
 90
        2
176
     1
 90
        1
176
     1
 90
        1
176
     1
 90
        2
176
     1
 40
0.6
176
     1
 40
30.0
176
     1
 62
     7
420
 16777215
176
     1
 90
        1
176
     1
 90
        0
176
     1
 62
     7
176
     1
 62
   257
176
     1
 90
        1
176
     1
 90
        1
176
     1
 40
1.0
176
     1
 90
        0
176
     1
 62
   257
176
     1
 40
1.0
176
     1
 90
        1
176
     1
 90
        6
176
     1
 90
        2
176
     1
 62
     7
176
     1
 90
        5
176
     1
 90
        0
176
     1
 90
        0
176
     1
290
     0
176
     1
 90
       13
176
     1
 40
0.0
176
     1
 90
        0
176
     1
290
     0
176
     1
290
     1
176
     1
290
     1
176
     1
290
     0
176
     1
290
     0
176
     1
290
     0
176
     1
290
     0
176
     1
290
     0
176
     1
290
     0
176
     1
 90
       50
176
     1
 40
0.0
176
     1
 40
1.0
176
     1
 90
        0
176
     1
 62
    18
420
        0
176
     1
 90
       50
176
     1
 90
        3
176
     1
 62
     5
420
      255
176
     1
290
     0
176
     1
 90
       50
176
     1
 90
       50
176
     1
 90
       50
176
     1
290
     0
176
     1
 90
       50
176
     1
 62
   256
176
     0
 40
1.0
176
     0
 90
        2
176
     1
  1
strokes_ogs.tif
176
     1
290
     0
176
     1
 40
1.0
176
     1
 40
1.0
176
     1
  0
VISUALSTYLE
  5
2C
102
{ACAD_REACTORS
330
29
102
}
330
29
100
AcDbVisualStyle
  2
Gouraud
 70
     2
177
     3
291
     1
 70
    58
 90
        2
176
     1
 90
        2
176
     1
 90
        1
176
     1
 90
        2
176
     1
 40
0.6
176
     1
 40
30.0
176
     1
 62
     7
420
 16777215
176
     1
 90
        0
176
     1
 90
        0
176
     1
 62
     7
176
     1
 62
   257
176
     1
 90
        1
176
     1
 90
        1
176
     1
 40
1.0
176
     1
 90
        0
176
     1
 62
     7
176
     1
 40
1.0
176
     1
 90
        1
176
     1
 90
        6
176
     1
 90
        2
176
     1
 62
     7
176
     1
 90
        5
176
     1
 90
        0
176
     1
 90
        0
176
     1
290
     0
176
     1
 90
       13
176
     1
 40
0.0
176
     1
 90
        0
176
     1
290
     0
176
     1
290
     1
176
     1
290
     1
176
     1
290
     0
176
     1
290
     0
176
     1
290
     0
176
     1
290
     0
176
     1
290
     0
176
     1
290
     0
176
     1
 90
       50
176
     1
 40
0.0
176
     1
 40
1.0
176
     1
 90
        0
176
     1
 62
    18
420
        0
176
     1
 90
       50
176
     1
 90
        3
176
     1
 62
     5
420
      255
176
     1
290
     0
176
     1
 90
       50
176
     1
 90
       50
176
     1
 90
       50
176
     1
290
     0
176
     1
 90
       50
176
     1
 62
   256
176
     0
 40
1.0
176
     0
 90
        2
176
     1
  1
strokes_ogs.tif
176
     1
290
     0
176
     1
 40
1.0
176
     1
 40
1.0
176
     1
  0
VISUALSTYLE
  5
2D
102
{ACAD_REACTORS
330
29
102
}
330
29
100
AcDbVisualStyle
  2
GouraudWithEdges
 70
     3
177
     3
291
     1
 70
    58
 90
        2
176
     1
 90
        2
176
     1
 90
        1
176
     1
 90
        2
176
     1
 40
0.6
176
     1
 40
30.0
176
     1
 62
     7
420
 16777215
176
     1
 90
        1
176
     1
 90
        0
176
     1
 62
     7
176
     1
 62
   257
176
     1
 90
        1
176
     1
 90
        1
176
     1
 40
1.0
176
     1
 90
        0
176
     1
 62
   257
176
     1
 40
1.0
176
     1
 90
        1
176
     1
 90
        6
176
     1
 90
        2
176
     1
 62
     7
176
     1
 90
        5
176
     1
 90
        0
176
     1
 90
        0
176
     1
290
     0
176
     1
 90
       13
176
     1
 40
0.0
176
     1
 90
        0
176
     1
290
     0
176
     1
290
     1
176
     1
290
     1
176
     1
290
     0
176
     1
290
     0
176
     1
290
     0
176
     1
290
     0
176
     1
290
     0
176
     1
290
     0
176
     1
 90
       50
176
     1
 40
0.0
176
     1
 40
1.0
176
     1
 90
        0
176
     1
 62
    18
420
        0
176
     1
 90
       50
176
     1
 90
        3
176
     1
 62
     5
420
      255
176
     1
290
     0
176
     1
 90
       50
176
     1
 90
       50
176
     1
 90
       50
176
     1
290
     0
176
     1
 90
       50
176
     1
 62
   256
176
     0
 40
1.0
176
     0
 90
        2
176
     1
  1
strokes_ogs.tif
176
     1
290
     0
176
     1
 40
1.0
176
     1
 40
1.0
176
     1
  0
VISUALSTYLE
  5
31
102
{ACAD_REACTORS
330
29
102
}
330
29
100
AcDbVisualStyle
  2
Hidden
 70
     6
177
     3
291
     0
 70
    58
 90
        1
176
     1
 90
        2
176
     1
 90
        2
176
     1
 90
        0
176
     1
 40
0.6
176
     1
 40
30.0
176
     1
 62
     7
420
 16777215
176
     1
 90
        2
176
     1
 90
        2
176
     1
 62
     7
176
     1
 62
   257
176
     1
 90
        2
176
     1
 90
        1
176
     1
 40
40.0
176
     1
 90
        0
176
     1
 62
   257
176
     1
 40
1.0
176
     1
 90
        1
176
     1
 90
        6
176
     1
 90
        2
176
     1
 62
     7
176
     1
 90
        3
176
     1
 90
        0
176
     1
 90
        0
176
     1
290
     0
176
     1
 90
        1
176
     1
 40
0.0
176
     1
 90
        0
176
     1
290
     0
176
     1
290
     1
176
     1
290
     1
176
     1
290
     0
176
     1
290
     0
176
     1
290
     0
176
     1
290
     0
176
     1
290
     0
176
     1
290
     0
176
     1
 90
       50
176
     1
 40
0.0
176
     1
 40
1.0
176
     1
 90
        0
176
     1
 62
    18
420
        0
176
     1
 90
       50
176
     1
 90
        3
176
     1
 62
     5
420
      255
176
     1
290
     0
176
     1
 90
       50
176
     1
 90
       50
176
     1
 90
       50
176
     1
290
     0
176
     1
 90
       50
176
     1
 62
   256
176
     0
 40
1.0
176
     0
 90
        2
176
     1
  1
strokes_ogs.tif
176
     1
290
     0
176
     1
 40
1.0
176
     1
 40
1.0
176
     1
  0
VISUALSTYLE
  5
3F
102
{ACAD_REACTORS
330
29
102
}
330
29
100
AcDbVisualStyle
  2
JitterOff
 70
    20
177
     3
291
     1
 70
    58
 90
        2
176
     0
 90
        2
176
     0
 90
        0
176
     0
 90
        0
176
     0
 40
0.6
176
     0
 40
30.0
176
     0
 62
     7
420
 16777215
176
     0
 90
        1
176
     0
 90
        4
176
     0
 62
     7
176
     0
 62
   257
176
     0
 90
        1
176
     0
 90
        1
176
     0
 40
1.0
176
     0
 90
       10
176
     2
 62
     7
176
     0
 40
1.0
176
     0
 90
        1
176
     0
 90
        6
176
     0
 90
        2
176
     0
 62
     7
176
     0
 90
        5
176
     0
 90
        0
176
     0
 90
        0
176
     0
290
     0
176
     0
 90
        1
176
     0
 40
0.0
176
     0
 90
        0
176
     0
290
     0
176
     0
290
     1
176
     0
290
     1
176
     0
290
     0
176
     0
290
     0
176
     0
290
     0
176
     0
290
     0
176
     0
290
     0
176
     0
290
     0
176
     0
 90
       50
176
     0
 40
0.0
176
     0
 40
1.0
176
     0
 90
        0
176
     0
 62
    18
420
        0
176
     0
 90
       50
176
     0
 90
        3
176
     0
 62
     5
420
      255
176
     0
290
     0
176
     0
 90
       50
176
     0
 90
       50
176
     0
 90
       50
176
     0
290
     0
176
     0
 90
       50
176
     0
 62
   256
176
     0
 40
1.0
176
     0
 90
        2
176
     0
  1
strokes_ogs.tif
176
     0
290
     0
176
     0
 40
1.0
176
     0
 40
1.0
176
     0
  0
VISUALSTYLE
  5
37
102
{ACAD_REACTORS
330
29
102
}
330
29
100
AcDbVisualStyle
  2
Linepattern
 70
    14
177
     3
291
     1
 70
    58
 90
        2
176
     1
 90
        2
176
     1
 90
        0
176
     1
 90
        0
176
     1
 40
0.6
176
     1
 40
30.0
176
     1
 62
     7
420
 16777215
176
     1
 90
        1
176
     1
 90
        4
176
     1
 62
     7
176
     1
 62
   257
176
     1
 90
        7
176
     1
 90
        7
176
     1
 40
1.0
176
     1
 90
        8
176
     1
 62
     7
176
     1
 40
1.0
176
     1
 90
        1
176
     1
 90
        6
176
     1
 90
        2
176
     1
 62
     7
176
     1
 90
        5
176
     1
 90
        0
176
     1
 90
        0
176
     1
290
     0
176
     1
 90
        1
176
     1
 40
0.0
176
     1
 90
        0
176
     1
290
     0
176
     1
290
     1
176
     1
290
     1
176
     1
290
     0
176
     1
290
     0
176
     1
290
     0
176
     1
290
     0
176
     1
290
     0
176
     1
290
     0
176
     1
 90
       50
176
     1
 40
0.0
176
     1
 40
1.0
176
     1
 90
        0
176
     1
 62
    18
420
        0
176
     1
 90
       50
176
     1
 90
        3
176
     1
 62
     5
420
      255
176
     1
290
     0
176
     1
 90
       50
176
     1
 90
       50
176
     1
 90
       50
176
     1
290
     0
176
     1
 90
       50
176
     1
 62
   256
176
     0
 40
1.0
176
     0
 90
        2
176
     1
  1
strokes_ogs.tif
176
     1
290
     0
176
     1
 40
1.0
176
     1
 40
1.0
176
     1
  0
VISUALSTYLE
  5
40
102
{ACAD_REACTORS
330
29
102
}
330
29
100
AcDbVisualStyle
  2
OverhangOff
 70
    21
177
     3
291
     1
 70
    58
 90
        2
176
     0
 90
        2
176
     0
 90
        0
176
     0
 90
        0
176
     0
 40
0.6
176
     0
 40
30.0
176
     0
 62
     7
420
 16777215
176
     0
 90
        1
176
     0
 90
        4
176
     0
 62
     7
176
     0
 62
   257
176
     0
 90
        1
176
     0
 90
        1
176
     0
 40
1.0
176
     0
 90
        9
176
     2
 62
     7
176
     0
 40
1.0
176
     0
 90
        1
176
     0
 90
        6
176
     0
 90
        2
176
     0
 62
     7
176
     0
 90
        5
176
     0
 90
        0
176
     0
 90
        0
176
     0
290
     0
176
     0
 90
        1
176
     0
 40
0.0
176
     0
 90
        0
176
     0
290
     0
176
     0
290
     1
176
     0
290
     1
176
     0
290
     0
176
     0
290
     0
176
     0
290
     0
176
     0
290
     0
176
     0
290
     0
176
     0
290
     0
176
     0
 90
       50
176
     0
 40
0.0
176
     0
 40
1.0
176
     0
 90
        0
176
     0
 62
    18
420
        0
176
     0
 90
       50
176
     0
 90
        3
176
     0
 62
     5
420
      255
176
     0
290
     0
176
     0
 90
       50
176
     0
 90
       50
176
     0
 90
       50
176
     0
290
     0
176
     0
 90
       50
176
     0
 62
   256
176
     0
 40
1.0
176
     0
 90
        2
176
     0
  1
strokes_ogs.tif
176
     0
290
     0
176
     0
 40
1.0
176
     0
 40
1.0
176
     0
  0
VISUALSTYLE
  5
33
102
{ACAD_REACTORS
330
29
102
}
330
29
100
AcDbVisualStyle
  2
Realistic
 70
     8
177
     3
291
     0
 70
    58
 90
        2
176
     1
 90
        3
176
     1
 90
        0
176
     1
 90
        2
176
     1
 40
0.6
176
     1
 40
30.0
176
     1
 62
     7
420
 16777215
176
     1
 90
        0
176
     1
 90
        0
176
     1
 62
     7
176
     1
 62
   257
176
     1
 90
        1
176
     1
 90
        1
176
     1
 40
1.0
176
     1
 90
        8
176
     1
 62
   257
176
     1
 40
1.0
176
     1
 90
        1
176
     1
 90
        6
176
     1
 90
        2
176
     1
 62
     7
176
     1
 90
        3
176
     1
 90
        0
176
     1
 90
        0
176
     1
290
     0
176
     1
 90
       13
176
     1
 40
0.0
176
     1
 90
        0
176
     1
290
     0
176
     1
290
     1
176
     1
290
     1
176
     1
290
     0
176
     1
290
     0
176
     1
290
     0
176
     1
290
     0
176
     1
290
     0
176
     1
290
     0
176
     1
 90
       50
176
     1
 40
0.0
176
     1
 40
1.0
176
     1
 90
        0
176
     1
 62
    18
420
        0
176
     1
 90
       50
176
     1
 90
        3
176
     1
 62
     5
420
      255
176
     1
290
     0
176
     1
 90
       50
176
     1
 90
       50
176
     1
 90
       50
176
     1
290
     0
176
     1
 90
       50
176
     1
 62
   256
176
     0
 40
1.0
176
     0
 90
        2
176
     1
  1
strokes_ogs.tif
176
     1
290
     0
176
     1
 40
1.0
176
     1
 40
1.0
176
     1
  0
VISUALSTYLE
  5
3E
102
{ACAD_REACTORS
330
29
102
}
330
29
100
AcDbVisualStyle
  2
Shaded
 70
    27
177
     3
291
     0
 70
    58
 90
        2
176
     1
 90
        2
176
     1
 90
        1
176
     1
 90
        2
176
     1
 40
0.6
176
     1
 40
30.0
176
     1
 62
     7
420
 16777215
176
     1
 90
        0
176
     1
 90
        4
176
     1
 62
     7
176
     1
 62
   257
176
     1
 90
        1
176
     1
 90
        1
176
     1
 40
1.0
176
     1
 90
        8
176
     1
 62
   257
176
     1
 40
1.0
176
     1
 90
        1
176
     1
 90
        6
176
     1
 90
        2
176
     1
 62
     8
420
  7895160
176
     1
 90
        3
176
     1
 90
        0
176
     1
 90
        0
176
     1
290
     0
176
     1
 90
        5
176
     1
 40
0.0
176
     1
 90
        0
176
     1
290
     0
176
     1
290
     1
176
     1
290
     1
176
     1
290
     0
176
     1
290
     0
176
     1
290
     0
176
     1
290
     0
176
     1
290
     0
176
     1
290
     0
176
     1
 90
       50
176
     1
 40
0.0
176
     1
 40
1.0
176
     1
 90
        0
176
     1
 62
    18
420
        0
176
     1
 90
       50
176
     1
 90
        3
176
     1
 62
     5
420
      255
176
     1
290
     0
176
     1
 90
       50
176
     1
 90
       50
176
     1
 90
       50
176
     1
290
     0
176
     1
 90
       50
176
     1
 62
   256
176
     0
 40
1.0
176
     0
 90
        2
176
     1
  1
strokes_ogs.tif
176
     1
290
     0
176
     1
 40
1.0
176
     1
 40
1.0
176
     1
  0
VISUALSTYLE
  5
3D
102
{ACAD_REACTORS
330
29
102
}
330
29
100
AcDbVisualStyle
  2
Shaded with edges
 70
    26
177
     3
291
     0
 70
    58
 90
        2
176
     1
 90
        2
176
     1
 90
        1
176
     1
 90
        2
176
     1
 40
0.6
176
     1
 40
30.0
176
     1
 62
     7
420
 16777215
176
     1
 90
        1
176
     1
 90
        2
176
     1
 62
     7
176
     1
 62
   257
176
     1
 90
        2
176
     1
 90
        1
176
     1
 40
1.0
176
     1
 90
        8
176
     1
 62
   257
176
     1
 40
1.0
176
     1
 90
        1
176
     1
 90
        6
176
     1
 90
        2
176
     1
 62
     7
176
     1
 90
        3
176
     1
 90
        0
176
     1
 90
        0
176
     1
290
     0
176
     1
 90
        5
176
     1
 40
0.0
176
     1
 90
        0
176
     1
290
     0
176
     1
290
     1
176
     1
290
     1
176
     1
290
     0
176
     1
290
     0
176
     1
290
     0
176
     1
290
     0
176
     1
290
     0
176
     1
290
     0
176
     1
 90
       50
176
     1
 40
0.0
176
     1
 40
1.0
176
     1
 90
        0
176
     1
 62
    18
420
        0
176
     1
 90
       50
176
     1
 90
        3
176
     1
 62
     5
420
      255
176
     1
290
     0
176
     1
 90
       50
176
     1
 90
       50
176
     1
 90
       50
176
     1
290
     0
176
     1
 90
       50
176
     1
 62
   256
176
     0
 40
1.0
176
     0
 90
        2
176
     1
  1
strokes_ogs.tif
176
     1
290
     0
176
     1
 40
1.0
176
     1
 40
1.0
176
     1
  0
VISUALSTYLE
  5
3A
102
{ACAD_REACTORS
330
29
102
}
330
29
100
AcDbVisualStyle
  2
Shades of Gray
 70
    23
177
     3
291
     0
 70
    58
 90
        2
176
     1
 90
        2
176
     1
 90
        3
176
     1
 90
        0
176
     1
 40
0.6
176
     1
 40
30.0
176
     1
 62
     7
420
 16777215
176
     1
 90
        2
176
     1
 90
        2
176
     1
 62
     7
176
     1
 62
     7
176
     1
 90
        1
176
     1
 90
        1
176
     1
 40
40.0
176
     1
 90
        8
176
     1
 62
     7
176
     1
 40
1.0
176
     1
 90
        1
176
     1
 90
        6
176
     1
 90
        2
176
     1
 62
     7
176
     1
 90
        3
176
     1
 90
        0
176
     1
 90
        0
176
     1
290
     0
176
     1
 90
        1
176
     1
 40
0.0
176
     1
 90
        0
176
     1
290
     0
176
     1
290
     1
176
     1
290
     1
176
     1
290
     0
176
     1
290
     0
176
     1
290
     0
176
     1
290
     0
176
     1
290
     0
176
     1
290
     0
176
     1
 90
       50
176
     1
 40
0.0
176
     1
 40
1.0
176
     1
 90
        0
176
     1
 62
    18
420
        0
176
     1
 90
       50
176
     1
 90
        3
176
     1
 62
     5
420
      255
176
     1
290
     0
176
     1
 90
       50
176
     1
 90
       50
176
     1
 90
       50
176
     1
290
     0
176
     1
 90
       50
176
     1
 62
   256
176
     0
 40
1.0
176
     0
 90
        2
176
     1
  1
strokes_ogs.tif
176
     1
290
     0
176
     1
 40
1.0
176
     1
 40
1.0
176
     1
  0
VISUALSTYLE
  5
3B
102
{ACAD_REACTORS
330
29
102
}
330
29
100
AcDbVisualStyle
  2
Sketchy
 70
    24
177
     3
291
     0
 70
    58
 90
        1
176
     1
 90
        2
176
     1
 90
        2
176
     1
 90
        0
176
     1
 40
0.6
176
     1
 40
30.0
176
     1
 62
     7
420
 16777215
176
     1
 90
        2
176
     1
 90
        2
176
     1
 62
     7
176
     1
 62
     7
176
     1
 90
        1
176
     1
 90
        1
176
     1
 40
40.0
176
     1
 90
       11
176
     1
 62
     7
176
     1
 40
1.0
176
     1
 90
        1
176
     1
 90
        6
176
     1
 90
        2
176
     1
 62
     7
176
     1
 90
        6
176
     1
 90
        0
176
     1
 90
        0
176
     1
290
     0
176
     1
 90
        1
176
     1
 40
0.0
176
     1
 90
        0
176
     1
290
     0
176
     1
290
     1
176
     1
290
     1
176
     1
290
     0
176
     1
290
     0
176
     1
290
     0
176
     1
290
     0
176
     1
290
     0
176
     1
290
     0
176
     1
 90
       50
176
     1
 40
0.0
176
     1
 40
1.0
176
     1
 90
        0
176
     1
 62
    18
420
        0
176
     1
 90
       50
176
     1
 90
        3
176
     1
 62
     5
420
      255
176
     1
290
     0
176
     1
 90
       50
176
     1
 90
       50
176
     1
 90
       50
176
     1
290
     0
176
     1
 90
       50
176
     1
 62
   256
176
     0
 40
1.0
176
     0
 90
        2
176
     1
  1
strokes_ogs.tif
176
     1
290
     0
176
     1
 40
1.0
176
     1
 40
1.0
176
     1
  0
VISUALSTYLE
  5
36
102
{ACAD_REACTORS
330
29
102
}
330
29
100
AcDbVisualStyle
  2
Thicken
 70
    13
177
     3
291
     1
 70
    58
 90
        2
176
     1
 90
        2
176
     1
 90
        0
176
     1
 90
        0
176
     1
 40
0.6
176
     1
 40
30.0
176
     1
 62
     7
420
 16777215
176
     1
 90
        1
176
     1
 90
        4
176
     1
 62
     7
176
     1
 62
   257
176
     1
 90
        1
176
     1
 90
        1
176
     1
 40
1.0
176
     1
 90
       12
176
     1
 62
     7
176
     1
 40
1.0
176
     1
 90
        1
176
     1
 90
        6
176
     1
 90
        2
176
     1
 62
     7
176
     1
 90
        5
176
     1
 90
        0
176
     1
 90
        0
176
     1
290
     0
176
     1
 90
        1
176
     1
 40
0.0
176
     1
 90
        0
176
     1
290
     0
176
     1
290
     1
176
     1
290
     1
176
     1
290
     0
176
     1
290
     0
176
     1
290
     0
176
     1
290
     0
176
     1
290
     0
176
     1
290
     0
176
     1
 90
       50
176
     1
 40
0.0
176
     1
 40
1.0
176
     1
 90
        0
176
     1
 62
    18
420
        0
176
     1
 90
       50
176
     1
 90
        3
176
     1
 62
     5
420
      255
176
     1
290
     0
176
     1
 90
       50
176
     1
 90
       50
176
     1
 90
       50
176
     1
290
     0
176
     1
 90
       50
176
     1
 62
   256
176
     0
 40
1.0
176
     0
 90
        2
176
     1
  1
strokes_ogs.tif
176
     1
290
     0
176
     1
 40
1.0
176
     1
 40
1.0
176
     1
  0
VISUALSTYLE
  5
30
102
{ACAD_REACTORS
330
29
102
}
330
29
100
AcDbVisualStyle
  2
Wireframe
 70
     5
177
     3
291
     0
 70
    58
 90
        0
176
     1
 90
        2
176
     1
 90
        0
176
     1
 90
        0
176
     1
 40
0.6
176
     1
 40
30.0
176
     1
 62
     7
420
 16777215
176
     1
 90
        1
176
     1
 90
        4
176
     1
 62
     7
176
     1
 62
   257
176
     1
 90
        1
176
     1
 90
        1
176
     1
 40
1.0
176
     1
 90
        0
176
     1
 62
   257
176
     1
 40
1.0
176
     1
 90
        1
176
     1
 90
        6
176
     1
 90
        2
176
     1
 62
     7
176
     1
 90
        3
176
     1
 90
        0
176
     1
 90
        0
176
     1
290
     0
176
     1
 90
        1
176
     1
 40
0.0
176
     1
 90
        0
176
     1
290
     0
176
     1
290
     1
176
     1
290
     1
176
     1
290
     0
176
     1
290
     0
176
     1
290
     0
176
     1
290
     0
176
     1
290
     0
176
     1
290
     0
176
     1
 90
       50
176
     1
 40
0.0
176
     1
 40
1.0
176
     1
 90
        0
176
     1
 62
    18
420
        0
176
     1
 90
       50
176
     1
 90
        3
176
     1
 62
     5
420
      255
176
     1
290
     0
176
     1
 90
       50
176
     1
 90
       50
176
     1
 90
       50
176
     1
290
     0
176
     1
 90
       50
176
     1
 62
   256
176
     0
 40
1.0
176
     0
 90
        2
176
     1
  1
strokes_ogs.tif
176
     1
290
     0
176
     1
 40
1.0
176
     1
 40
1.0
176
     1
  0
VISUALSTYLE
  5
3C
102
{ACAD_REACTORS
330
29
102
}
330
29
100
AcDbVisualStyle
  2
X-Ray
 70
    25
177
     3
291
     0
 70
    58
 90
        2
176
     1
 90
        2
176
     1
 90
        1
176
     1
 90
        1
176
     1
 40
0.5
176
     1
 40
30.0
176
     1
 62
     7
420
 16777215
176
     1
 90
        1
176
     1
 90
        0
176
     1
 62
     7
176
     1
 62
   257
176
     1
 90
        1
176
     1
 90
        1
176
     1
 40
1.0
176
     1
 90
        8
176
     1
 62
     7
176
     1
 40
1.0
176
     1
 90
        1
176
     1
 90
        6
176
     1
 90
        2
176
     1
 62
     7
176
     1
 90
        3
176
     1
 90
        0
176
     1
 90
        0
176
     1
290
     0
176
     1
 90
       13
176
     1
 40
0.0
176
     1
 90
        0
176
     1
290
     0
176
     1
290
     1
176
     1
290
     1
176
     1
290
     0
176
     1
290
     0
176
     1
290
     0
176
     1
290
     0
176
     1
290
     0
176
     1
290
     0
176
     1
 90
       50
176
     1
 40
0.0
176
     1
 40
1.0
176
     1
 90
        0
176
     1
 62
    18
420
        0
176
     1
 90
       50
176
     1
 90
        3
176
     1
 62
     5
420
      255
176
     1
290
     0
176
     1
 90
       50
176
     1
 90
       50
176
     1
 90
       50
176
     1
290
     0
176
     1
 90
       50
176
     1
 62
   256
176
     0
 40
1.0
176
     0
 90
        2
176
     1
  1
strokes_ogs.tif
176
     1
290
     0
176
     1
 40
1.0
176
     1
 40
1.0
176
     1
  0
DICTIONARYVAR
  5
2DF
102
{ACAD_REACTORS
330
2D9
102
}
330
2D9
100
DictionaryVariables
280
     0
  1
0
  0
DICTIONARYVAR
  5
2E0
102
{ACAD_REACTORS
330
2D9
102
}
330
2D9
100
DictionaryVariables
280
     0
  1
1:1
  0
DICTIONARYVAR
  5
2DB
102
{ACAD_REACTORS
330
2D9
102
}
330
2D9
100
DictionaryVariables
280
     0
  1
STANDARD
  0
DICTIONARYVAR
  5
2DA
102
{ACAD_REACTORS
330
2D9
102
}
330
2D9
100
DictionaryVariables
280
     0
  1
STANDARD
  0
DICTIONARYVAR
  5
2DC
102
{ACAD_REACTORS
330
2D9
102
}
330
2D9
100
DictionaryVariables
280
     0
  1
Imperial24
  0
DICTIONARYVAR
  5
2DD
102
{ACAD_REACTORS
330
2D9
102
}
330
2D9
100
DictionaryVariables
280
     0
  1
Imperial24
  0
DICTIONARYVAR
  5
2E2
102
{ACAD_REACTORS
330
2D9
102
}
330
2D9
100
DictionaryVariables
280
     0
  1
1
  0
DICTIONARYVAR
  5
2E3
102
{ACAD_REACTORS
330
2D9
102
}
330
2D9
100
DictionaryVariables
280
     0
  1
15
  0
DICTIONARYVAR
  5
2E1
102
{ACAD_REACTORS
330
2D9
102
}
330
2D9
100
DictionaryVariables
280
     0
  1
0
  0
DICTIONARYVAR
  5
2DE
102
{ACAD_REACTORS
330
2D9
102
}
330
2D9
100
DictionaryVariables
280
     0
  1
0
  0
DICTIONARY
  5
1A
330
19
100
AcDbDictionary
280
     1
281
     1
  3
BUMPTILE
360
1C
  3
DIFFUSETILE
360
1B
  3
OPACITYTILE
360
1F
  3
REFLECTIONTILE
360
1E
  3
REFRACTIONTILE
360
20
  3
SPECULARTILE
360
1D
  0
DICTIONARY
  5
12
330
11
100
AcDbDictionary
280
     1
281
     1
  3
BUMPTILE
360
14
  3
DIFFUSETILE
360
13
  3
OPACITYTILE
360
17
  3
REFLECTIONTILE
360
16
  3
REFRACTIONTILE
360
18
  3
SPECULARTILE
360
15
  0
DICTIONARY
  5
22
330
21
100
AcDbDictionary
280
     1
281
     1
  3
BUMPTILE
360
24
  3
DIFFUSETILE
360
23
  3
OPACITYTILE
360
27
  3
REFLECTIONTILE
360
26
  3
REFRACTIONTILE
360
28
  3
SPECULARTILE
360
25
  0
DICTIONARY
  5
2F0
330
65
100
AcDbDictionary
280
     1
281
     1
  3
ACAD_ROUNDTRIP_2008_TABLESTYLE_CELLSTYLEMAP
360
2F1
  0
XRECORD
  5
1C
102
{ACAD_REACTORS
330
1A
102
}
330
1A
100
AcDbXrecord
280
     1
270
     1
271
     1
  0
XRECORD
  5
1B
102
{ACAD_REACTORS
330
1A
102
}
330
1A
100
AcDbXrecord
280
     1
270
     1
271
     1
  0
XRECORD
  5
1F
102
{ACAD_REACTORS
330
1A
102
}
330
1A
100
AcDbXrecord
280
     1
270
     1
271
     1
  0
XRECORD
  5
1E
102
{ACAD_REACTORS
330
1A
102
}
330
1A
100
AcDbXrecord
280
     1
270
     1
271
     1
  0
XRECORD
  5
20
102
{ACAD_REACTORS
330
1A
102
}
330
1A
100
AcDbXrecord
280
     1
270
     1
271
     1
  0
XRECORD
  5
1D
102
{ACAD_REACTORS
330
1A
102
}
330
1A
100
AcDbXrecord
280
     1
270
     1
271
     1
  0
XRECORD
  5
14
102
{ACAD_REACTORS
330
12
102
}
330
12
100
AcDbXrecord
280
     1
270
     1
271
     1
  0
XRECORD
  5
13
102
{ACAD_REACTORS
330
12
102
}
330
12
100
AcDbXrecord
280
     1
270
     1
271
     1
  0
XRECORD
  5
17
102
{ACAD_REACTORS
330
12
102
}
330
12
100
AcDbXrecord
280
     1
270
     1
271
     1
  0
XRECORD
  5
16
102
{ACAD_REACTORS
330
12
102
}
330
12
100
AcDbXrecord
280
     1
270
     1
271
     1
  0
XRECORD
  5
18
102
{ACAD_REACTORS
330
12
102
}
330
12
100
AcDbXrecord
280
     1
270
     1
271
     1
  0
XRECORD
  5
15
102
{ACAD_REACTORS
330
12
102
}
330
12
100
AcDbXrecord
280
     1
270
     1
271
     1
  0
XRECORD
  5
24
102
{ACAD_REACTORS
330
22
102
}
330
22
100
AcDbXrecord
280
     1
270
     1
271
     1
  0
XRECORD
  5
23
102
{ACAD_REACTORS
330
22
102
}
330
22
100
AcDbXrecord
280
     1
270
     1
271
     1
  0
XRECORD
  5
27
102
{ACAD_REACTORS
330
22
102
}
330
22
100
AcDbXrecord
280
     1
270
     1
271
     1
  0
XRECORD
  5
26
102
{ACAD_REACTORS
330
22
102
}
330
22
100
AcDbXrecord
280
     1
270
     1
271
     1
  0
XRECORD
  5
28
102
{ACAD_REACTORS
330
22
102
}
330
22
100
AcDbXrecord
280
     1
270
     1
271
     1
  0
XRECORD
  5
25
102
{ACAD_REACTORS
330
22
102
}
330
22
100
AcDbXrecord
280
     1
270
     1
271
     1
  0
CELLSTYLEMAP
  5
2F1
102
{ACAD_REACTORS
330
2F0
102
}
330
2F0
100
AcDbCellStyleMap
 90
        3
300
CELLSTYLE
  1
TABLEFORMAT_BEGIN
 90
        5
170
     1
 91
        0
 92
    32768
 62
   257
 93
        1
300
CONTENTFORMAT
  1
CONTENTFORMAT_BEGIN
 90
        0
 91
        0
 92
      512
 93
        0
300

 40
0.0
140
1.0
 94
        5
 62
     0
340
55
144
2.5
309
CONTENTFORMAT_END
171
     1
301
MARGIN
  1
CELLMARGIN_BEGIN
 40
1.5
 40
1.5
 40
1.5
 40
1.5
 40
4.5
 40
4.5
309
CELLMARGIN_END
 94
        6
 95
        1
302
GRIDFORMAT
  1
GRIDFORMAT_BEGIN
 90
        0
 91
        1
 62
     0
 92
       -2
340
0
 93
        0
 40
1.125
309
GRIDFORMAT_END
 95
        2
302
GRIDFORMAT
  1
GRIDFORMAT_BEGIN
 90
        0
 91
        1
 62
     0
 92
       -2
340
0
 93
        0
 40
1.125
309
GRIDFORMAT_END
 95
        4
302
GRIDFORMAT
  1
GRIDFORMAT_BEGIN
 90
        0
 91
        1
 62
     0
 92
       -2
340
0
 93
        0
 40
1.125
309
GRIDFORMAT_END
 95
        8
302
GRIDFORMAT
  1
GRIDFORMAT_BEGIN
 90
        0
 91
        1
 62
     0
 92
       -2
340
0
 93
        0
 40
1.125
309
GRIDFORMAT_END
 95
       16
302
GRIDFORMAT
  1
GRIDFORMAT_BEGIN
 90
        0
 91
        1
 62
     0
 92
       -2
340
0
 93
        0
 40
1.125
309
GRIDFORMAT_END
 95
       32
302
GRIDFORMAT
  1
GRIDFORMAT_BEGIN
 90
        0
 91
        1
 62
     0
 92
       -2
340
0
 93
        0
 40
1.125
309
GRIDFORMAT_END
309
TABLEFORMAT_END
  1
CELLSTYLE_BEGIN
 90
        1
 91
        1
300
_TITLE
309
CELLSTYLE_END
300
CELLSTYLE
  1
TABLEFORMAT_BEGIN
 90
        5
170
     1
 91
        0
 92
        0
 62
   257
 93
        1
300
CONTENTFORMAT
  1
CONTENTFORMAT_BEGIN
 90
        0
 91
        0
 92
      512
 93
        0
300

 40
0.0
140
1.0
 94
        5
 62
     0
340
55
144
2.5
309
CONTENTFORMAT_END
171
     1
301
MARGIN
  1
CELLMARGIN_BEGIN
 40
1.5
 40
1.5
 40
1.5
 40
1.5
 40
4.5
 40
4.5
309
CELLMARGIN_END
 94
        6
 95
        1
302
GRIDFORMAT
  1
GRIDFORMAT_BEGIN
 90
        0
 91
        1
 62
     0
 92
       -2
340
0
 93
        0
 40
1.125
309
GRIDFORMAT_END
 95
        2
302
GRIDFORMAT
  1
GRIDFORMAT_BEGIN
 90
        0
 91
        1
 62
     0
 92
       -2
340
0
 93
        0
 40
1.125
309
GRIDFORMAT_END
 95
        4
302
GRIDFORMAT
  1
GRIDFORMAT_BEGIN
 90
        0
 91
        1
 62
     0
 92
       -2
340
0
 93
        0
 40
1.125
309
GRIDFORMAT_END
 95
        8
302
GRIDFORMAT
  1
GRIDFORMAT_BEGIN
 90
        0
 91
        1
 62
     0
 92
       -2
340
0
 93
        0
 40
1.125
309
GRIDFORMAT_END
 95
       16
302
GRIDFORMAT
  1
GRIDFORMAT_BEGIN
 90
        0
 91
        1
 62
     0
 92
       -2
340
0
 93
        0
 40
1.125
309
GRIDFORMAT_END
 95
       32
302
GRIDFORMAT
  1
GRIDFORMAT_BEGIN
 90
        0
 91
        1
 62
     0
 92
       -2
340
0
 93
        0
 40
1.125
309
GRIDFORMAT_END
309
TABLEFORMAT_END
  1
CELLSTYLE_BEGIN
 90
        2
 91
        1
300
_HEADER
309
CELLSTYLE_END
300
CELLSTYLE
  1
TABLEFORMAT_BEGIN
 90
        5
170
     1
 91
        0
 92
        0
 62
   257
 93
        1
300
CONTENTFORMAT
  1
CONTENTFORMAT_BEGIN
 90
        0
 91
        0
 92
      512
 93
        0
300

 40
0.0
140
1.0
 94
        2
 62
     0
340
55
144
2.5
309
CONTENTFORMAT_END
171
     1
301
MARGIN
  1
CELLMARGIN_BEGIN
 40
1.5
 40
1.5
 40
1.5
 40
1.5
 40
4.5
 40
4.5
309
CELLMARGIN_END
 94
        6
 95
        1
302
GRIDFORMAT
  1
GRIDFORMAT_BEGIN
 90
        0
 91
        1
 62
     0
 92
       -2
340
0
 93
        0
 40
1.125
309
GRIDFORMAT_END
 95
        2
302
GRIDFORMAT
  1
GRIDFORMAT_BEGIN
 90
        0
 91
        1
 62
     0
 92
       -2
340
0
 93
        0
 40
1.125
309
GRIDFORMAT_END
 95
        4
302
GRIDFORMAT
  1
GRIDFORMAT_BEGIN
 90
        0
 91
        1
 62
     0
 92
       -2
340
0
 93
        0
 40
1.125
309
GRIDFORMAT_END
 95
        8
302
GRIDFORMAT
  1
GRIDFORMAT_BEGIN
 90
        0
 91
        1
 62
     0
 92
       -2
340
0
 93
        0
 40
1.125
309
GRIDFORMAT_END
 95
       16
302
GRIDFORMAT
  1
GRIDFORMAT_BEGIN
 90
        0
 91
        1
 62
     0
 92
       -2
340
0
 93
        0
 40
1.125
309
GRIDFORMAT_END
 95
       32
302
GRIDFORMAT
  1
GRIDFORMAT_BEGIN
 90
        0
 91
        1
 62
     0
 92
       -2
340
0
 93
        0
 40
1.125
309
GRIDFORMAT_END
309
TABLEFORMAT_END
  1
CELLSTYLE_BEGIN
 90
        3
 91
        2
300
_DATA
309
CELLSTYLE_END
  0
ENDSEC
  0
EOF
