  0
SECTION
  2
HEADER
  9
$ACADVER
  1
AC1032
  9
$ACADMAINTVER
 90
      175
  9
$DWGCODEPAGE
  3
ANSI_932
  9
$LASTSAVEDBY
  1
Kousuke
  9
$REQUIREDVERSIONS
160
                 0
  9
$INSBASE
 10
0.0
 20
0.0
 30
0.0
  9
$EXTMIN
 10
-6.241401228335575
 20
-4.491978581708622
 30
0.0
  9
$EXTMAX
 10
290.6071518780412
 20
207.9033958339542
 30
0.0
  9
$LIMMIN
 10
-11.45832948361817
 20
-9.70374993046575
  9
$LIMMAX
 10
303.6590740877482
 20
213.1151716903917
  9
$ORTHOMODE
 70
     1
  9
$REGENMODE
 70
     1
  9
$FILLMODE
 70
     1
  9
$QTEXTMODE
 70
     0
  9
$MIRRTEXT
 70
     1
  9
$LTSCALE
 40
0.5
  9
$ATTMODE
 70
     1
  9
$TEXTSIZE
 40
2.5
  9
$TRACEWID
 40
1.0
  9
$TEXTSTYLE
  7
STANDARD
  9
$CLAYER
  8
図面枠
  9
$CELTYPE
  6
ByLayer
  9
$CECOLOR
 62
   256
  9
$CELTSCALE
 40
1.0
  9
$DISPSILH
 70
     0
  9
$DIMSCALE
 40
1.0
  9
$DIMASZ
 40
2.5
  9
$DIMEXO
 40
0.625
  9
$DIMDLI
 40
3.75
  9
$DIMRND
 40
0.0
  9
$DIMDLE
 40
0.0
  9
$DIMEXE
 40
1.25
  9
$DIMTP
 40
0.0
  9
$DIMTM
 40
0.0
  9
$DIMTXT
 40
2.5
  9
$DIMCEN
 40
2.5
  9
$DIMTSZ
 40
0.0
  9
$DIMTOL
 70
     0
  9
$DIMLIM
 70
     0
  9
$DIMTIH
 70
     0
  9
$DIMTOH
 70
     0
  9
$DIMSE1
 70
     0
  9
$DIMSE2
 70
     0
  9
$DIMTAD
 70
     1
  9
$DIMZIN
 70
     8
  9
$DIMBLK
  1

  9
$DIMASO
 70
     1
  9
$DIMSHO
 70
     1
  9
$DIMPOST
  1

  9
$DIMAPOST
  1

  9
$DIMALT
 70
     0
  9
$DIMALTD
 70
     4
  9
$DIMALTF
 40
0.0394
  9
$DIMLFAC
 40
1.0
  9
$DIMTOFL
 70
     1
  9
$DIMTVP
 40
0.0
  9
$DIMTIX
 70
     0
  9
$DIMSOXD
 70
     0
  9
$DIMSAH
 70
     1
  9
$DIMBLK1
  1
OPEN
  9
$DIMBLK2
  1
OPEN
  9
$DIMSTYLE
  2
STANDARD_WS
  9
$DIMCLRD
 70
     0
  9
$DIMCLRE
 70
     0
  9
$DIMCLRT
 70
     0
  9
$DIMTFAC
 40
1.0
  9
$DIMGAP
 40
0.625
  9
$DIMJUST
 70
     0
  9
$DIMSD1
 70
     0
  9
$DIMSD2
 70
     0
  9
$DIMTOLJ
 70
     1
  9
$DIMTZIN
 70
     0
  9
$DIMALTZ
 70
     0
  9
$DIMALTTZ
 70
     0
  9
$DIMUPT
 70
     1
  9
$DIMDEC
 70
     1
  9
$DIMTDEC
 70
     1
  9
$DIMALTU
 70
     8
  9
$DIMALTTD
 70
     4
  9
$DIMTXSTY
  7
STANDARD
  9
$DIMAUNIT
 70
     0
  9
$DIMADEC
 70
     0
  9
$DIMALTRND
 40
0.0
  9
$DIMAZIN
 70
     0
  9
$DIMDSEP
 70
    46
  9
$DIMATFIT
 70
     3
  9
$DIMFRAC
 70
     0
  9
$DIMLDRBLK
  1

  9
$DIMLUNIT
 70
     2
  9
$DIMLWD
 70
    -2
  9
$DIMLWE
 70
    -2
  9
$DIMTMOVE
 70
     0
  9
$DIMFXL
 40
1.0
  9
$DIMFXLON
 70
     0
  9
$DIMJOGANG
 40
0.7853981633974483
  9
$DIMTFILL
 70
     0
  9
$DIMTFILLCLR
 70
     0
  9
$DIMARCSYM
 70
     0
  9
$DIMLTYPE
  6

  9
$DIMLTEX1
  6

  9
$DIMLTEX2
  6

  9
$DIMTXTDIRECTION
 70
     0
  9
$LUNITS
 70
     2
  9
$LUPREC
 70
     4
  9
$SKETCHINC
 40
1.0
  9
$FILLETRAD
 40
4.0
  9
$AUNITS
 70
     0
  9
$AUPREC
 70
     0
  9
$MENU
  1
.
  9
$ELEVATION
 40
0.0
  9
$PELEVATION
 40
0.0
  9
$THICKNESS
 40
0.0
  9
$LIMCHECK
 70
     0
  9
$CHAMFERA
 40
0.5
  9
$CHAMFERB
 40
0.5
  9
$CHAMFERC
 40
14.006734006734
  9
$CHAMFERD
 40
0.0
  9
$SKPOLY
 70
     0
  9
$TDCREATE
 40
2459171.468657407
  9
$TDUCREATE
 40
2459171.093657408
  9
$TDUPDATE
 40
2459171.640960648
  9
$TDUUPDATE
 40
2459171.265960648
  9
$TDINDWG
 40
0.0005671296
  9
$TDUSRTIMER
 40
0.0005671296
  9
$USRTIMER
 70
     1
  9
$ANGBASE
 50
0.0
  9
$ANGDIR
 70
     0
  9
$PDMODE
 70
     0
  9
$PDSIZE
 40
0.0
  9
$PLINEWID
 40
0.0
  9
$SPLFRAME
 70
     0
  9
$SPLINETYPE
 70
     6
  9
$SPLINESEGS
 70
     8
  9
$HANDSEED
  5
4E2
  9
$SURFTAB1
 70
     6
  9
$SURFTAB2
 70
     6
  9
$SURFTYPE
 70
     6
  9
$SURFU
 70
     6
  9
$SURFV
 70
     6
  9
$UCSBASE
  2

  9
$UCSNAME
  2

  9
$UCSORG
 10
0.0
 20
0.0
 30
0.0
  9
$UCSXDIR
 10
1.0
 20
0.0
 30
0.0
  9
$UCSYDIR
 10
0.0
 20
1.0
 30
0.0
  9
$UCSORTHOREF
  2

  9
$UCSORTHOVIEW
 70
     0
  9
$UCSORGTOP
 10
0.0
 20
0.0
 30
0.0
  9
$UCSORGBOTTOM
 10
0.0
 20
0.0
 30
0.0
  9
$UCSORGLEFT
 10
0.0
 20
0.0
 30
0.0
  9
$UCSORGRIGHT
 10
0.0
 20
0.0
 30
0.0
  9
$UCSORGFRONT
 10
0.0
 20
0.0
 30
0.0
  9
$UCSORGBACK
 10
0.0
 20
0.0
 30
0.0
  9
$PUCSBASE
  2

  9
$PUCSNAME
  2

  9
$PUCSORG
 10
0.0
 20
0.0
 30
0.0
  9
$PUCSXDIR
 10
1.0
 20
0.0
 30
0.0
  9
$PUCSYDIR
 10
0.0
 20
1.0
 30
0.0
  9
$PUCSORTHOREF
  2

  9
$PUCSORTHOVIEW
 70
     0
  9
$PUCSORGTOP
 10
0.0
 20
0.0
 30
0.0
  9
$PUCSORGBOTTOM
 10
0.0
 20
0.0
 30
0.0
  9
$PUCSORGLEFT
 10
0.0
 20
0.0
 30
0.0
  9
$PUCSORGRIGHT
 10
0.0
 20
0.0
 30
0.0
  9
$PUCSORGFRONT
 10
0.0
 20
0.0
 30
0.0
  9
$PUCSORGBACK
 10
0.0
 20
0.0
 30
0.0
  9
$USERI1
 70
     0
  9
$USERI2
 70
     0
  9
$USERI3
 70
     0
  9
$USERI4
 70
     0
  9
$USERI5
 70
     0
  9
$USERR1
 40
0.0
  9
$USERR2
 40
0.0
  9
$USERR3
 40
0.0
  9
$USERR4
 40
0.0
  9
$USERR5
 40
0.0
  9
$WORLDVIEW
 70
     1
  9
$SHADEDGE
 70
     3
  9
$SHADEDIF
 70
    70
  9
$TILEMODE
 70
     1
  9
$MAXACTVP
 70
    48
  9
$PINSBASE
 10
0.0
 20
0.0
 30
0.0
  9
$PLIMCHECK
 70
     0
  9
$PEXTMIN
 10
1.000000000000000E+20
 20
1.000000000000000E+20
 30
1.000000000000000E+20
  9
$PEXTMAX
 10
-1.000000000000000E+20
 20
-1.000000000000000E+20
 30
-1.000000000000000E+20
  9
$PLIMMIN
 10
0.0
 20
0.0
  9
$PLIMMAX
 10
12.0
 20
9.0
  9
$UNITMODE
 70
     0
  9
$VISRETAIN
 70
     1
  9
$PLINEGEN
 70
     0
  9
$PSLTSCALE
 70
     0
  9
$TREEDEPTH
 70
  3020
  9
$CMLSTYLE
  2
Standard
  9
$CMLJUST
 70
     0
  9
$CMLSCALE
 40
20.0
  9
$PROXYGRAPHICS
 70
     1
  9
$MEASUREMENT
 70
     1
  9
$CELWEIGHT
370
    -1
  9
$ENDCAPS
280
     0
  9
$JOINSTYLE
280
     0
  9
$LWDISPLAY
290
     0
  9
$INSUNITS
 70
     0
  9
$HYPERLINKBASE
  1

  9
$STYLESHEET
  1

  9
$XEDIT
290
     1
  9
$CEPSNTYPE
380
     0
  9
$PSTYLEMODE
290
     1
  9
$FINGERPRINTGUID
  2
{F026F23F-067B-8D40-BADB-2E9F6F8E7065}
  9
$VERSIONGUID
  2
{BA217017-20AC-7B4F-89B5-DD21E792EE41}
  9
$EXTNAMES
290
     1
  9
$PSVPSCALE
 40
0.0
  9
$OLESTARTUP
290
     0
  9
$SORTENTS
280
   127
  9
$INDEXCTL
280
     0
  9
$HIDETEXT
280
     1
  9
$XCLIPFRAME
280
     2
  9
$HALOGAP
280
     0
  9
$OBSCOLOR
 70
   257
  9
$OBSLTYPE
280
     0
  9
$INTERSECTIONDISPLAY
280
     0
  9
$INTERSECTIONCOLOR
 70
   257
  9
$DIMASSOC
280
     1
  9
$PROJECTNAME
  1

  9
$CAMERADISPLAY
290
     0
  9
$LENSLENGTH
 40
50.0
  9
$CAMERAHEIGHT
 40
0.0
  9
$STEPSPERSEC
 40
2.0
  9
$STEPSIZE
 40
6.0
  9
$3DDWFPREC
 40
2.0
  9
$PSOLWIDTH
 40
0.25
  9
$PSOLHEIGHT
 40
4.0
  9
$LOFTANG1
 40
1.570796326794896
  9
$LOFTANG2
 40
1.570796326794896
  9
$LOFTMAG1
 40
0.0
  9
$LOFTMAG2
 40
0.0
  9
$LOFTPARAM
 70
     7
  9
$LOFTNORMALS
280
     1
  9
$LATITUDE
 40
37.795
  9
$LONGITUDE
 40
-122.394
  9
$NORTHDIRECTION
 40
0.0
  9
$TIMEZONE
 70
 -8000
  9
$LIGHTGLYPHDISPLAY
280
     1
  9
$TILEMODELIGHTSYNCH
280
     1
  9
$CMATERIAL
347
11
  9
$SOLIDHIST
280
     0
  9
$SHOWHIST
280
     1
  9
$DWFFRAME
280
     2
  9
$DGNFRAME
280
     0
  9
$REALWORLDSCALE
290
     1
  9
$INTERFERECOLOR
 62
     1
  9
$INTERFEREOBJVS
345
33
  9
$INTERFEREVPVS
346
30
  9
$CSHADOW
280
     0
  9
$SHADOWPLANELOCATION
 40
0.0
  0
ENDSEC
  0
SECTION
  2
CLASSES
  0
CLASS
  1
ACDBDICTIONARYWDFLT
  2
AcDbDictionaryWithDefault
  3
ObjectDBX Classes
 90
        0
 91
        1
280
     0
281
     0
  0
CLASS
  1
MATERIAL
  2
AcDbMaterial
  3
ObjectDBX Classes
 90
     1153
 91
        3
280
     0
281
     0
  0
CLASS
  1
VISUALSTYLE
  2
AcDbVisualStyle
  3
ObjectDBX Classes
 90
     4095
 91
       24
280
     0
281
     0
  0
CLASS
  1
SCALE
  2
AcDbScale
  3
ObjectDBX Classes
 90
     1153
 91
       17
280
     0
281
     0
  0
CLASS
  1
TABLESTYLE
  2
AcDbTableStyle
  3
ObjectDBX Classes
 90
     4095
 91
        1
280
     0
281
     0
  0
CLASS
  1
MLEADERSTYLE
  2
AcDbMLeaderStyle
  3
ACDB_MLEADERSTYLE_CLASS
 90
     4095
 91
        1
280
     0
281
     0
  0
CLASS
  1
ACDBSECTIONVIEWSTYLE
  2
AcDbSectionViewStyle
  3
ObjectDBX Classes
 90
     1025
 91
        2
280
     0
281
     0
  0
CLASS
  1
ACDBDETAILVIEWSTYLE
  2
AcDbDetailViewStyle
  3
ObjectDBX Classes
 90
     1025
 91
        2
280
     0
281
     0
  0
CLASS
  1
SORTENTSTABLE
  2
AcDbSortentsTable
  3
ObjectDBX Classes
 90
        0
 91
        1
280
     0
281
     0
  0
CLASS
  1
DICTIONARYVAR
  2
AcDbDictionaryVar
  3
ObjectDBX Classes
 90
        0
 91
       10
280
     0
281
     0
  0
CLASS
  1
PLOTSETTINGS
  2
AcDbPlotSettings
  3
ObjectDBX Classes
 90
        0
 91
        1
280
     0
281
     0
  0
CLASS
  1
CELLSTYLEMAP
  2
AcDbCellStyleMap
  3
ObjectDBX Classes
 90
     1152
 91
        1
280
     0
281
     0
  0
ENDSEC
  0
SECTION
  2
TABLES
  0
TABLE
  2
VPORT
  5
8
330
0
100
AcDbSymbolTable
 70
     1
  0
VPORT
  5
57
330
8
100
AcDbSymbolTableRecord
100
AcDbViewportTableRecord
  2
*Active
 70
     0
 10
0.0
 20
0.0
 11
1.0
 21
1.0
 12
137.4632223581234
 22
106.1442955561289
 13
0.0
 23
0.0
 14
10.0
 24
10.0
 15
10.0
 25
10.0
 16
0.0
 26
0.0
 36
1.0
 17
0.0
 27
0.0
 37
0.0
 40
214.2794621514516
 41
2.370967741935483
 42
50.0
 43
0.0
 44
0.0
 50
0.0
 51
0.0
 71
     0
 72
   100
 73
     1
 74
     1
 75
     0
 76
     0
 77
     0
 78
     0
281
     0
 65
     1
110
0.0
120
0.0
130
0.0
111
1.0
121
0.0
131
0.0
112
0.0
122
1.0
132
0.0
 79
     0
146
0.0
348
2F
 60
     0
 61
     5
292
     1
282
     1
141
0.0
142
0.0
 63
   250
421
  3355443
1001
ACAD_NAV_VCDISPLAY
1070
     3
  0
ENDTAB
  0
TABLE
  2
LTYPE
  5
5
330
0
100
AcDbSymbolTable
 70
     2
  0
LTYPE
  5
5B
330
5
100
AcDbSymbolTableRecord
100
AcDbLinetypeTableRecord
  2
ByBlock
 70
     0
  3

 72
    65
 73
     0
 40
0.0
  0
LTYPE
  5
5C
330
5
100
AcDbSymbolTableRecord
100
AcDbLinetypeTableRecord
  2
ByLayer
 70
     0
  3

 72
    65
 73
     0
 40
0.0
  0
LTYPE
  5
5D
330
5
100
AcDbSymbolTableRecord
100
AcDbLinetypeTableRecord
  2
Continuous
 70
     0
  3
Solid line
 72
    65
 73
     0
 40
0.0
  0
LTYPE
  5
7A
330
5
100
AcDbSymbolTableRecord
100
AcDbLinetypeTableRecord
  2
HIDDEN2
 70
     0
  3
Hidden (.5x) _ _ _ _ _ _ _ _ _ _ _ _ _ _ _ _ _
 72
    65
 73
     2
 40
4.762499999999999
 49
3.174999999999999
 74
     0
 49
-1.587499999999999
 74
     0
  0
ENDTAB
  0
TABLE
  2
LAYER
  5
2
330
0
100
AcDbSymbolTable
 70
     6
  0
LAYER
  5
54
102
{ACAD_XDICTIONARY
360
4DC
102
}
330
2
100
AcDbSymbolTableRecord
100
AcDbLayerTableRecord
  2
0
 70
     0
 62
     7
  6
Continuous
370
    -3
390
F
347
21
348
0
1001
AcAecLayerStandard
1000

1000

  0
LAYER
  5
79
330
2
100
AcDbSymbolTableRecord
100
AcDbLayerTableRecord
  2
Defpoints
 70
     0
 62
     7
  6
Continuous
290
     0
370
    -3
390
F
347
21
348
0
1001
AcAecLayerStandard
1000

1000

  0
LAYER
  5
7D
102
{ACAD_XDICTIONARY
360
7E
102
}
330
2
100
AcDbSymbolTableRecord
100
AcDbLayerTableRecord
  2
VIEWPORT
 70
     0
 62
     7
  6
Continuous
370
    -3
390
F
347
21
348
0
  0
LAYER
  5
81
102
{ACAD_XDICTIONARY
360
82
102
}
330
2
100
AcDbSymbolTableRecord
100
AcDbLayerTableRecord
  2
基本図面
 70
     0
 62
     7
  6
Continuous
370
    -3
390
F
347
21
348
0
  0
LAYER
  5
8B
102
{ACAD_XDICTIONARY
360
8C
102
}
330
2
100
AcDbSymbolTableRecord
100
AcDbLayerTableRecord
  2
寸法線
 70
     0
 62
     6
  6
Continuous
370
    -3
390
F
347
21
348
0
  0
LAYER
  5
40F
102
{ACAD_XDICTIONARY
360
410
102
}
330
2
100
AcDbSymbolTableRecord
100
AcDbLayerTableRecord
  2
図面枠
 70
     0
 62
     5
  6
Continuous
370
    -3
390
F
347
21
348
0
  0
ENDTAB
  0
TABLE
  2
STYLE
  5
3
330
0
100
AcDbSymbolTable
 70
     2
  0
STYLE
  5
55
330
3
100
AcDbSymbolTableRecord
100
AcDbTextStyleTableRecord
  2
STANDARD
 70
     0
 40
0.0
 41
1.0
 50
0.0
 71
     0
 42
2.5
  3

  4

  0
STYLE
  5
5A
330
3
100
AcDbSymbolTableRecord
100
AcDbTextStyleTableRecord
  2
Annotative
 70
     0
 40
0.0
 41
1.0
 50
0.0
 71
     0
 42
0.2
  3
txt
  4

1001
AcadAnnotative
1000
AnnotativeData
1002
{
1070
     1
1070
     1
1002
}
  0
ENDTAB
  0
TABLE
  2
VIEW
  5
6
330
0
100
AcDbSymbolTable
 70
     0
  0
ENDTAB
  0
TABLE
  2
UCS
  5
7
330
0
100
AcDbSymbolTable
 70
     0
  0
ENDTAB
  0
TABLE
  2
APPID
  5
9
330
0
100
AcDbSymbolTable
 70
     6
  0
APPID
  5
56
330
9
100
AcDbSymbolTableRecord
100
AcDbRegAppTableRecord
  2
ACAD
 70
     0
  0
APPID
  5
5E
330
9
100
AcDbSymbolTableRecord
100
AcDbRegAppTableRecord
  2
AcadAnnotative
 70
     0
  0
APPID
  5
78
330
9
100
AcDbSymbolTableRecord
100
AcDbRegAppTableRecord
  2
ACAD_PSEXT
 70
     0
  0
APPID
  5
139
330
9
100
AcDbSymbolTableRecord
100
AcDbRegAppTableRecord
  2
ACAD_DSTYLE_DIMRADIAL_EXTENSION
 70
     0
  0
APPID
  5
434
330
9
100
AcDbSymbolTableRecord
100
AcDbRegAppTableRecord
  2
AcAecLayerStandard
 70
     0
  0
APPID
  5
4DE
330
9
100
AcDbSymbolTableRecord
100
AcDbRegAppTableRecord
  2
ACAD_NAV_VCDISPLAY
 70
     0
  0
ENDTAB
  0
TABLE
  2
DIMSTYLE
  5
A
330
0
100
AcDbSymbolTable
 70
     3
100
AcDbDimStyleTable
 71
     1
340
7B
  0
DIMSTYLE
105
58
330
A
100
AcDbSymbolTableRecord
100
AcDbDimStyleTableRecord
  2
Standard
 70
     0
340
55
  0
DIMSTYLE
105
59
330
A
100
AcDbSymbolTableRecord
100
AcDbDimStyleTableRecord
  2
Annotative
 70
     0
340
55
1001
AcadAnnotative
1000
AnnotativeData
1002
{
1070
     1
1070
     1
1002
}
  0
DIMSTYLE
105
7B
102
{ACAD_REACTORS
330
E0
330
ED
330
FC
330
109
330
116
330
130
330
13C
330
14B
330
8A
330
A0
330
AD
330
B9
330
C6
330
D3
330
154
330
167
330
17A
330
183
102
}
330
A
100
AcDbSymbolTableRecord
100
AcDbDimStyleTableRecord
  2
STANDARD_WS
 70
     0
 40
0.7003367003367004
 41
2.5
 42
0.625
 43
3.75
 44
1.25
 73
     0
 74
     0
 77
     1
 78
     8
140
2.5
141
2.5
143
0.0394
147
0.625
171
     4
172
     1
273
     8
274
     4
340
55
  0
ENDTAB
  0
TABLE
  2
BLOCK_RECORD
  5
1
330
0
100
AcDbSymbolTable
 70
    39
  0
BLOCK_RECORD
  5
70
102
{ACAD_XDICTIONARY
360
40C
102
}
330
1
100
AcDbSymbolTableRecord
100
AcDbBlockTableRecord
  2
*Model_Space
340
73
 70
     0
280
     1
281
     0
  0
BLOCK_RECORD
  5
6C
330
1
100
AcDbSymbolTableRecord
100
AcDbBlockTableRecord
  2
*Paper_Space
340
6F
 70
     0
280
     1
281
     0
  0
BLOCK_RECORD
  5
74
330
1
100
AcDbSymbolTableRecord
100
AcDbBlockTableRecord
  2
*Paper_Space0
340
77
 70
     0
280
     1
281
     0
  0
BLOCK_RECORD
  5
94
330
1
100
AcDbSymbolTableRecord
100
AcDbBlockTableRecord
  2
_OPEN
340
0
102
{BLKREFS
331
4A0
331
4A5
331
4AA
331
4B0
331
4B1
331
4B8
331
4C0
331
4C1
331
438
331
439
331
441
331
442
331
44A
331
44B
331
452
331
453
331
45B
331
45C
331
464
331
465
331
46D
331
46E
331
478
331
479
331
481
331
482
331
48A
331
48B
331
493
331
494
331
49B
102
}
 70
     0
280
     1
281
     0
  0
BLOCK_RECORD
  5
192
330
1
100
AcDbSymbolTableRecord
100
AcDbBlockTableRecord
  2
*D20
340
0
 70
     0
280
     1
281
     0
  0
BLOCK_RECORD
  5
19E
330
1
100
AcDbSymbolTableRecord
100
AcDbBlockTableRecord
  2
*D21
340
0
 70
     0
280
     1
281
     0
  0
BLOCK_RECORD
  5
1AA
330
1
100
AcDbSymbolTableRecord
100
AcDbBlockTableRecord
  2
*D22
340
0
 70
     0
280
     1
281
     0
  0
BLOCK_RECORD
  5
1B5
330
1
100
AcDbSymbolTableRecord
100
AcDbBlockTableRecord
  2
*D23
340
0
 70
     0
280
     1
281
     0
  0
BLOCK_RECORD
  5
1C1
330
1
100
AcDbSymbolTableRecord
100
AcDbBlockTableRecord
  2
*D24
340
0
 70
     0
280
     1
281
     0
  0
BLOCK_RECORD
  5
1CD
330
1
100
AcDbSymbolTableRecord
100
AcDbBlockTableRecord
  2
*D25
340
0
 70
     0
280
     1
281
     0
  0
BLOCK_RECORD
  5
1D9
330
1
100
AcDbSymbolTableRecord
100
AcDbBlockTableRecord
  2
*D26
340
0
 70
     0
280
     1
281
     0
  0
BLOCK_RECORD
  5
1E5
330
1
100
AcDbSymbolTableRecord
100
AcDbBlockTableRecord
  2
*D27
340
0
 70
     0
280
     1
281
     0
  0
BLOCK_RECORD
  5
1F3
330
1
100
AcDbSymbolTableRecord
100
AcDbBlockTableRecord
  2
*D28
340
0
 70
     0
280
     1
281
     0
  0
BLOCK_RECORD
  5
1FF
330
1
100
AcDbSymbolTableRecord
100
AcDbBlockTableRecord
  2
*D29
340
0
 70
     0
280
     1
281
     0
  0
BLOCK_RECORD
  5
20B
330
1
100
AcDbSymbolTableRecord
100
AcDbBlockTableRecord
  2
*D30
340
0
 70
     0
280
     1
281
     0
  0
BLOCK_RECORD
  5
217
330
1
100
AcDbSymbolTableRecord
100
AcDbBlockTableRecord
  2
*D31
340
0
 70
     0
280
     1
281
     0
  0
BLOCK_RECORD
  5
21F
330
1
100
AcDbSymbolTableRecord
100
AcDbBlockTableRecord
  2
*D32
340
0
 70
     0
280
     1
281
     0
  0
BLOCK_RECORD
  5
227
330
1
100
AcDbSymbolTableRecord
100
AcDbBlockTableRecord
  2
*D33
340
0
 70
     0
280
     1
281
     0
  0
BLOCK_RECORD
  5
22F
330
1
100
AcDbSymbolTableRecord
100
AcDbBlockTableRecord
  2
*D34
340
0
 70
     0
280
     1
281
     0
  0
BLOCK_RECORD
  5
237
330
1
100
AcDbSymbolTableRecord
100
AcDbBlockTableRecord
  2
*D35
340
0
 70
     0
280
     1
281
     0
  0
BLOCK_RECORD
  5
243
330
1
100
AcDbSymbolTableRecord
100
AcDbBlockTableRecord
  2
*D36
340
0
 70
     0
280
     1
281
     0
  0
BLOCK_RECORD
  5
24B
330
1
100
AcDbSymbolTableRecord
100
AcDbBlockTableRecord
  2
*D37
340
0
 70
     0
280
     1
281
     0
  0
BLOCK_RECORD
  5
412
330
1
100
AcDbSymbolTableRecord
100
AcDbBlockTableRecord
  2
TITLE_BLOCK
340
0
102
{BLKREFS
331
40E
102
}
 70
     0
280
     1
281
     0
  0
ENDTAB
  0
ENDSEC
  0
SECTION
  2
BLOCKS
  0
BLOCK
  5
71
330
70
100
AcDbEntity
  8
0
100
AcDbBlockBegin
  2
*Model_Space
 70
     0
 10
0.0
 20
0.0
 30
0.0
  3
*Model_Space
  1

  0
ENDBLK
  5
72
330
70
100
AcDbEntity
  8
0
100
AcDbBlockEnd
  0
BLOCK
  5
6D
330
6C
100
AcDbEntity
 67
     1
  8
0
100
AcDbBlockBegin
  2
*Paper_Space
 70
     0
 10
0.0
 20
0.0
 30
0.0
  3
*Paper_Space
  1

  0
ENDBLK
  5
6E
330
6C
100
AcDbEntity
 67
     1
  8
0
100
AcDbBlockEnd
  0
BLOCK
  5
75
330
74
100
AcDbEntity
 67
     1
  8
0
100
AcDbBlockBegin
  2
*Paper_Space0
 70
     0
 10
0.0
 20
0.0
 30
0.0
  3
*Paper_Space0
  1

  0
ENDBLK
  5
76
330
74
100
AcDbEntity
 67
     1
  8
0
100
AcDbBlockEnd
  0
BLOCK
  5
95
330
94
100
AcDbEntity
  8
0
100
AcDbBlockBegin
  2
_OPEN
 70
     0
 10
0.0
 20
0.0
 30
0.0
  3
_OPEN
  1

  0
LINE
  5
96
330
94
100
AcDbEntity
  8
0
  6
ByBlock
 62
     0
100
AcDbLine
 10
-1.0
 20
0.1666666666666666
 30
0.0
 11
0.0
 21
0.0
 31
0.0
  0
LINE
  5
97
330
94
100
AcDbEntity
  8
0
  6
ByBlock
 62
     0
100
AcDbLine
 10
0.0
 20
0.0
 30
0.0
 11
-1.0
 21
-0.1666666666666666
 31
0.0
  0
LINE
  5
98
330
94
100
AcDbEntity
  8
0
  6
ByBlock
 62
     0
100
AcDbLine
 10
0.0
 20
0.0
 30
0.0
 11
-1.0
 21
0.0
 31
0.0
  0
ENDBLK
  5
99
330
94
100
AcDbEntity
  8
0
100
AcDbBlockEnd
  0
BLOCK
  5
193
330
192
100
AcDbEntity
  8
0
100
AcDbBlockBegin
  2
*D20
 70
     1
 10
0.0
 20
0.0
 30
0.0
  3
*D20
  1

  0
LINE
  5
435
330
192
100
AcDbEntity
  8
寸法線
 62
     0
440
 16777216
 48
0.999999998813069
370
    -2
100
AcDbLine
 10
168.4677711078613
 20
148.8787761487116
 30
0.0
 11
168.4677711078613
 21
162.5018899247193
 31
0.0
  0
LINE
  5
436
330
192
100
AcDbEntity
  8
寸法線
 62
     0
440
 16777216
 48
0.999999998813069
370
    -2
100
AcDbLine
 10
203.4677710663187
 20
148.8787761487116
 30
0.0
 11
203.4677710663187
 21
162.5018899247193
 31
0.0
  0
LINE
  5
437
330
192
100
AcDbEntity
  8
寸法線
 62
     0
440
 16777216
 48
0.999999998813069
370
    -2
100
AcDbLine
 10
170.967771104894
 20
161.251889926203
 30
0.0
 11
200.9677710692861
 21
161.251889926203
 31
0.0
  0
INSERT
  5
438
330
192
100
AcDbEntity
  8
寸法線
 62
     0
440
 16777216
 48
0.999999998813069
370
    -2
100
AcDbBlockReference
  2
_OPEN
 10
168.4677711078613
 20
161.251889926203
 30
0.0
 41
2.499999997032672
 42
2.499999997032672
 43
2.499999997032672
 50
180.0
  0
INSERT
  5
439
330
192
100
AcDbEntity
  8
寸法線
 62
     0
440
 16777216
 48
0.999999998813069
370
    -2
100
AcDbBlockReference
  2
_OPEN
 10
203.4677710663187
 20
161.251889926203
 30
0.0
 41
2.499999997032672
 42
2.499999997032672
 43
2.499999997032672
  0
MTEXT
  5
43A
330
192
100
AcDbEntity
  8
寸法線
 62
     0
440
 16777216
 48
0.999999998813069
100
AcDbMText
 10
185.96777108709
 20
163.1268899239775
 30
0.0
 40
2.499999997032672
 41
0.0
 46
0.0
 71
     5
 72
     1
  1
\A1;35
 73
     1
 44
1.0
  0
POINT
  5
43B
330
192
100
AcDbEntity
  8
Defpoints
 62
     0
440
 16777216
 48
0.999999998813069
100
AcDbPoint
 10
168.4677711078613
 20
148.2537761494534
 30
0.0
  0
POINT
  5
43C
330
192
100
AcDbEntity
  8
Defpoints
 62
     0
440
 16777216
 48
0.999999998813069
100
AcDbPoint
 10
203.4677710663187
 20
148.2537761494534
 30
0.0
  0
POINT
  5
43D
330
192
100
AcDbEntity
  8
Defpoints
 62
     0
440
 16777216
 48
0.999999998813069
100
AcDbPoint
 10
203.4677710663187
 20
161.251889926203
 30
0.0
  0
ENDBLK
  5
194
330
192
100
AcDbEntity
  8
0
100
AcDbBlockEnd
  0
BLOCK
  5
19F
330
19E
100
AcDbEntity
  8
0
100
AcDbBlockBegin
  2
*D21
 70
     1
 10
0.0
 20
0.0
 30
0.0
  3
*D21
  1

  0
LINE
  5
43E
330
19E
100
AcDbEntity
  8
寸法線
 62
     0
440
 16777216
 48
0.999999998813069
370
    -2
100
AcDbLine
 10
196.8927710741229
 20
155.4537761409075
 30
0.0
 11
215.8505595478516
 21
155.4537761409075
 31
0.0
  0
LINE
  5
43F
330
19E
100
AcDbEntity
  8
寸法線
 62
     0
440
 16777216
 48
0.999999998813069
370
    -2
100
AcDbLine
 10
204.0927710655772
 20
85.45377622399289
 30
0.0
 11
215.8505595478516
 21
85.45377622399289
 31
0.0
  0
LINE
  5
440
330
19E
100
AcDbEntity
  8
寸法線
 62
     0
440
 16777216
 48
0.999999998813069
370
    -2
100
AcDbLine
 10
214.6005595493353
 20
152.9537761438748
 30
0.0
 11
214.6005595493353
 21
87.95377622102556
 31
0.0
  0
INSERT
  5
441
330
19E
100
AcDbEntity
  8
寸法線
 62
     0
440
 16777216
 48
0.999999998813069
370
    -2
100
AcDbBlockReference
  2
_OPEN
 10
214.6005595493353
 20
155.4537761409075
 30
0.0
 41
2.499999997032672
 42
2.499999997032672
 43
2.499999997032672
 50
90.0
  0
INSERT
  5
442
330
19E
100
AcDbEntity
  8
寸法線
 62
     0
440
 16777216
 48
0.999999998813069
370
    -2
100
AcDbBlockReference
  2
_OPEN
 10
214.6005595493353
 20
85.45377622399289
 30
0.0
 41
2.499999997032672
 42
2.499999997032672
 43
2.499999997032672
 50
270.0
  0
MTEXT
  5
443
330
19E
100
AcDbEntity
  8
寸法線
 62
     0
440
 16777216
 48
0.999999998813069
100
AcDbMText
 10
212.7255595515607
 20
120.4537761824504
 30
0.0
 40
2.499999997032672
 41
0.0
 46
0.0
 71
     5
 72
     1
  1
\A1;70
 11
0.0000000000000001
 21
1.0
 31
0.0
 73
     1
 44
1.0
  0
POINT
  5
444
330
19E
100
AcDbEntity
  8
Defpoints
 62
     0
440
 16777216
 48
0.999999998813069
100
AcDbPoint
 10
196.2677710748647
 20
155.4537761409075
 30
0.0
  0
POINT
  5
445
330
19E
100
AcDbEntity
  8
Defpoints
 62
     0
440
 16777216
 48
0.999999998813069
100
AcDbPoint
 10
203.4677710663191
 20
85.45377622399289
 30
0.0
  0
POINT
  5
446
330
19E
100
AcDbEntity
  8
Defpoints
 62
     0
440
 16777216
 48
0.999999998813069
100
AcDbPoint
 10
214.6005595493353
 20
85.45377622399289
 30
0.0
  0
ENDBLK
  5
1A0
330
19E
100
AcDbEntity
  8
0
100
AcDbBlockEnd
  0
BLOCK
  5
1AB
330
1AA
100
AcDbEntity
  8
0
100
AcDbBlockBegin
  2
*D22
 70
     1
 10
0.0
 20
0.0
 30
0.0
  3
*D22
  1

  0
LINE
  5
447
330
1AA
100
AcDbEntity
  8
寸法線
 62
     0
440
 16777216
 48
0.999999998813069
370
    -2
100
AcDbLine
 10
206.0529782107586
 20
55.45377625960085
 30
0.0
 11
215.8505595478534
 21
55.45377625960086
 31
0.0
  0
LINE
  5
448
330
1AA
100
AcDbEntity
  8
寸法線
 62
     0
440
 16777216
 48
0.999999998813069
370
    -2
100
AcDbLine
 10
214.600559549337
 20
82.95484014015672
 30
0.0
 11
214.600559549337
 21
57.95377625663354
 31
0.0
  0
MTEXT
  5
449
330
1AA
100
AcDbEntity
  8
寸法線
 62
     0
440
 16777216
 48
0.999999998813069
100
AcDbMText
 10
212.7255595515612
 20
70.45430819839538
 30
0.0
 40
2.499999997032672
 41
0.0
 46
0.0
 71
     5
 72
     1
  1
\A1;30
 11
0.0000000000000001
 21
1.0
 31
0.0
 73
     1
 44
1.0
  0
INSERT
  5
44A
330
1AA
100
AcDbEntity
  8
寸法線
 62
     0
440
 16777216
 48
0.999999998813069
370
    -2
100
AcDbBlockReference
  2
_OPEN
 10
214.600559549337
 20
85.45484013718938
 30
0.0
 41
2.499999997032672
 42
2.499999997032672
 43
2.499999997032672
 50
90.0
  0
INSERT
  5
44B
330
1AA
100
AcDbEntity
  8
寸法線
 62
     0
440
 16777216
 48
0.999999998813069
370
    -2
100
AcDbBlockReference
  2
_OPEN
 10
214.600559549337
 20
55.45377625960086
 30
0.0
 41
2.499999997032672
 42
2.499999997032672
 43
2.499999997032672
 50
270.0
  0
POINT
  5
44C
330
1AA
100
AcDbEntity
  8
Defpoints
 62
     0
440
 16777216
 48
0.999999998813069
100
AcDbPoint
 10
203.4808800127609
 20
85.45484013718938
 30
0.0
  0
POINT
  5
44D
330
1AA
100
AcDbEntity
  8
Defpoints
 62
     0
440
 16777216
 48
0.999999998813069
100
AcDbPoint
 10
205.4279782115004
 20
55.45377625960085
 30
0.0
  0
POINT
  5
44E
330
1AA
100
AcDbEntity
  8
Defpoints
 62
     0
440
 16777216
 48
0.999999998813069
100
AcDbPoint
 10
214.600559549337
 20
55.45377625960086
 30
0.0
  0
ENDBLK
  5
1AC
330
1AA
100
AcDbEntity
  8
0
100
AcDbBlockEnd
  0
BLOCK
  5
1B6
330
1B5
100
AcDbEntity
  8
0
100
AcDbBlockBegin
  2
*D23
 70
     1
 10
0.0
 20
0.0
 30
0.0
  3
*D23
  1

  0
LINE
  5
44F
330
1B5
100
AcDbEntity
  8
寸法線
 62
     0
440
 16777216
 48
0.999999998813069
370
    -2
100
AcDbLine
 10
155.4677711232918
 20
73.82877623779094
 30
0.0
 11
155.4677711232918
 21
56.71745003054547
 31
0.0
  0
LINE
  5
450
330
1B5
100
AcDbEntity
  8
寸法線
 62
     0
440
 16777216
 48
0.999999998813069
370
    -2
100
AcDbLine
 10
173.467771101927
 20
73.82877623779094
 30
0.0
 11
173.467771101927
 21
56.71745003054547
 31
0.0
  0
LINE
  5
451
330
1B5
100
AcDbEntity
  8
寸法線
 62
     0
440
 16777216
 48
0.999999998813069
370
    -2
100
AcDbLine
 10
157.9677711203245
 20
57.96745002906181
 30
0.0
 11
170.9677711048944
 21
57.96745002906181
 31
0.0
  0
INSERT
  5
452
330
1B5
100
AcDbEntity
  8
寸法線
 62
     0
440
 16777216
 48
0.999999998813069
370
    -2
100
AcDbBlockReference
  2
_OPEN
 10
155.4677711232918
 20
57.96745002906181
 30
0.0
 41
2.499999997032672
 42
2.499999997032672
 43
2.499999997032672
 50
180.0
  0
INSERT
  5
453
330
1B5
100
AcDbEntity
  8
寸法線
 62
     0
440
 16777216
 48
0.999999998813069
370
    -2
100
AcDbBlockReference
  2
_OPEN
 10
173.467771101927
 20
57.96745002906181
 30
0.0
 41
2.499999997032672
 42
2.499999997032672
 43
2.499999997032672
  0
MTEXT
  5
454
330
1B5
100
AcDbEntity
  8
寸法線
 62
     0
440
 16777216
 48
0.999999998813069
100
AcDbMText
 10
164.4677711126094
 20
59.84245002683631
 30
0.0
 40
2.499999997032672
 41
0.0
 46
0.0
 71
     5
 72
     1
  1
\A1;18
 73
     1
 44
1.0
  0
POINT
  5
455
330
1B5
100
AcDbEntity
  8
Defpoints
 62
     0
440
 16777216
 48
0.999999998813069
100
AcDbPoint
 10
155.4677711232918
 20
74.45377623704911
 30
0.0
  0
POINT
  5
456
330
1B5
100
AcDbEntity
  8
Defpoints
 62
     0
440
 16777216
 48
0.999999998813069
100
AcDbPoint
 10
173.467771101927
 20
74.45377623704911
 30
0.0
  0
POINT
  5
457
330
1B5
100
AcDbEntity
  8
Defpoints
 62
     0
440
 16777216
 48
0.999999998813069
100
AcDbPoint
 10
173.467771101927
 20
57.96745002906181
 30
0.0
  0
ENDBLK
  5
1B7
330
1B5
100
AcDbEntity
  8
0
100
AcDbBlockEnd
  0
BLOCK
  5
1C2
330
1C1
100
AcDbEntity
  8
0
100
AcDbBlockBegin
  2
*D24
 70
     1
 10
0.0
 20
0.0
 30
0.0
  3
*D24
  1

  0
LINE
  5
458
330
1C1
100
AcDbEntity
  8
寸法線
 62
     0
440
 16777216
 48
0.999999998813069
370
    -2
100
AcDbLine
 10
154.8427711240337
 20
90.45377621805826
 30
0.0
 11
151.1692978736769
 21
90.45377621805826
 31
0.0
  0
LINE
  5
459
330
1C1
100
AcDbEntity
  8
寸法線
 62
     0
440
 16777216
 48
0.999999998813069
370
    -2
100
AcDbLine
 10
163.6713736318202
 20
65.45540845666571
 30
0.0
 11
151.1692978736769
 21
65.45540845666569
 31
0.0
  0
LINE
  5
45A
330
1C1
100
AcDbEntity
  8
寸法線
 62
     0
440
 16777216
 48
0.999999998813069
370
    -2
100
AcDbLine
 10
152.4192978721933
 20
87.95377622102559
 30
0.0
 11
152.4192978721933
 21
67.95540845369837
 31
0.0
  0
INSERT
  5
45B
330
1C1
100
AcDbEntity
  8
寸法線
 62
     0
440
 16777216
 48
0.999999998813069
370
    -2
100
AcDbBlockReference
  2
_OPEN
 10
152.4192978721933
 20
90.45377621805826
 30
0.0
 41
2.499999997032672
 42
2.499999997032672
 43
2.499999997032672
 50
90.0
  0
INSERT
  5
45C
330
1C1
100
AcDbEntity
  8
寸法線
 62
     0
440
 16777216
 48
0.999999998813069
370
    -2
100
AcDbBlockReference
  2
_OPEN
 10
152.4192978721933
 20
65.45540845666569
 30
0.0
 41
2.499999997032672
 42
2.499999997032672
 43
2.499999997032672
 50
270.0
  0
MTEXT
  5
45D
330
1C1
100
AcDbEntity
  8
寸法線
 62
     0
440
 16777216
 48
0.999999998813069
100
AcDbMText
 10
150.5442978744188
 20
77.9545923373621
 30
0.0
 40
2.499999997032672
 41
0.0
 46
0.0
 71
     5
 72
     1
  1
\A1;25
 11
0.0000000000000001
 21
1.0
 31
0.0
 73
     1
 44
1.0
  0
POINT
  5
45E
330
1C1
100
AcDbEntity
  8
Defpoints
 62
     0
440
 16777216
 48
0.999999998813069
100
AcDbPoint
 10
155.4677711232919
 20
90.45377621805826
 30
0.0
  0
POINT
  5
45F
330
1C1
100
AcDbEntity
  8
Defpoints
 62
     0
440
 16777216
 48
0.999999998813069
100
AcDbPoint
 10
164.2963736310784
 20
65.45540845666571
 30
0.0
  0
POINT
  5
460
330
1C1
100
AcDbEntity
  8
Defpoints
 62
     0
440
 16777216
 48
0.999999998813069
100
AcDbPoint
 10
152.4192978721933
 20
65.45540845666569
 30
0.0
  0
ENDBLK
  5
1C3
330
1C1
100
AcDbEntity
  8
0
100
AcDbBlockEnd
  0
BLOCK
  5
1CE
330
1CD
100
AcDbEntity
  8
0
100
AcDbBlockBegin
  2
*D25
 70
     1
 10
0.0
 20
0.0
 30
0.0
  3
*D25
  1

  0
LINE
  5
461
330
1CD
100
AcDbEntity
  8
寸法線
 62
     0
440
 16777216
 48
0.999999998813069
370
    -2
100
AcDbLine
 10
175.0427711000573
 20
155.4537761409076
 30
0.0
 11
142.558735673164
 21
155.4537761409076
 31
0.0
  0
LINE
  5
462
330
1CD
100
AcDbEntity
  8
寸法線
 62
     0
440
 16777216
 48
0.999999998813069
370
    -2
100
AcDbLine
 10
163.8427711133513
 20
65.45377624773149
 30
0.0
 11
142.558735673164
 21
65.45377624773148
 31
0.0
  0
LINE
  5
463
330
1CD
100
AcDbEntity
  8
寸法線
 62
     0
440
 16777216
 48
0.999999998813069
370
    -2
100
AcDbLine
 10
143.8087356716803
 20
152.9537761438749
 30
0.0
 11
143.8087356716803
 21
67.95377624476415
 31
0.0
  0
INSERT
  5
464
330
1CD
100
AcDbEntity
  8
寸法線
 62
     0
440
 16777216
 48
0.999999998813069
370
    -2
100
AcDbBlockReference
  2
_OPEN
 10
143.8087356716803
 20
155.4537761409076
 30
0.0
 41
2.499999997032672
 42
2.499999997032672
 43
2.499999997032672
 50
90.0
  0
INSERT
  5
465
330
1CD
100
AcDbEntity
  8
寸法線
 62
     0
440
 16777216
 48
0.999999998813069
370
    -2
100
AcDbBlockReference
  2
_OPEN
 10
143.8087356716803
 20
65.45377624773148
 30
0.0
 41
2.499999997032672
 42
2.499999997032672
 43
2.499999997032672
 50
270.0
  0
MTEXT
  5
466
330
1CD
100
AcDbEntity
  8
寸法線
 62
     0
440
 16777216
 48
0.999999998813069
100
AcDbMText
 10
141.9337356739058
 20
110.4537761943197
 30
0.0
 40
2.499999997032672
 41
0.0
 46
0.0
 71
     5
 72
     1
  1
\A1;90
 11
0.0000000000000001
 21
1.0
 31
0.0
 73
     1
 44
1.0
  0
POINT
  5
467
330
1CD
100
AcDbEntity
  8
Defpoints
 62
     0
440
 16777216
 48
0.999999998813069
100
AcDbPoint
 10
175.6677710993155
 20
155.4537761409076
 30
0.0
  0
POINT
  5
468
330
1CD
100
AcDbEntity
  8
Defpoints
 62
     0
440
 16777216
 48
0.999999998813069
100
AcDbPoint
 10
164.4677711126094
 20
65.45377624773149
 30
0.0
  0
POINT
  5
469
330
1CD
100
AcDbEntity
  8
Defpoints
 62
     0
440
 16777216
 48
0.999999998813069
100
AcDbPoint
 10
143.8087356716803
 20
65.45377624773148
 30
0.0
  0
ENDBLK
  5
1CF
330
1CD
100
AcDbEntity
  8
0
100
AcDbBlockEnd
  0
BLOCK
  5
1DA
330
1D9
100
AcDbEntity
  8
0
100
AcDbBlockBegin
  2
*D26
 70
     1
 10
0.0
 20
0.0
 30
0.0
  3
*D26
  1

  0
LINE
  5
46A
330
1D9
100
AcDbEntity
  8
寸法線
 62
     0
440
 16777216
 48
0.999999998813069
370
    -2
100
AcDbLine
 10
198.4677710722535
 20
113.6797806677739
 30
0.0
 11
198.4677710722535
 21
116.1672745595839
 31
0.0
  0
LINE
  5
46B
330
1D9
100
AcDbEntity
  8
寸法線
 62
     0
440
 16777216
 48
0.999999998813069
370
    -2
100
AcDbLine
 10
173.4677711019267
 20
113.3570123375874
 30
0.0
 11
173.4677711019267
 21
116.1672745595839
 31
0.0
  0
LINE
  5
46C
330
1D9
100
AcDbEntity
  8
寸法線
 62
     0
440
 16777216
 48
0.999999998813069
370
    -2
100
AcDbLine
 10
195.9677710752209
 20
114.9172745610676
 30
0.0
 11
175.9677710989593
 21
114.9172745610676
 31
0.0
  0
INSERT
  5
46D
330
1D9
100
AcDbEntity
  8
寸法線
 62
     0
440
 16777216
 48
0.999999998813069
370
    -2
100
AcDbBlockReference
  2
_OPEN
 10
198.4677710722535
 20
114.9172745610676
 30
0.0
 41
2.499999997032672
 42
2.499999997032672
 43
2.499999997032672
  0
INSERT
  5
46E
330
1D9
100
AcDbEntity
  8
寸法線
 62
     0
440
 16777216
 48
0.999999998813069
370
    -2
100
AcDbBlockReference
  2
_OPEN
 10
173.4677711019267
 20
114.9172745610676
 30
0.0
 41
2.499999997032672
 42
2.499999997032672
 43
2.499999997032672
 50
180.0
  0
MTEXT
  5
46F
330
1D9
100
AcDbEntity
  8
寸法線
 62
     0
440
 16777216
 48
0.999999998813069
100
AcDbMText
 10
185.9677710870902
 20
116.7922745588421
 30
0.0
 40
2.499999997032672
 41
0.0
 46
0.0
 71
     5
 72
     1
  1
\A1;25
 73
     1
 44
1.0
  0
POINT
  5
470
330
1D9
100
AcDbEntity
  8
Defpoints
 62
     0
440
 16777216
 48
0.999999998813069
100
AcDbPoint
 10
198.4677710722535
 20
113.0547806685157
 30
0.0
  0
POINT
  5
471
330
1D9
100
AcDbEntity
  8
Defpoints
 62
     0
440
 16777216
 48
0.999999998813069
100
AcDbPoint
 10
173.4677711019267
 20
112.7320123383293
 30
0.0
  0
POINT
  5
472
330
1D9
100
AcDbEntity
  8
Defpoints
 62
     0
440
 16777216
 48
0.999999998813069
100
AcDbPoint
 10
173.4677711019267
 20
114.9172745610676
 30
0.0
  0
ENDBLK
  5
1DB
330
1D9
100
AcDbEntity
  8
0
100
AcDbBlockEnd
  0
BLOCK
  5
1E6
330
1E5
100
AcDbEntity
  8
0
100
AcDbBlockBegin
  2
*D27
 70
     1
 10
0.0
 20
0.0
 30
0.0
  3
*D27
  1

  0
LINE
  5
473
330
1E5
100
AcDbEntity
  8
寸法線
 62
     0
440
 16777216
 48
0.999999998813069
370
    -2
100
AcDbLine
 10
168.4677711078615
 20
131.7991095288355
 30
0.0
 11
168.4677711078615
 21
132.589825402394
 31
0.0
  0
LINE
  5
474
330
1E5
100
AcDbEntity
  8
寸法線
 62
     0
440
 16777216
 48
0.999999998813069
370
    -2
100
AcDbLine
 10
173.4677711019268
 20
131.9648254031358
 30
0.0
 11
173.4677711019268
 21
132.589825402394
 31
0.0
  0
LINE
  5
475
330
1E5
100
AcDbEntity
  8
寸法線
 62
     0
440
 16777216
 48
0.999999998813069
370
    -2
100
AcDbLine
 10
165.9677711108288
 20
131.3398254038776
 30
0.0
 11
163.4677711137961
 21
131.3398254038776
 31
0.0
  0
LINE
  5
476
330
1E5
100
AcDbEntity
  8
寸法線
 62
     0
440
 16777216
 48
0.999999998813069
370
    -2
100
AcDbLine
 10
175.9677710989594
 20
131.3398254038776
 30
0.0
 11
184.0463425179421
 21
131.3398254038776
 31
0.0
  0
LINE
  5
477
330
1E5
100
AcDbEntity
  8
寸法線
 62
     0
440
 16777216
 48
0.999999998813069
370
    -2
100
AcDbLine
 10
168.4677711078615
 20
131.3398254038776
 30
0.0
 11
173.4677711019268
 21
131.3398254038776
 31
0.0
  0
INSERT
  5
478
330
1E5
100
AcDbEntity
  8
寸法線
 62
     0
440
 16777216
 48
0.999999998813069
370
    -2
100
AcDbBlockReference
  2
_OPEN
 10
168.4677711078615
 20
131.3398254038776
 30
0.0
 41
2.499999997032672
 42
2.499999997032672
 43
2.499999997032672
  0
INSERT
  5
479
330
1E5
100
AcDbEntity
  8
寸法線
 62
     0
440
 16777216
 48
0.999999998813069
370
    -2
100
AcDbBlockReference
  2
_OPEN
 10
173.4677711019268
 20
131.3398254038776
 30
0.0
 41
2.499999997032672
 42
2.499999997032672
 43
2.499999997032672
 50
180.0
  0
MTEXT
  5
47A
330
1E5
100
AcDbEntity
  8
寸法線
 62
     0
440
 16777216
 48
0.999999998813069
100
AcDbMText
 10
181.2713425212358
 20
133.4433968299523
 30
0.0
 40
2.499999997032672
 41
0.0
 46
0.0
 71
     5
 72
     1
  1
\A1;φ5
 73
     1
 44
1.0
  0
POINT
  5
47B
330
1E5
100
AcDbEntity
  8
Defpoints
 62
     0
440
 16777216
 48
0.999999998813069
100
AcDbPoint
 10
168.4677711078615
 20
131.1741095295773
 30
0.0
  0
POINT
  5
47C
330
1E5
100
AcDbEntity
  8
Defpoints
 62
     0
440
 16777216
 48
0.999999998813069
100
AcDbPoint
 10
173.4677711019268
 20
131.3398254038776
 30
0.0
  0
POINT
  5
47D
330
1E5
100
AcDbEntity
  8
Defpoints
 62
     0
440
 16777216
 48
0.999999998813069
100
AcDbPoint
 10
173.4677711019268
 20
131.3398254038776
 30
0.0
  0
ENDBLK
  5
1E7
330
1E5
100
AcDbEntity
  8
0
100
AcDbBlockEnd
  0
BLOCK
  5
1F4
330
1F3
100
AcDbEntity
  8
0
100
AcDbBlockBegin
  2
*D28
 70
     1
 10
0.0
 20
0.0
 30
0.0
  3
*D28
  1

  0
LINE
  5
47E
330
1F3
100
AcDbEntity
  8
寸法線
 62
     0
440
 16777216
 48
0.999999998813069
370
    -2
100
AcDbLine
 10
66.77373146779325
 20
154.4787761420648
 30
0.0
 11
66.77373146779325
 21
160.9079976419053
 31
0.0
  0
LINE
  5
47F
330
1F3
100
AcDbEntity
  8
寸法線
 62
     0
440
 16777216
 48
0.999999998813069
370
    -2
100
AcDbLine
 10
116.7737314084468
 20
154.4787761420648
 30
0.0
 11
116.7737314084468
 21
160.9079976419053
 31
0.0
  0
LINE
  5
480
330
1F3
100
AcDbEntity
  8
寸法線
 62
     0
440
 16777216
 48
0.999999998813069
370
    -2
100
AcDbLine
 10
69.27373146482593
 20
159.6579976433889
 30
0.0
 11
114.2737314114141
 21
159.6579976433889
 31
0.0
  0
INSERT
  5
481
330
1F3
100
AcDbEntity
  8
寸法線
 62
     0
440
 16777216
 48
0.999999998813069
370
    -2
100
AcDbBlockReference
  2
_OPEN
 10
66.77373146779325
 20
159.6579976433889
 30
0.0
 41
2.499999997032672
 42
2.499999997032672
 43
2.499999997032672
 50
180.0
  0
INSERT
  5
482
330
1F3
100
AcDbEntity
  8
寸法線
 62
     0
440
 16777216
 48
0.999999998813069
370
    -2
100
AcDbBlockReference
  2
_OPEN
 10
116.7737314084468
 20
159.6579976433889
 30
0.0
 41
2.499999997032672
 42
2.499999997032672
 43
2.499999997032672
  0
MTEXT
  5
483
330
1F3
100
AcDbEntity
  8
寸法線
 62
     0
440
 16777216
 48
0.999999998813069
100
AcDbMText
 10
91.77373143811996
 20
161.5329976411634
 30
0.0
 40
2.499999997032672
 41
0.0
 46
0.0
 71
     5
 72
     1
  1
\A1;50
 73
     1
 44
1.0
  0
POINT
  5
484
330
1F3
100
AcDbEntity
  8
Defpoints
 62
     0
440
 16777216
 48
0.999999998813069
100
AcDbPoint
 10
66.77373146779325
 20
153.8537761428067
 30
0.0
  0
POINT
  5
485
330
1F3
100
AcDbEntity
  8
Defpoints
 62
     0
440
 16777216
 48
0.999999998813069
100
AcDbPoint
 10
116.7737314084468
 20
153.8537761428067
 30
0.0
  0
POINT
  5
486
330
1F3
100
AcDbEntity
  8
Defpoints
 62
     0
440
 16777216
 48
0.999999998813069
100
AcDbPoint
 10
116.7737314084468
 20
159.6579976433889
 30
0.0
  0
ENDBLK
  5
1F5
330
1F3
100
AcDbEntity
  8
0
100
AcDbBlockEnd
  0
BLOCK
  5
200
330
1FF
100
AcDbEntity
  8
0
100
AcDbBlockBegin
  2
*D29
 70
     1
 10
0.0
 20
0.0
 30
0.0
  3
*D29
  1

  0
LINE
  5
487
330
1FF
100
AcDbEntity
  8
寸法線
 62
     0
440
 16777216
 48
0.999999998813069
370
    -2
100
AcDbLine
 10
114.9813075043677
 20
155.4537761409077
 30
0.0
 11
129.8845933605464
 21
155.4537761409077
 31
0.0
  0
LINE
  5
488
330
1FF
100
AcDbEntity
  8
寸法線
 62
     0
440
 16777216
 48
0.999999998813069
370
    -2
100
AcDbLine
 10
108.3987314183872
 20
55.45377625960068
 30
0.0
 11
129.8845933605464
 21
55.45377625960069
 31
0.0
  0
LINE
  5
489
330
1FF
100
AcDbEntity
  8
寸法線
 62
     0
440
 16777216
 48
0.999999998813069
370
    -2
100
AcDbLine
 10
128.63459336203
 20
152.9537761438751
 30
0.0
 11
128.63459336203
 21
57.95377625663337
 31
0.0
  0
INSERT
  5
48A
330
1FF
100
AcDbEntity
  8
寸法線
 62
     0
440
 16777216
 48
0.999999998813069
370
    -2
100
AcDbBlockReference
  2
_OPEN
 10
128.63459336203
 20
155.4537761409077
 30
0.0
 41
2.499999997032672
 42
2.499999997032672
 43
2.499999997032672
 50
90.0
  0
INSERT
  5
48B
330
1FF
100
AcDbEntity
  8
寸法線
 62
     0
440
 16777216
 48
0.999999998813069
370
    -2
100
AcDbBlockReference
  2
_OPEN
 10
128.63459336203
 20
55.45377625960069
 30
0.0
 41
2.499999997032672
 42
2.499999997032672
 43
2.499999997032672
 50
270.0
  0
MTEXT
  5
48C
330
1FF
100
AcDbEntity
  8
寸法線
 62
     0
440
 16777216
 48
0.999999998813069
100
AcDbMText
 10
126.7595933642555
 20
105.4537762002544
 30
0.0
 40
2.499999997032672
 41
0.0
 46
0.0
 71
     5
 72
     1
  1
\A1;100
 11
0.0000000000000001
 21
1.0
 31
0.0
 73
     1
 44
1.0
  0
POINT
  5
48D
330
1FF
100
AcDbEntity
  8
Defpoints
 62
     0
440
 16777216
 48
0.999999998813069
100
AcDbPoint
 10
114.3563075051095
 20
155.4537761409077
 30
0.0
  0
POINT
  5
48E
330
1FF
100
AcDbEntity
  8
Defpoints
 62
     0
440
 16777216
 48
0.999999998813069
100
AcDbPoint
 10
107.7737314191291
 20
55.45377625960068
 30
0.0
  0
POINT
  5
48F
330
1FF
100
AcDbEntity
  8
Defpoints
 62
     0
440
 16777216
 48
0.999999998813069
100
AcDbPoint
 10
128.63459336203
 20
55.45377625960069
 30
0.0
  0
ENDBLK
  5
201
330
1FF
100
AcDbEntity
  8
0
100
AcDbBlockEnd
  0
BLOCK
  5
20C
330
20B
100
AcDbEntity
  8
0
100
AcDbBlockBegin
  2
*D30
 70
     1
 10
0.0
 20
0.0
 30
0.0
  3
*D30
  1

  0
LINE
  5
490
330
20B
100
AcDbEntity
  8
寸法線
 62
     0
440
 16777216
 48
0.999999998813069
370
    -2
100
AcDbLine
 10
206.0529782107586
 20
55.45377625960091
 30
0.0
 11
222.0621087392936
 21
55.45377625960092
 31
0.0
  0
LINE
  5
491
330
20B
100
AcDbEntity
  8
寸法線
 62
     0
440
 16777216
 48
0.999999998813069
370
    -2
100
AcDbLine
 10
192.5177710793157
 20
155.4537761409076
 30
0.0
 11
222.0621087392936
 21
155.4537761409076
 31
0.0
  0
LINE
  5
492
330
20B
100
AcDbEntity
  8
寸法線
 62
     0
440
 16777216
 48
0.999999998813069
370
    -2
100
AcDbLine
 10
220.8121087407773
 20
57.95377625663359
 30
0.0
 11
220.8121087407773
 21
152.953776143875
 31
0.0
  0
INSERT
  5
493
330
20B
100
AcDbEntity
  8
寸法線
 62
     0
440
 16777216
 48
0.999999998813069
370
    -2
100
AcDbBlockReference
  2
_OPEN
 10
220.8121087407773
 20
55.45377625960092
 30
0.0
 41
2.499999997032672
 42
2.499999997032672
 43
2.499999997032672
 50
270.0
  0
INSERT
  5
494
330
20B
100
AcDbEntity
  8
寸法線
 62
     0
440
 16777216
 48
0.999999998813069
370
    -2
100
AcDbBlockReference
  2
_OPEN
 10
220.8121087407773
 20
155.4537761409076
 30
0.0
 41
2.499999997032672
 42
2.499999997032672
 43
2.499999997032672
 50
90.0
  0
MTEXT
  5
495
330
20B
100
AcDbEntity
  8
寸法線
 62
     0
440
 16777216
 48
0.999999998813069
100
AcDbMText
 10
218.9371087430028
 20
105.4537762002545
 30
0.0
 40
2.499999997032672
 41
0.0
 46
0.0
 71
     5
 72
     1
  1
\A1;100
 11
0.0000000000000001
 21
1.0
 31
0.0
 73
     1
 44
1.0
  0
POINT
  5
496
330
20B
100
AcDbEntity
  8
Defpoints
 62
     0
440
 16777216
 48
0.999999998813069
100
AcDbPoint
 10
205.4279782115004
 20
55.45377625960091
 30
0.0
  0
POINT
  5
497
330
20B
100
AcDbEntity
  8
Defpoints
 62
     0
440
 16777216
 48
0.999999998813069
100
AcDbPoint
 10
191.8927710800575
 20
155.4537761409076
 30
0.0
  0
POINT
  5
498
330
20B
100
AcDbEntity
  8
Defpoints
 62
     0
440
 16777216
 48
0.999999998813069
100
AcDbPoint
 10
220.8121087407773
 20
155.4537761409076
 30
0.0
  0
ENDBLK
  5
20D
330
20B
100
AcDbEntity
  8
0
100
AcDbBlockEnd
  0
BLOCK
  5
218
330
217
100
AcDbEntity
  8
0
100
AcDbBlockBegin
  2
*D31
 70
     1
 10
0.0
 20
0.0
 30
0.0
  3
*D31
  1

  0
LINE
  5
499
330
217
100
AcDbEntity
  8
寸法線
 62
     0
440
 16777216
 48
0.999999998813069
370
    -2
100
AcDbLine
 10
80.13178028369605
 20
68.07199998784795
 30
0.0
 11
74.61964538743185
 21
63.49560855042753
 31
0.0
  0
MTEXT
  5
49A
330
217
100
AcDbEntity
  8
寸法線
 62
     0
440
 16777216
 48
0.999999998813069
100
AcDbMText
 10
77.13974160462888
 20
68.02488493895957
 30
0.0
 40
2.499999997032672
 41
0.0
 46
0.0
 71
     5
 72
     1
  1
\A1;R4
 11
0.7693907140325864
 21
0.6387784664188572
 31
0.0
 73
     1
 44
1.0
  0
INSERT
  5
49B
330
217
100
AcDbEntity
  8
寸法線
 62
     0
440
 16777216
 48
0.999999998813069
370
    -2
100
AcDbBlockReference
  2
_OPEN
 10
72.69616860463341
 20
61.89866238627585
 30
0.0
 41
2.499999997032672
 42
2.499999997032672
 43
2.499999997032672
 50
219.7007930089311
  0
POINT
  5
49C
330
217
100
AcDbEntity
  8
Defpoints
 62
     0
440
 16777216
 48
0.999999998813069
100
AcDbPoint
 10
72.69616860463341
 20
61.89866238627585
 30
0.0
  0
POINT
  5
49D
330
217
100
AcDbEntity
  8
Defpoints
 62
     0
440
 16777216
 48
0.999999998813069
100
AcDbPoint
 10
75.77373145711094
 20
64.45377624891856
 30
0.0
  0
ENDBLK
  5
219
330
217
100
AcDbEntity
  8
0
100
AcDbBlockEnd
  0
BLOCK
  5
220
330
21F
100
AcDbEntity
  8
0
100
AcDbBlockBegin
  2
*D32
 70
     1
 10
0.0
 20
0.0
 30
0.0
  3
*D32
  1

  0
LINE
  5
49E
330
21F
100
AcDbEntity
  8
寸法線
 62
     0
440
 16777216
 48
0.999999998813069
370
    -2
100
AcDbLine
 10
103.7626859162458
 20
68.45323203360348
 30
0.0
 11
108.8359250575962
 21
63.39465176659384
 31
0.0
  0
MTEXT
  5
49F
330
21F
100
AcDbEntity
  8
寸法線
 62
     0
440
 16777216
 48
0.999999998813069
100
AcDbMText
 10
106.7380497237202
 20
68.1342876841681
 30
0.0
 40
2.499999997032672
 41
0.0
 46
0.0
 71
     5
 72
     1
  1
\A1;R4
 11
0.7081290931517379
 21
-0.706082989054472
 31
0.0
 73
     1
 44
1.0
  0
INSERT
  5
4A0
330
21F
100
AcDbEntity
  8
寸法線
 62
     0
440
 16777216
 48
0.999999998813069
370
    -2
100
AcDbBlockReference
  2
_OPEN
 10
110.6062477883742
 20
61.62944429605284
 30
0.0
 41
2.499999997032672
 42
2.499999997032672
 43
2.499999997032672
 50
315.0828963695704
  0
POINT
  5
4A1
330
21F
100
AcDbEntity
  8
Defpoints
 62
     0
440
 16777216
 48
0.999999998813069
100
AcDbPoint
 10
110.6062477883742
 20
61.62944429605284
 30
0.0
  0
POINT
  5
4A2
330
21F
100
AcDbEntity
  8
Defpoints
 62
     0
440
 16777216
 48
0.999999998813069
100
AcDbPoint
 10
107.7737314191291
 20
64.45377624891865
 30
0.0
  0
ENDBLK
  5
221
330
21F
100
AcDbEntity
  8
0
100
AcDbBlockEnd
  0
BLOCK
  5
228
330
227
100
AcDbEntity
  8
0
100
AcDbBlockBegin
  2
*D33
 70
     1
 10
0.0
 20
0.0
 30
0.0
  3
*D33
  1

  0
LINE
  5
4A3
330
227
100
AcDbEntity
  8
寸法線
 62
     0
440
 16777216
 48
0.999999998813069
370
    -2
100
AcDbLine
 10
181.1758844482987
 20
142.1719508427878
 30
0.0
 11
176.485799087775
 21
147.5876769265286
 31
0.0
  0
MTEXT
  5
4A4
330
227
100
AcDbEntity
  8
寸法線
 62
     0
440
 16777216
 48
0.999999998813069
100
AcDbMText
 10
181.06652774521
 20
145.1623615831971
 30
0.0
 40
2.499999997032672
 41
0.0
 46
0.0
 71
     5
 72
     1
  1
\A1;R4
 11
0.6546480070458226
 21
-0.7559338508566293
 31
0.0
 73
     1
 44
1.0
  0
INSERT
  5
4A5
330
227
100
AcDbEntity
  8
寸法線
 62
     0
440
 16777216
 48
0.999999998813069
370
    -2
100
AcDbBlockReference
  2
_OPEN
 10
174.849179072103
 20
149.477511551427
 30
0.0
 41
2.499999997032672
 42
2.499999997032672
 43
2.499999997032672
 50
130.8929653721638
  0
POINT
  5
4A6
330
227
100
AcDbEntity
  8
Defpoints
 62
     0
440
 16777216
 48
0.999999998813069
100
AcDbPoint
 10
174.849179072103
 20
149.477511551427
 30
0.0
  0
POINT
  5
4A7
330
227
100
AcDbEntity
  8
Defpoints
 62
     0
440
 16777216
 48
0.999999998813069
100
AcDbPoint
 10
177.4677710971785
 20
146.4537761515892
 30
0.0
  0
ENDBLK
  5
229
330
227
100
AcDbEntity
  8
0
100
AcDbBlockEnd
  0
BLOCK
  5
230
330
22F
100
AcDbEntity
  8
0
100
AcDbBlockBegin
  2
*D34
 70
     1
 10
0.0
 20
0.0
 30
0.0
  3
*D34
  1

  0
LINE
  5
4A8
330
22F
100
AcDbEntity
  8
寸法線
 62
     0
440
 16777216
 48
0.999999998813069
370
    -2
100
AcDbLine
 10
190.9721703385814
 20
141.9967695241089
 30
0.0
 11
195.3934661019757
 21
147.6340679440705
 31
0.0
  0
MTEXT
  5
4A9
330
22F
100
AcDbEntity
  8
寸法線
 62
     0
440
 16777216
 48
0.999999998813069
100
AcDbMText
 10
190.936040958241
 20
144.9889610207785
 30
0.0
 40
2.499999997032672
 41
0.0
 46
0.0
 71
     5
 72
     1
  1
\A1;R4
 11
0.6171300173826682
 21
0.7868611959203909
 31
0.0
 73
     1
 44
1.0
  0
INSERT
  5
4AA
330
22F
100
AcDbEntity
  8
寸法線
 62
     0
440
 16777216
 48
0.999999998813069
370
    -2
100
AcDbBlockReference
  2
_OPEN
 10
196.9362911436012
 20
149.6012209315366
 30
0.0
 41
2.499999997032672
 42
2.499999997032672
 43
2.499999997032672
 50
51.89314529661697
  0
POINT
  5
4AB
330
22F
100
AcDbEntity
  8
Defpoints
 62
     0
440
 16777216
 48
0.999999998813069
100
AcDbPoint
 10
196.9362911436012
 20
149.6012209315366
 30
0.0
  0
POINT
  5
4AC
330
22F
100
AcDbEntity
  8
Defpoints
 62
     0
440
 16777216
 48
0.999999998813069
100
AcDbPoint
 10
194.4677710769997
 20
146.4537761515899
 30
0.0
  0
ENDBLK
  5
231
330
22F
100
AcDbEntity
  8
0
100
AcDbBlockEnd
  0
BLOCK
  5
238
330
237
100
AcDbEntity
  8
0
100
AcDbBlockBegin
  2
*D35
 70
     1
 10
0.0
 20
0.0
 30
0.0
  3
*D35
  1

  0
LINE
  5
4AD
330
237
100
AcDbEntity
  8
寸法線
 62
     0
440
 16777216
 48
0.999999998813069
370
    -2
100
AcDbLine
 10
154.8427711240337
 20
90.45377621805826
 30
0.0
 11
151.228435867493
 21
90.45377621805826
 31
0.0
  0
LINE
  5
4AE
330
237
100
AcDbEntity
  8
寸法線
 62
     0
440
 16777216
 48
0.999999998813069
370
    -2
100
AcDbLine
 10
154.8427711240336
 20
155.4537761409078
 30
0.0
 11
151.228435867493
 21
155.4537761409078
 31
0.0
  0
LINE
  5
4AF
330
237
100
AcDbEntity
  8
寸法線
 62
     0
440
 16777216
 48
0.999999998813069
370
    -2
100
AcDbLine
 10
152.4784358660093
 20
92.95377621509095
 30
0.0
 11
152.4784358660093
 21
152.9537761438751
 31
0.0
  0
INSERT
  5
4B0
330
237
100
AcDbEntity
  8
寸法線
 62
     0
440
 16777216
 48
0.999999998813069
370
    -2
100
AcDbBlockReference
  2
_OPEN
 10
152.4784358660093
 20
90.45377621805826
 30
0.0
 41
2.499999997032672
 42
2.499999997032672
 43
2.499999997032672
 50
270.0
  0
INSERT
  5
4B1
330
237
100
AcDbEntity
  8
寸法線
 62
     0
440
 16777216
 48
0.999999998813069
370
    -2
100
AcDbBlockReference
  2
_OPEN
 10
152.4784358660093
 20
155.4537761409078
 30
0.0
 41
2.499999997032672
 42
2.499999997032672
 43
2.499999997032672
 50
90.0
  0
MTEXT
  5
4B2
330
237
100
AcDbEntity
  8
寸法線
 62
     0
440
 16777216
 48
0.999999998813069
100
AcDbMText
 10
150.6034358682349
 20
122.9537761794832
 30
0.0
 40
2.499999997032672
 41
0.0
 46
0.0
 71
     5
 72
     1
  1
\A1;65
 11
0.0000000000000001
 21
1.0
 31
0.0
 73
     1
 44
1.0
  0
POINT
  5
4B3
330
237
100
AcDbEntity
  8
Defpoints
 62
     0
440
 16777216
 48
0.999999998813069
100
AcDbPoint
 10
155.4677711232919
 20
90.45377621805826
 30
0.0
  0
POINT
  5
4B4
330
237
100
AcDbEntity
  8
Defpoints
 62
     0
440
 16777216
 48
0.999999998813069
100
AcDbPoint
 10
155.4677711232918
 20
155.4537761409078
 30
0.0
  0
POINT
  5
4B5
330
237
100
AcDbEntity
  8
Defpoints
 62
     0
440
 16777216
 48
0.999999998813069
100
AcDbPoint
 10
152.4784358660093
 20
155.4537761409078
 30
0.0
  0
ENDBLK
  5
239
330
237
100
AcDbEntity
  8
0
100
AcDbBlockEnd
  0
BLOCK
  5
244
330
243
100
AcDbEntity
  8
0
100
AcDbBlockBegin
  2
*D36
 70
     1
 10
0.0
 20
0.0
 30
0.0
  3
*D36
  1

  0
LINE
  5
4B6
330
243
100
AcDbEntity
  8
寸法線
 62
     0
440
 16777216
 48
0.999999998813069
370
    -2
100
AcDbLine
 10
213.079255291525
 20
86.55002049238174
 30
0.0
 11
205.9817538007027
 21
85.57407874674138
 31
0.0
  0
MTEXT
  5
4B7
330
243
100
AcDbEntity
  8
寸法線
 62
     0
440
 16777216
 48
0.999999998813069
100
AcDbMText
 10
210.5134338117082
 20
88.08985016431838
 30
0.0
 40
2.499999997032672
 41
0.0
 46
0.0
 71
     5
 72
     1
  1
\A1;R4
 11
0.9906781750882222
 21
0.136223174988214
 31
0.0
 73
     1
 44
1.0
  0
INSERT
  5
4B8
330
243
100
AcDbEntity
  8
寸法線
 62
     0
440
 16777216
 48
0.999999998813069
370
    -2
100
AcDbBlockReference
  2
_OPEN
 10
203.5050583659218
 20
85.23352080967507
 30
0.0
 41
2.499999997032672
 42
2.499999997032672
 43
2.499999997032672
 50
187.8293561133693
  0
POINT
  5
4B9
330
243
100
AcDbEntity
  8
Defpoints
 62
     0
440
 16777216
 48
0.999999998813069
100
AcDbPoint
 10
203.5050583659218
 20
85.23352080967507
 30
0.0
  0
POINT
  5
4BA
330
243
100
AcDbEntity
  8
Defpoints
 62
     0
440
 16777216
 48
0.999999998813069
100
AcDbPoint
 10
207.4677710615716
 20
85.77841350898124
 30
0.0
  0
ENDBLK
  5
245
330
243
100
AcDbEntity
  8
0
100
AcDbBlockEnd
  0
BLOCK
  5
24C
330
24B
100
AcDbEntity
  8
0
100
AcDbBlockBegin
  2
*D37
 70
     1
 10
0.0
 20
0.0
 30
0.0
  3
*D37
  1

  0
LINE
  5
4BB
330
24B
100
AcDbEntity
  8
寸法線
 62
     0
440
 16777216
 48
0.999999998813069
370
    -2
100
AcDbLine
 10
198.4677710722535
 20
85.1534135097232
 30
0.0
 11
198.4677710722535
 21
54.04722840974681
 31
0.0
  0
LINE
  5
4BC
330
24B
100
AcDbEntity
  8
寸法線
 62
     0
440
 16777216
 48
0.999999998813069
370
    -2
100
AcDbLine
 10
203.4607031635046
 20
56.9255966130124
 30
0.0
 11
203.4607031635046
 21
54.04722840974681
 31
0.0
  0
LINE
  5
4BD
330
24B
100
AcDbEntity
  8
寸法線
 62
     0
440
 16777216
 48
0.999999998813069
370
    -2
100
AcDbLine
 10
195.9677710752209
 20
55.29722840826315
 30
0.0
 11
193.4677710781881
 21
55.29722840826315
 31
0.0
  0
LINE
  5
4BE
330
24B
100
AcDbEntity
  8
寸法線
 62
     0
440
 16777216
 48
0.999999998813069
370
    -2
100
AcDbLine
 10
205.9607031605373
 20
55.29722840826315
 30
0.0
 11
208.4607031575699
 21
55.29722840826315
 31
0.0
  0
LINE
  5
4BF
330
24B
100
AcDbEntity
  8
寸法線
 62
     0
440
 16777216
 48
0.999999998813069
370
    -2
100
AcDbLine
 10
198.4677710722535
 20
55.29722840826315
 30
0.0
 11
203.4607031635046
 21
55.29722840826315
 31
0.0
  0
INSERT
  5
4C0
330
24B
100
AcDbEntity
  8
寸法線
 62
     0
440
 16777216
 48
0.999999998813069
370
    -2
100
AcDbBlockReference
  2
_OPEN
 10
198.4677710722535
 20
55.29722840826315
 30
0.0
 41
2.499999997032672
 42
2.499999997032672
 43
2.499999997032672
  0
INSERT
  5
4C1
330
24B
100
AcDbEntity
  8
寸法線
 62
     0
440
 16777216
 48
0.999999998813069
370
    -2
100
AcDbBlockReference
  2
_OPEN
 10
203.4607031635046
 20
55.29722840826315
 30
0.0
 41
2.499999997032672
 42
2.499999997032672
 43
2.499999997032672
 50
180.0
  0
MTEXT
  5
4C2
330
24B
100
AcDbEntity
  8
寸法線
 62
     0
440
 16777216
 48
0.999999998813069
100
AcDbMText
 10
200.9642371178791
 20
57.17222840603765
 30
0.0
 40
2.499999997032672
 41
0.0
 46
0.0
 71
     5
 72
     1
  1
\A1;5
 73
     1
 44
1.0
  0
POINT
  5
4C3
330
24B
100
AcDbEntity
  8
Defpoints
 62
     0
440
 16777216
 48
0.999999998813069
100
AcDbPoint
 10
198.4677710722535
 20
85.77841350898138
 30
0.0
  0
POINT
  5
4C4
330
24B
100
AcDbEntity
  8
Defpoints
 62
     0
440
 16777216
 48
0.999999998813069
100
AcDbPoint
 10
203.4607031635046
 20
57.55059661227057
 30
0.0
  0
POINT
  5
4C5
330
24B
100
AcDbEntity
  8
Defpoints
 62
     0
440
 16777216
 48
0.999999998813069
100
AcDbPoint
 10
203.4607031635046
 20
55.29722840826315
 30
0.0
  0
ENDBLK
  5
24D
330
24B
100
AcDbEntity
  8
0
100
AcDbBlockEnd
  0
BLOCK
  5
413
330
412
100
AcDbEntity
  8
0
100
AcDbBlockBegin
  2
TITLE_BLOCK
 70
     0
 10
0.0
 20
0.0
 30
0.0
  3
TITLE_BLOCK
  1

  0
LINE
  5
414
330
412
100
AcDbEntity
  8
0
 62
     5
100
AcDbLine
 10
10.0
 20
200.0
 30
0.0
 11
10.0
 21
10.0
 31
0.0
  0
LINE
  5
415
330
412
100
AcDbEntity
  8
0
 62
     5
100
AcDbLine
 10
10.0
 20
10.0
 30
0.0
 11
287.0
 21
10.0
 31
0.0
  0
LINE
  5
416
330
412
100
AcDbEntity
  8
0
 62
     5
100
AcDbLine
 10
287.0
 20
200.0
 30
0.0
 11
287.0
 21
10.0
 31
0.0
  0
LINE
  5
417
330
412
100
AcDbEntity
  8
0
 62
     5
100
AcDbLine
 10
10.0
 20
200.0
 30
0.0
 11
287.0
 21
200.0
 31
0.0
  0
ENDBLK
  5
418
330
412
100
AcDbEntity
  8
0
100
AcDbBlockEnd
  0
ENDSEC
  0
SECTION
  2
ENTITIES
  0
LWPOLYLINE
  5
7C
330
70
100
AcDbEntity
  8
VIEWPORT
  6
Continuous
100
AcDbPolyline
 90
        4
 70
     1
 43
0.0
 10
-6.241401228335575
 20
-4.491978581708622
 10
290.6071518780412
 20
-4.491978581708622
 10
290.6071518780412
 20
207.9033958339542
 10
-6.241401228335575
 20
207.9033958339542
  0
LINE
  5
80
330
70
100
AcDbEntity
  8
基本図面
 48
0.999999998813069
100
AcDbLine
 10
66.77373146779325
 20
152.9551402782992
 30
0.0
 11
66.77373146779325
 21
64.4537762489183
 31
0.0
  0
LINE
  5
84
330
70
100
AcDbEntity
  8
基本図面
 48
0.999999998813069
100
AcDbLine
 10
75.77373145711089
 20
55.4537762596006
 30
0.0
 11
107.773731419129
 21
55.45377625960066
 31
0.0
  0
LINE
  5
85
330
70
100
AcDbEntity
  8
基本図面
 48
0.999999998813069
100
AcDbLine
 10
116.7737314084467
 20
152.9551402782992
 30
0.0
 11
116.7737314084467
 21
64.4537762489183
 31
0.0
  0
LINE
  5
86
330
70
100
AcDbEntity
  8
基本図面
 48
0.999999998813069
100
AcDbLine
 10
66.77373146779325
 20
90.45377621805812
 30
0.0
 11
71.77373146185857
 21
90.45377621805824
 31
0.0
  0
LINE
  5
87
330
70
100
AcDbEntity
  8
基本図面
 48
0.999999998813069
100
AcDbLine
 10
116.7737314084468
 20
90.45377621805812
 30
0.0
 11
111.7737314143813
 21
90.45377621805824
 31
0.0
  0
LINE
  5
88
330
70
100
AcDbEntity
  8
基本図面
 48
0.999999998813069
100
AcDbLine
 10
177.4677710971791
 20
155.4537761409076
 30
0.0
 11
194.4677710770011
 21
155.4537761409078
 31
0.0
  0
LINE
  5
89
330
70
100
AcDbEntity
  8
基本図面
 48
0.999999998813069
100
AcDbLine
 10
168.4677711078615
 20
146.45377615159
 30
0.0
 11
168.4677711078617
 21
74.45377623704917
 31
0.0
  0
DIMENSION
  5
8A
330
70
100
AcDbEntity
  8
寸法線
 48
0.999999998813069
100
AcDbDimension
280
     0
  2
*D20
 10
203.4677710663187
 20
161.251889926203
 30
0.0
 11
185.96777108709
 21
161.251889926203
 31
0.0
 70
   160
 71
     5
 42
34.99999999999994
 73
     0
 74
     0
 75
     0
  3
STANDARD_WS
100
AcDbAlignedDimension
 13
168.4677711078613
 23
148.2537761494534
 33
0.0
 14
203.4677710663187
 24
148.2537761494534
 34
0.0
100
AcDbRotatedDimension
1001
ACAD
1000
DSTYLE
1002
{
1070
   144
1040
1.00000000118693
1070
    40
1040
0.999999998813069
1070
   173
1070
     1
1070
   271
1070
     1
1070
   272
1070
     1
1070
   288
1070
     1
1070
   343
1005
94
1070
   344
1005
94
1002
}
  0
DIMENSION
  5
A0
330
70
100
AcDbEntity
  8
寸法線
 48
0.999999998813069
100
AcDbDimension
280
     0
  2
*D21
 10
214.6005595493353
 20
85.45377622399289
 30
0.0
 11
214.6005595493353
 21
120.4537761824504
 31
0.0
 70
   160
 71
     5
 42
69.99999999999976
 73
     0
 74
     0
 75
     0
  3
STANDARD_WS
100
AcDbAlignedDimension
 13
196.2677710748646
 23
155.4537761409074
 33
0.0
 14
203.4677710663189
 24
85.45377622399286
 34
0.0
 50
90.0
100
AcDbRotatedDimension
1001
ACAD
1000
DSTYLE
1002
{
1070
   144
1040
1.00000000118693
1070
    40
1040
0.999999998813069
1070
   173
1070
     1
1070
   271
1070
     1
1070
   272
1070
     1
1070
   288
1070
     1
1070
   343
1005
94
1070
   344
1005
94
1002
}
  0
DIMENSION
  5
AD
330
70
100
AcDbEntity
  8
寸法線
 48
0.999999998813069
100
AcDbDimension
280
     0
  2
*D22
 10
214.600559549337
 20
55.45377625960086
 30
0.0
 11
214.6005595493357
 21
70.45430819839538
 31
0.0
 70
   160
 71
     5
 42
30.00106391319773
 73
     0
 74
     0
 75
     0
  3
STANDARD_WS
100
AcDbAlignedDimension
 13
203.4808800127607
 23
85.45484013718937
 33
0.0
 14
205.4279782115003
 24
55.45377625960083
 34
0.0
 50
90.0
100
AcDbRotatedDimension
1001
ACAD
1000
DSTYLE
1002
{
1070
   144
1040
1.00000000118693
1070
    40
1040
0.999999998813069
1070
    75
1070
     1
1070
   173
1070
     1
1070
   271
1070
     1
1070
   272
1070
     1
1070
   279
1070
     1
1070
   288
1070
     1
1070
   343
1005
94
1070
   344
1005
94
1002
}
  0
DIMENSION
  5
B9
330
70
100
AcDbEntity
  8
寸法線
 48
0.999999998813069
100
AcDbDimension
280
     0
  2
*D23
 10
173.467771101927
 20
57.96745002906181
 30
0.0
 11
164.4677711126094
 21
57.96745002906181
 31
0.0
 70
   160
 71
     5
 42
17.99999999999993
 73
     0
 74
     0
 75
     0
  3
STANDARD_WS
100
AcDbAlignedDimension
 13
155.4677711232918
 23
74.45377623704911
 33
0.0
 14
173.467771101927
 24
74.45377623704911
 34
0.0
100
AcDbRotatedDimension
1001
ACAD
1000
DSTYLE
1002
{
1070
   144
1040
1.00000000118693
1070
    40
1040
0.999999998813069
1070
   173
1070
     1
1070
   271
1070
     1
1070
   272
1070
     1
1070
   288
1070
     1
1070
   343
1005
94
1070
   344
1005
94
1002
}
  0
DIMENSION
  5
C6
330
70
100
AcDbEntity
  8
寸法線
 48
0.999999998813069
100
AcDbDimension
280
     0
  2
*D24
 10
152.4192978721933
 20
65.45540845666569
 30
0.0
 11
152.4192978721933
 21
77.9545923373621
 31
0.0
 70
   160
 71
     5
 42
24.99836779106391
 73
     0
 74
     0
 75
     0
  3
STANDARD_WS
100
AcDbAlignedDimension
 13
155.4677711232918
 23
90.45377621805824
 33
0.0
 14
164.2963736310784
 24
65.45540845666568
 34
0.0
 50
90.0
100
AcDbRotatedDimension
1001
ACAD
1000
DSTYLE
1002
{
1070
   144
1040
1.00000000118693
1070
    40
1040
0.999999998813069
1070
   173
1070
     1
1070
   271
1070
     1
1070
   272
1070
     1
1070
   288
1070
     1
1070
   343
1005
94
1070
   344
1005
94
1002
}
  0
DIMENSION
  5
D3
330
70
100
AcDbEntity
  8
寸法線
 48
0.999999998813069
100
AcDbDimension
280
     0
  2
*D25
 10
143.8087356716803
 20
65.45377624773148
 30
0.0
 11
143.8087356716803
 21
110.4537761943197
 31
0.0
 70
   160
 71
     5
 42
89.99999999999991
 73
     0
 74
     0
 75
     0
  3
STANDARD_WS
100
AcDbAlignedDimension
 13
175.6677710993155
 23
155.4537761409075
 33
0.0
 14
164.4677711126094
 24
65.45377624773147
 34
0.0
 50
90.0
100
AcDbRotatedDimension
1001
ACAD
1000
DSTYLE
1002
{
1070
   144
1040
1.00000000118693
1070
    40
1040
0.999999998813069
1070
   173
1070
     1
1070
   271
1070
     1
1070
   272
1070
     1
1070
   288
1070
     1
1070
   343
1005
94
1070
   344
1005
94
1002
}
  0
DIMENSION
  5
E0
330
70
100
AcDbEntity
  8
寸法線
 48
0.999999998813069
100
AcDbDimension
280
     0
  2
*D26
 10
173.4677711019267
 20
114.9172745610676
 30
0.0
 11
185.9677710870902
 21
114.9172745610676
 31
0.0
 70
   160
 71
     5
 42
25.0000000000001
 73
     0
 74
     0
 75
     0
  3
STANDARD_WS
100
AcDbAlignedDimension
 13
198.4677710722535
 23
113.0547806685157
 33
0.0
 14
173.4677711019267
 24
112.7320123383293
 34
0.0
100
AcDbRotatedDimension
1001
ACAD
1000
DSTYLE
1002
{
1070
   144
1040
1.00000000118693
1070
    40
1040
0.999999998813069
1070
   173
1070
     1
1070
   271
1070
     1
1070
   272
1070
     1
1070
   288
1070
     1
1070
   343
1005
94
1070
   344
1005
94
1002
}
  0
DIMENSION
  5
ED
330
70
100
AcDbEntity
  8
寸法線
 48
0.999999998813069
100
AcDbDimension
280
     0
  2
*D27
 10
173.4677711019268
 20
131.3398254038776
 30
0.0
 11
181.2713425212358
 21
131.3398254038776
 31
0.0
 70
   160
  1
φ<>
 71
     5
 42
4.999999999999974
 73
     0
 74
     0
 75
     0
  3
STANDARD_WS
100
AcDbAlignedDimension
 13
168.4677711078615
 23
131.1741095295773
 33
0.0
 14
173.4677711019268
 24
131.3398254038776
 34
0.0
100
AcDbRotatedDimension
1001
ACAD
1000
DSTYLE
1002
{
1070
   144
1040
1.00000000118693
1070
    40
1040
0.999999998813069
1070
   173
1070
     1
1070
   271
1070
     1
1070
   272
1070
     1
1070
   288
1070
     1
1070
   343
1005
94
1070
   344
1005
94
1002
}
  0
DIMENSION
  5
FC
330
70
100
AcDbEntity
  8
寸法線
 48
0.999999998813069
100
AcDbDimension
280
     0
  2
*D28
 10
116.7737314084468
 20
159.6579976433889
 30
0.0
 11
91.77373143811996
 21
159.6579976433889
 31
0.0
 70
   160
 71
     5
 42
50.00000000000008
 73
     0
 74
     0
 75
     0
  3
STANDARD_WS
100
AcDbAlignedDimension
 13
66.77373146779325
 23
153.8537761428067
 33
0.0
 14
116.7737314084468
 24
153.8537761428067
 34
0.0
100
AcDbRotatedDimension
1001
ACAD
1000
DSTYLE
1002
{
1070
   144
1040
1.00000000118693
1070
    40
1040
0.999999998813069
1070
   173
1070
     1
1070
   271
1070
     1
1070
   272
1070
     1
1070
   288
1070
     1
1070
   343
1005
94
1070
   344
1005
94
1002
}
  0
DIMENSION
  5
109
330
70
100
AcDbEntity
  8
寸法線
 48
0.999999998813069
100
AcDbDimension
280
     0
  2
*D29
 10
128.63459336203
 20
55.45377625960069
 30
0.0
 11
128.63459336203
 21
105.4537762002544
 31
0.0
 70
   160
 71
     5
 42
100.0000000000001
 73
     0
 74
     0
 75
     0
  3
STANDARD_WS
100
AcDbAlignedDimension
 13
114.3563075051095
 23
155.4537761409076
 33
0.0
 14
107.773731419129
 24
55.45377625960066
 34
0.0
 50
90.0
100
AcDbRotatedDimension
1001
ACAD
1000
DSTYLE
1002
{
1070
   144
1040
1.00000000118693
1070
    40
1040
0.999999998813069
1070
   173
1070
     1
1070
   271
1070
     1
1070
   272
1070
     1
1070
   288
1070
     1
1070
   343
1005
94
1070
   344
1005
94
1002
}
  0
DIMENSION
  5
116
330
70
100
AcDbEntity
  8
寸法線
 48
0.999999998813069
100
AcDbDimension
280
     0
  2
*D30
 10
220.8121087407773
 20
155.4537761409076
 30
0.0
 11
220.8121087407773
 21
105.4537762002545
 31
0.0
 70
   160
 71
     5
 42
99.9999999999998
 73
     0
 74
     0
 75
     0
  3
STANDARD_WS
100
AcDbAlignedDimension
 13
205.4279782115003
 23
55.45377625960089
 33
0.0
 14
191.8927710800575
 24
155.4537761409075
 34
0.0
 50
90.0
100
AcDbRotatedDimension
1001
ACAD
1000
DSTYLE
1002
{
1070
   144
1040
1.00000000118693
1070
    40
1040
0.999999998813069
1070
   173
1070
     1
1070
   271
1070
     1
1070
   272
1070
     1
1070
   288
1070
     1
1070
   343
1005
94
1070
   344
1005
94
1002
}
  0
LINE
  5
123
330
70
100
AcDbEntity
  8
基本図面
 48
0.999999998813069
100
AcDbLine
 10
111.7737314143813
 20
152.9551402782992
 30
0.0
 11
111.7737314143813
 21
64.4537762489183
 31
0.0
  0
LINE
  5
124
330
70
100
AcDbEntity
  8
基本図面
 48
0.999999998813069
100
AcDbLine
 10
75.77373145711089
 20
60.45377625366604
 30
0.0
 11
107.773731419129
 21
60.45377625366604
 31
0.0
  0
LINE
  5
125
330
70
100
AcDbEntity
  8
基本図面
 48
0.999999998813069
100
AcDbLine
 10
71.77373146185857
 20
152.9551402782992
 30
0.0
 11
71.77373146185857
 21
64.4537762489183
 31
0.0
  0
ARC
  5
126
330
70
100
AcDbEntity
  8
基本図面
  6
HIDDEN2
 48
0.999999998813069
100
AcDbCircle
 10
69.27373146482591
 20
152.9551402782992
 30
0.0
 40
2.499999997032672
100
AcDbArc
 50
180.0
 51
0.0
  0
ARC
  5
127
330
70
100
AcDbEntity
  8
基本図面
 48
0.999999998813069
100
AcDbCircle
 10
69.27373146482591
 20
152.9551402782992
 30
0.0
 40
2.499999997032672
100
AcDbArc
 50
0.0
 51
180.0
  0
ARC
  5
128
330
70
100
AcDbEntity
  8
基本図面
  6
HIDDEN2
 48
0.999999998813069
100
AcDbCircle
 10
114.273731411414
 20
152.9551402782992
 30
0.0
 40
2.499999997032672
100
AcDbArc
 50
180.0
 51
0.0
  0
ARC
  5
129
330
70
100
AcDbEntity
  8
基本図面
 48
0.999999998813069
100
AcDbCircle
 10
114.273731411414
 20
152.9551402782992
 30
0.0
 40
2.499999997032672
100
AcDbArc
 50
0.0
 51
180.0
  0
ARC
  5
12A
330
70
100
AcDbEntity
  8
基本図面
  6
HIDDEN2
 48
0.999999998813069
100
AcDbCircle
 10
69.27373146482591
 20
67.95377624476419
 30
0.0
 40
2.499999997032672
100
AcDbArc
 50
180.0
 51
0.0
  0
ARC
  5
12B
330
70
100
AcDbEntity
  8
基本図面
 48
0.999999998813069
100
AcDbCircle
 10
69.27373146482591
 20
67.95377624476419
 30
0.0
 40
2.499999997032672
100
AcDbArc
 50
0.0
 51
180.0
  0
ARC
  5
12C
330
70
100
AcDbEntity
  8
基本図面
  6
HIDDEN2
 48
0.999999998813069
100
AcDbCircle
 10
114.2737314114141
 20
67.95377624476419
 30
0.0
 40
2.499999997032672
100
AcDbArc
 50
180.0
 51
0.0
  0
ARC
  5
12D
330
70
100
AcDbEntity
  8
基本図面
 48
0.999999998813069
100
AcDbCircle
 10
114.2737314114141
 20
67.95377624476419
 30
0.0
 40
2.499999997032672
100
AcDbArc
 50
0.0
 51
180.0
  0
ARC
  5
12E
330
70
100
AcDbEntity
  8
基本図面
 48
0.999999998813069
100
AcDbCircle
 10
75.77373145711089
 20
64.4537762489183
 30
0.0
 40
3.999999995252276
100
AcDbArc
 50
180.0
 51
270.0
  0
ARC
  5
12F
330
70
100
AcDbEntity
  8
基本図面
 48
0.999999998813069
100
AcDbCircle
 10
75.77373145711089
 20
64.4537762489183
 30
0.0
 40
8.999999989317622
100
AcDbArc
 50
180.0
 51
270.0
  0
DIMENSION
  5
130
330
70
100
AcDbEntity
  8
寸法線
 48
0.999999998813069
100
AcDbDimension
280
     0
  2
*D31
 10
75.77373145711094
 20
64.45377624891856
 30
0.0
 11
78.33745122774264
 21
66.58227735186075
 31
0.0
 70
   164
 71
     5
 42
4.000000000000047
 73
     0
 74
     0
 75
     0
  3
STANDARD_WS
100
AcDbRadialDimension
 15
72.69616860463341
 25
61.89866238627585
 35
0.0
 40
0.0
1001
ACAD_DSTYLE_DIMRADIAL_EXTENSION
1070
   387
1070
     1
1070
   388
1040
3.141592653589793
1070
   390
1040
4.712388980384689
1001
ACAD
1000
DSTYLE
1002
{
1070
   144
1040
1.00000000118693
1070
    40
1040
0.999999998813069
1070
   173
1070
     1
1070
   271
1070
     1
1070
   272
1070
     1
1070
   288
1070
     1
1070
   343
1005
94
1070
   344
1005
94
1002
}
  0
ARC
  5
13A
330
70
100
AcDbEntity
  8
基本図面
 48
0.999999998813069
100
AcDbCircle
 10
107.773731419129
 20
64.4537762489183
 30
0.0
 40
3.999999995252276
100
AcDbArc
 50
270.0
 51
0.0
  0
ARC
  5
13B
330
70
100
AcDbEntity
  8
基本図面
 48
0.999999998813069
100
AcDbCircle
 10
107.773731419129
 20
64.4537762489183
 30
0.0
 40
8.999999989317622
100
AcDbArc
 50
270.0
 51
0.0
  0
DIMENSION
  5
13C
330
70
100
AcDbEntity
  8
寸法線
 48
0.999999998813069
100
AcDbDimension
280
     0
  2
*D32
 10
107.7737314191291
 20
64.45377624891865
 30
0.0
 11
105.4141441208145
 21
66.80654563608452
 31
0.0
 70
   164
 71
     5
 42
4.000000000000275
 73
     0
 74
     0
 75
     0
  3
STANDARD_WS
100
AcDbRadialDimension
 15
110.6062477883742
 25
61.62944429605284
 35
0.0
 40
0.0
1001
ACAD_DSTYLE_DIMRADIAL_EXTENSION
1070
   387
1070
     1
1070
   388
1040
4.712388980384689
1070
   390
1040
0.0000000000000001
1001
ACAD
1000
DSTYLE
1002
{
1070
   144
1040
1.00000000118693
1070
    40
1040
0.999999998813069
1070
   173
1070
     1
1070
   271
1070
     1
1070
   272
1070
     1
1070
   288
1070
     1
1070
   343
1005
94
1070
   344
1005
94
1002
}
  0
LINE
  5
145
330
70
100
AcDbEntity
  8
基本図面
 48
0.999999998813069
100
AcDbLine
 10
173.4677711019268
 20
146.45377615159
 30
0.0
 11
173.467771101927
 21
74.45377623704911
 31
0.0
  0
LINE
  5
146
330
70
100
AcDbEntity
  8
基本図面
 48
0.999999998813069
100
AcDbLine
 10
177.4677710971791
 20
150.4537761468423
 30
0.0
 11
194.4677710770011
 21
150.4537761468425
 31
0.0
  0
LINE
  5
147
330
70
100
AcDbEntity
  8
基本図面
 48
0.999999998813069
100
AcDbLine
 10
198.4677710722533
 20
146.4537761515902
 30
0.0
 11
198.4677710722535
 21
85.77841350898138
 31
0.0
  0
LINE
  5
148
330
70
100
AcDbEntity
  8
基本図面
 48
0.999999998813069
100
AcDbLine
 10
203.4677710663187
 20
146.4537761515902
 30
0.0
 11
203.4677710663189
 21
85.77841350898138
 31
0.0
  0
ARC
  5
149
330
70
100
AcDbEntity
  8
基本図面
 48
0.999999998813069
100
AcDbCircle
 10
177.4677710971791
 20
146.45377615159
 30
0.0
 40
3.999999995252276
100
AcDbArc
 50
90.0
 51
180.0
  0
ARC
  5
14A
330
70
100
AcDbEntity
  8
基本図面
 48
0.999999998813069
100
AcDbCircle
 10
194.4677710770011
 20
146.4537761515902
 30
0.0
 40
3.999999995252276
100
AcDbArc
 50
0.0
 51
90.0
  0
DIMENSION
  5
14B
330
70
100
AcDbEntity
  8
寸法線
 48
0.999999998813069
100
AcDbDimension
280
     0
  2
*D33
 10
177.4677710971785
 20
146.4537761515892
 30
0.0
 11
179.6491517765361
 21
143.9348965714431
 31
0.0
 70
   164
 71
     5
 42
4.000000000000403
 73
     0
 74
     0
 75
     0
  3
STANDARD_WS
100
AcDbRadialDimension
 15
174.849179072103
 25
149.477511551427
 35
0.0
 40
0.0
1001
ACAD_DSTYLE_DIMRADIAL_EXTENSION
1070
   387
1070
     1
1070
   388
1040
1.570796326794906
1070
   390
1040
3.141592653589793
1001
ACAD
1000
DSTYLE
1002
{
1070
   144
1040
1.00000000118693
1070
    40
1040
0.999999998813069
1070
   173
1070
     1
1070
   271
1070
     1
1070
   272
1070
     1
1070
   288
1070
     1
1070
   343
1005
94
1070
   344
1005
94
1002
}
  0
DIMENSION
  5
154
330
70
100
AcDbEntity
  8
寸法線
 48
0.999999998813069
100
AcDbDimension
280
     0
  2
*D34
 10
194.4677710769997
 20
146.4537761515899
 30
0.0
 11
192.4114056988406
 21
143.8318422395594
 31
0.0
 70
   164
 71
     5
 42
4.000000000001184
 73
     0
 74
     0
 75
     0
  3
STANDARD_WS
100
AcDbRadialDimension
 15
196.9362911436012
 25
149.6012209315366
 35
0.0
 40
0.0
1001
ACAD_DSTYLE_DIMRADIAL_EXTENSION
1070
   387
1070
     1
1070
   388
1040
0.0000000000000053
1070
   390
1040
1.570796326794905
1001
ACAD
1000
DSTYLE
1002
{
1070
   144
1040
1.00000000118693
1070
    40
1040
0.999999998813069
1070
   173
1070
     1
1070
   271
1070
     1
1070
   272
1070
     1
1070
   288
1070
     1
1070
   343
1005
94
1070
   344
1005
94
1002
}
  0
ARC
  5
15D
330
70
100
AcDbEntity
  8
基本図面
 48
0.999999998813069
100
AcDbCircle
 10
177.4677710971791
 20
146.45377615159
 30
0.0
 40
8.999999989317622
100
AcDbArc
 50
90.0
 51
180.0
  0
ARC
  5
15E
330
70
100
AcDbEntity
  8
基本図面
 48
0.999999998813069
100
AcDbCircle
 10
194.4677710770011
 20
146.4537761515902
 30
0.0
 40
8.999999989317622
100
AcDbArc
 50
0.0
 51
90.0
  0
LINE
  5
15F
330
70
100
AcDbEntity
  8
基本図面
 48
0.999999998813069
100
AcDbLine
 10
155.4677711232918
 20
90.45377621805824
 30
0.0
 11
155.4677711232918
 21
74.45377623704911
 31
0.0
  0
LINE
  5
160
330
70
100
AcDbEntity
  8
基本図面
 48
0.999999998813069
100
AcDbLine
 10
164.4677711126094
 20
65.45377624773147
 30
0.0
 11
164.4677711126094
 21
65.45377624773147
 31
0.0
  0
ARC
  5
161
330
70
100
AcDbEntity
  8
基本図面
 48
0.999999998813069
100
AcDbCircle
 10
164.4677711126094
 20
74.45377623704911
 30
0.0
 40
8.999999989317622
100
AcDbArc
 50
180.0
 51
270.0
  0
ARC
  5
162
330
70
100
AcDbEntity
  8
基本図面
 48
0.999999998813069
100
AcDbCircle
 10
164.4677711126094
 20
74.45377623704911
 30
0.0
 40
8.999999989317622
100
AcDbArc
 50
270.0
 51
0.0
  0
ARC
  5
163
330
70
100
AcDbEntity
  8
基本図面
 48
0.999999998813069
100
AcDbCircle
 10
164.4677711126094
 20
74.45377623704911
 30
0.0
 40
3.999999995252276
100
AcDbArc
 50
270.0
 51
0.0
  0
ARC
  5
164
330
70
100
AcDbEntity
  8
基本図面
 48
0.999999998813069
100
AcDbCircle
 10
164.4677711126094
 20
74.45377623704911
 30
0.0
 40
3.999999995252276
100
AcDbArc
 50
180.0
 51
270.0
  0
LINE
  5
165
330
70
100
AcDbEntity
  8
基本図面
 48
0.999999998813069
100
AcDbLine
 10
160.4677711173572
 20
90.45377621805824
 30
0.0
 11
160.4677711173572
 21
74.45377623704911
 31
0.0
  0
LINE
  5
166
330
70
100
AcDbEntity
  8
基本図面
 48
0.999999998813069
100
AcDbLine
 10
155.4677711232918
 20
90.45377621805824
 30
0.0
 11
160.4677711173572
 21
90.45377621805824
 31
0.0
  0
DIMENSION
  5
167
330
70
100
AcDbEntity
  8
寸法線
 48
0.999999998813069
100
AcDbDimension
280
     0
  2
*D35
 10
152.4784358660093
 20
155.4537761409078
 30
0.0
 11
152.4784358660093
 21
122.9537761794832
 31
0.0
 70
   160
 71
     5
 42
65.00000000000003
 73
     0
 74
     0
 75
     0
  3
STANDARD_WS
100
AcDbAlignedDimension
 13
155.4677711232918
 23
90.45377621805824
 33
0.0
 14
155.4677711232917
 24
155.4537761409077
 34
0.0
 50
90.0
100
AcDbRotatedDimension
1001
ACAD
1000
DSTYLE
1002
{
1070
   144
1040
1.00000000118693
1070
    40
1040
0.999999998813069
1070
   173
1070
     1
1070
   271
1070
     1
1070
   272
1070
     1
1070
   288
1070
     1
1070
   343
1005
94
1070
   344
1005
94
1002
}
  0
LINE
  5
174
330
70
100
AcDbEntity
  8
基本図面
 48
0.999999998813069
100
AcDbLine
 10
203.5201209298475
 20
85.13338761840026
 30
0.0
 11
208.395278397392
 21
58.35680204623861
 31
0.0
  0
LINE
  5
175
330
70
100
AcDbEntity
  8
基本図面
 48
0.999999998813069
100
AcDbLine
 10
198.5855582651928
 20
84.32710525517382
 30
0.0
 11
203.4606905939785
 21
57.550673539743
 31
0.0
  0
ARC
  5
176
330
70
100
AcDbEntity
  8
基本図面
 48
0.999999998813069
100
AcDbCircle
 10
205.927990780433
 20
57.95369932934801
 30
0.0
 40
2.49999999703269
100
AcDbArc
 50
189.2789406790808
 51
9.278940679080776
  0
ARC
  5
177
330
70
100
AcDbEntity
  8
基本図面
 48
0.999999998813069
100
AcDbCircle
 10
207.4677710615712
 20
85.77841350898138
 30
0.0
 40
3.999999995252276
100
AcDbArc
 50
180.0
 51
189.2798339146541
  0
ARC
  5
178
330
70
100
AcDbEntity
  8
基本図面
 48
0.999999998813069
100
AcDbCircle
 10
207.4677710615712
 20
85.77841350898138
 30
0.0
 40
8.999999989317622
100
AcDbArc
 50
180.0
 51
189.2798339146541
  0
ARC
  5
179
330
70
100
AcDbEntity
  8
基本図面
  6
HIDDEN2
 48
0.999999998813069
100
AcDbCircle
 10
205.9279782105701
 20
57.95377625869526
 30
0.0
 40
2.49999999703269
100
AcDbArc
 50
9.28072715023144
 51
189.2807271502314
  0
DIMENSION
  5
17A
330
70
100
AcDbEntity
  8
寸法線
 48
0.999999998813069
100
AcDbDimension
280
     0
  2
*D36
 10
207.4677710615716
 20
85.77841350898124
 30
0.0
 11
210.768852264508
 21
86.23232858823273
 31
0.0
 70
   164
 71
     5
 42
4.000000000000417
 73
     0
 74
     0
 75
     0
  3
STANDARD_WS
100
AcDbRadialDimension
 15
203.5050583659218
 25
85.23352080967507
 35
0.0
 40
0.0
1001
ACAD_DSTYLE_DIMRADIAL_EXTENSION
1070
   387
1070
     1
1070
   388
1040
3.141592653589796
1070
   390
1040
3.303556309438746
1001
ACAD
1000
DSTYLE
1002
{
1070
   144
1040
1.00000000118693
1070
    40
1040
0.999999998813069
1070
   173
1070
     1
1070
   271
1070
     1
1070
   272
1070
     1
1070
   288
1070
     1
1070
   343
1005
94
1070
   344
1005
94
1002
}
  0
DIMENSION
  5
183
330
70
100
AcDbEntity
  8
寸法線
 48
0.999999998813069
100
AcDbDimension
280
     0
  2
*D37
 10
203.4607031635046
 20
55.29722840826315
 30
0.0
 11
200.9642371178791
 21
55.29722840826315
 31
0.0
 70
   160
 71
     5
 42
4.992932097177343
 73
     0
 74
     0
 75
     0
  3
STANDARD_WS
100
AcDbAlignedDimension
 13
198.4677710722535
 23
85.77841350898138
 33
0.0
 14
203.4607031635046
 24
57.55059661227057
 34
0.0
100
AcDbRotatedDimension
1001
ACAD
1000
DSTYLE
1002
{
1070
   144
1040
1.00000000118693
1070
    40
1040
0.999999998813069
1070
   173
1070
     1
1070
   271
1070
     1
1070
   272
1070
     1
1070
   288
1070
     1
1070
   343
1005
94
1070
   344
1005
94
1002
}
  0
INSERT
  5
40E
330
70
100
AcDbEntity
  8
図面枠
100
AcDbBlockReference
  2
TITLE_BLOCK
 10
-5.235424494976541
 20
-4.708272101743148
 30
0.0
  0
LINE
  5
419
330
70
100
AcDbEntity
  8
図面枠
100
AcDbLine
 10
181.7645755050235
 20
5.291727898256851
 30
0.0
 11
181.7645755050235
 21
45.29172789825684
 31
0.0
  0
LINE
  5
41A
330
70
100
AcDbEntity
  8
図面枠
100
AcDbLine
 10
281.7645755050234
 20
15.29172789825685
 30
0.0
 11
181.7645755050235
 21
15.29172789825685
 31
0.0
  0
LINE
  5
41B
330
70
100
AcDbEntity
  8
図面枠
100
AcDbLine
 10
281.7645755050234
 20
25.29172789825685
 30
0.0
 11
242.7645755050235
 21
25.29172789825685
 31
0.0
  0
LINE
  5
41C
330
70
100
AcDbEntity
  8
図面枠
100
AcDbLine
 10
281.7645755050234
 20
35.29172789825685
 30
0.0
 11
181.7645755050235
 21
35.29172789825685
 31
0.0
  0
LINE
  5
41D
330
70
100
AcDbEntity
  8
図面枠
100
AcDbLine
 10
281.7645755050234
 20
45.29172789825685
 30
0.0
 11
181.7645755050235
 21
45.29172789825685
 31
0.0
  0
LINE
  5
41E
330
70
100
AcDbEntity
  8
図面枠
100
AcDbLine
 10
196.7645755050235
 20
35.29172789825685
 30
0.0
 11
196.7645755050235
 21
45.29172789825684
 31
0.0
  0
LINE
  5
41F
330
70
100
AcDbEntity
  8
図面枠
100
AcDbLine
 10
186.7645755050235
 20
15.29172789825685
 30
0.0
 11
186.7645755050235
 21
35.29172789825685
 31
0.0
  0
LINE
  5
420
330
70
100
AcDbEntity
  8
図面枠
100
AcDbLine
 10
199.7645755050235
 20
15.29172789825685
 30
0.0
 11
199.7645755050235
 21
35.29172789825685
 31
0.0
  0
LINE
  5
421
330
70
100
AcDbEntity
  8
図面枠
100
AcDbLine
 10
204.7645755050235
 20
15.29172789825685
 30
0.0
 11
204.7645755050235
 21
35.29172789825685
 31
0.0
  0
LINE
  5
422
330
70
100
AcDbEntity
  8
図面枠
100
AcDbLine
 10
217.7645755050235
 20
15.29172789825685
 30
0.0
 11
217.7645755050235
 21
25.29172789825686
 31
0.0
  0
LINE
  5
423
330
70
100
AcDbEntity
  8
図面枠
100
AcDbLine
 10
222.7645755050235
 20
15.29172789825685
 30
0.0
 11
222.7645755050235
 21
25.29172789825686
 31
0.0
  0
LINE
  5
424
330
70
100
AcDbEntity
  8
図面枠
100
AcDbLine
 10
235.7645755050235
 20
5.291727898256851
 30
0.0
 11
235.7645755050235
 21
35.29172789825685
 31
0.0
  0
LINE
  5
425
330
70
100
AcDbEntity
  8
図面枠
100
AcDbLine
 10
242.7645755050236
 20
5.291727898256851
 30
0.0
 11
242.7645755050235
 21
35.29172789825685
 31
0.0
  0
LINE
  5
426
330
70
100
AcDbEntity
  8
図面枠
100
AcDbLine
 10
235.7645755050235
 20
25.29172789825685
 30
0.0
 11
181.7645755050235
 21
25.29172789825685
 31
0.0
  0
MTEXT
  5
427
330
70
100
AcDbEntity
  8
図面枠
100
AcDbMText
 10
183.1960837740195
 20
43.30304212359272
 30
0.0
 40
4.0
 41
12.03643143182296
 46
0.0
 71
     1
 72
     5
  1
\fMS UI Gothic|b0|i0|c128|p2;名称
 73
     1
 44
1.0
  0
MTEXT
  5
428
330
70
100
AcDbEntity
  8
図面枠
100
AcDbMText
 10
184.2579230353821
 20
20.29172789825685
 30
0.0
 40
2.5
 41
4.98669506071708
 46
10.0
 71
     5
 72
     5
  1
{\fMS UI Gothic|b0|i0|c128|p50;縮尺}
 73
     1
 44
1.0
  0
MTEXT
  5
429
330
70
100
AcDbEntity
  8
図面枠
100
AcDbMText
 10
184.2579230353821
 20
30.29172789825685
 30
0.0
 40
2.5
 41
4.986695060717108
 46
9.999999999999998
 71
     5
 72
     5
  1
{\fMS UI Gothic|b0|i0|c128|p50;製図}
 73
     1
 44
1.0
  0
MTEXT
  5
42A
330
70
100
AcDbEntity
  8
図面枠
100
AcDbMText
 10
202.2579230353821
 20
20.29172789825685
 30
0.0
 40
2.5
 41
4.986695060717108
 46
10.0
 71
     5
 72
     5
  1
{\fMS UI Gothic|b0|i0|c128|p50;検図}
 73
     1
 44
1.0
  0
MTEXT
  5
42B
330
70
100
AcDbEntity
  8
図面枠
100
AcDbMText
 10
220.2645755050235
 20
20.29172789825685
 30
0.0
 40
2.5
 41
5.000000000000012
 46
10.0
 71
     5
 72
     5
  1
{\fMS UI Gothic|b0|i0|c128|p50;承認}
 73
     1
 44
1.0
  0
MTEXT
  5
42C
330
70
100
AcDbEntity
  8
図面枠
100
AcDbMText
 10
239.2645755050236
 20
25.29172789825685
 30
0.0
 40
2.5
 41
7.00000000000004
 46
20.0
 71
     5
 72
     5
  1
{\fMS UI Gothic|b0|i0|c128|p50;訂　正}
 73
     1
 44
1.0
  0
MTEXT
  5
42D
330
70
100
AcDbEntity
  8
図面枠
100
AcDbMText
 10
208.7645755050235
 20
10.29172789825685
 30
0.0
 40
4.0
 41
53.99999999999995
 46
10.0
 71
     5
 72
     5
  1
{\fMS UI Gothic|b0|i0|c128|p50;株式会社キョーワ}
 73
     1
 44
1.0
  0
MTEXT
  5
42E
330
70
100
AcDbEntity
  8
図面枠
100
AcDbMText
 10
200.4249861881405
 20
42.98879027590902
 30
0.0
 40
4.0
 41
81.33958931688296
 46
0.0
 71
     1
 72
     5
  1
{\fMS UI Gothic|b0|i0|c128|p50;上部取付部品　Ａ-1}
 73
     1
 44
1.0
  0
MTEXT
  5
42F
330
70
100
AcDbEntity
  8
図面枠
100
AcDbMText
 10
202.2645755050235
 20
30.29172789825685
 30
0.0
 40
2.5
 41
5.000000000000012
 46
10.0
 71
     5
 72
     5
  1
{\fMS UI Gothic|b0|i0|c128|p50;日付}
 73
     1
 44
1.0
  0
MTEXT
  5
430
330
70
100
AcDbEntity
  8
図面枠
100
AcDbMText
 10
239.2645755050236
 20
10.29172789825685
 30
0.0
 40
2.5
 41
7.000000000000069
 46
10.0
 71
     5
 72
     5
  1
{\fMS UI Gothic|b0|i0|c128|p50;図\P番}
 73
     1
 44
1.0
  0
MTEXT
  5
431
330
70
100
AcDbEntity
  8
図面枠
100
AcDbMText
 10
262.2645755050235
 20
10.29172789825685
 30
0.0
 40
4.0
 41
38.99999999999995
 46
10.0
 71
     5
 72
     5
  1
{\fMS UI Gothic|b0|i0|c128|p50;N1056C　1}
 73
     1
 44
1.0
  0
MTEXT
  5
432
330
70
100
AcDbEntity
  8
図面枠
100
AcDbMText
 10
193.2645755050235
 20
20.4141313824758
 30
0.0
 40
4.0
 41
13.0
 46
10.2448069684379
 71
     5
 72
     5
  1
{\fMS UI Gothic|b0|i0|c128|p50;1：1}
 73
     1
 44
1.0
  0
MTEXT
  5
433
330
70
100
AcDbEntity
  8
図面枠
100
AcDbMText
 10
66.80869779087306
 20
42.98879027590902
 30
0.0
 40
4.0
 41
103.03570045376
 46
8.928881150432836
 71
     1
 72
     5
  1
{\fMS UI Gothic|b0|i0|c128|p50;材料：着色塗装7種亜鉛めっき鉄線 φ5.0}
 73
     1
 44
1.0
  0
ENDSEC
  0
SECTION
  2
OBJECTS
  0
DICTIONARY
  5
C
330
0
100
AcDbDictionary
281
     1
  3
ACAD_CIP_PREVIOUS_PRODUCT_INFO
350
4D9
  3
ACAD_COLOR
350
63
  3
ACAD_DETAILVIEWSTYLE
350
6A
  3
ACAD_GROUP
350
D
  3
ACAD_LAYOUT
350
62
  3
ACAD_MATERIAL
350
10
  3
ACAD_MLEADERSTYLE
350
66
  3
ACAD_MLINESTYLE
350
5F
  3
ACAD_PLOTSETTINGS
350
61
  3
ACAD_PLOTSTYLENAME
350
E
  3
ACAD_SCALELIST
350
42
  3
ACAD_SECTIONVIEWSTYLE
350
68
  3
ACAD_TABLESTYLE
350
64
  3
ACAD_VISUALSTYLE
350
29
  3
ACDB_RECOMPOSE_DATA
350
4E1
  3
AcDbVariableDictionary
350
4C6
  0
DICTIONARY
  5
4DC
330
54
100
AcDbDictionary
280
     1
281
     1
  3
ADSK_XREC_LAYER_RECONCILED
360
4DD
  0
DICTIONARY
  5
7E
330
7D
100
AcDbDictionary
280
     1
281
     1
  3
ADSK_XREC_LAYER_RECONCILED
360
7F
  0
DICTIONARY
  5
82
330
81
100
AcDbDictionary
280
     1
281
     1
  3
ADSK_XREC_LAYER_RECONCILED
360
83
  0
DICTIONARY
  5
8C
330
8B
100
AcDbDictionary
280
     1
281
     1
  3
ADSK_XREC_LAYER_RECONCILED
360
8D
  0
DICTIONARY
  5
410
330
40F
100
AcDbDictionary
280
     1
281
     1
  3
ADSK_XREC_LAYER_RECONCILED
360
411
  0
DICTIONARY
  5
40C
330
70
100
AcDbDictionary
280
     1
281
     1
  3
ACAD_SORTENTS
360
40D
  0
XRECORD
  5
4D9
102
{ACAD_REACTORS
330
C
102
}
330
C
100
AcDbXrecord
280
     1
300
ACDLT
300
2021
300

  0
DICTIONARY
  5
63
102
{ACAD_REACTORS
330
C
102
}
330
C
100
AcDbDictionary
281
     1
  0
DICTIONARY
  5
6A
102
{ACAD_REACTORS
330
C
102
}
330
C
100
AcDbDictionary
281
     1
  3
Imperial24
350
6B
  3
Metric50
350
4D3
  0
DICTIONARY
  5
D
102
{ACAD_REACTORS
330
C
102
}
330
C
100
AcDbDictionary
281
     1
  0
DICTIONARY
  5
62
102
{ACAD_REACTORS
330
C
102
}
330
C
100
AcDbDictionary
281
     1
  3
Model
350
73
  3
レイアウト1
350
6F
  3
レイアウト2
350
77
  0
DICTIONARY
  5
10
102
{ACAD_REACTORS
330
C
102
}
330
C
100
AcDbDictionary
281
     1
  3
ByBlock
350
19
  3
ByLayer
350
11
  3
Global
350
21
  0
DICTIONARY
  5
66
102
{ACAD_REACTORS
330
C
102
}
330
C
100
AcDbDictionary
281
     1
  3
Standard
350
67
  0
DICTIONARY
  5
5F
102
{ACAD_REACTORS
330
C
102
}
330
C
100
AcDbDictionary
281
     1
  3
Standard
350
60
  0
DICTIONARY
  5
61
102
{ACAD_REACTORS
330
C
102
}
330
C
100
AcDbDictionary
281
     1
  0
ACDBDICTIONARYWDFLT
  5
E
102
{ACAD_REACTORS
330
C
102
}
330
C
100
AcDbDictionary
281
     1
  3
Normal
350
F
100
AcDbDictionaryWithDefault
340
F
  0
DICTIONARY
  5
42
102
{ACAD_REACTORS
330
C
102
}
330
C
100
AcDbDictionary
281
     1
  3
A0
350
43
  3
A1
350
44
  3
A2
350
45
  3
A3
350
46
  3
A4
350
47
  3
A5
350
48
  3
A6
350
49
  3
A7
350
4A
  3
A8
350
4B
  3
A9
350
4C
  3
B0
350
4D
  3
B1
350
4E
  3
B2
350
4F
  3
B3
350
50
  3
B4
350
51
  3
B5
350
52
  3
B6
350
53
  0
DICTIONARY
  5
68
102
{ACAD_REACTORS
330
C
102
}
330
C
100
AcDbDictionary
281
     1
  3
Imperial24
350
69
  3
Metric50
350
4D2
  0
DICTIONARY
  5
64
102
{ACAD_REACTORS
330
C
102
}
330
C
100
AcDbDictionary
281
     1
  3
Standard
350
65
  0
DICTIONARY
  5
29
102
{ACAD_REACTORS
330
C
102
}
330
C
100
AcDbDictionary
281
     1
  3
2dWireframe
350
2F
  3
Basic
350
2E
  3
Brighten
350
35
  3
ColorChange
350
39
  3
Conceptual
350
32
  3
Dim
350
34
  3
EdgeColorOff
350
41
  3
Facepattern
350
38
  3
Flat
350
2A
  3
FlatWithEdges
350
2B
  3
Gouraud
350
2C
  3
GouraudWithEdges
350
2D
  3
Hidden
350
31
  3
JitterOff
350
3F
  3
Linepattern
350
37
  3
OverhangOff
350
40
  3
Realistic
350
33
  3
Shaded
350
3E
  3
Shaded with edges
350
3D
  3
Shades of Gray
350
3A
  3
Sketchy
350
3B
  3
Thicken
350
36
  3
Wireframe
350
30
  3
X-Ray
350
3C
  0
XRECORD
  5
4E1
102
{ACAD_REACTORS
330
C
102
}
330
C
100
AcDbXrecord
280
     1
 90
        1
330
65
  0
DICTIONARY
  5
4C6
102
{ACAD_REACTORS
330
C
102
}
330
C
100
AcDbDictionary
281
     1
  3
ANNOALLVISIBLE
350
4CC
  3
CANNOSCALE
350
4CD
  3
CMLEADERSTYLE
350
4C8
  3
CTABLESTYLE
350
4C7
  3
CVIEWDETAILSTYLE
350
4C9
  3
CVIEWSECTIONSTYLE
350
4CA
  3
LAYEREVAL
350
4CF
  3
LAYERNOTIFY
350
4D0
  3
LIGHTINGUNITS
350
4CE
  3
MSLTSCALE
350
4CB
  0
XRECORD
  5
4DD
102
{ACAD_REACTORS
330
4DC
102
}
330
4DC
100
AcDbXrecord
280
     1
290
     1
  0
XRECORD
  5
7F
102
{ACAD_REACTORS
330
7E
102
}
330
7E
100
AcDbXrecord
280
     1
290
     1
  0
XRECORD
  5
83
102
{ACAD_REACTORS
330
82
102
}
330
82
100
AcDbXrecord
280
     1
290
     1
  0
XRECORD
  5
8D
102
{ACAD_REACTORS
330
8C
102
}
330
8C
100
AcDbXrecord
280
     1
290
     1
  0
XRECORD
  5
411
102
{ACAD_REACTORS
330
410
102
}
330
410
100
AcDbXrecord
280
     1
290
     1
  0
SORTENTSTABLE
  5
40D
102
{ACAD_REACTORS
330
40C
102
}
330
40C
100
AcDbSortentsTable
330
70
331
84
  5
85
331
85
  5
89
331
86
  5
A0
331
87
  5
AD
331
88
  5
B9
331
89
  5
124
331
8A
  5
128
331
A0
  5
129
331
AD
  5
12A
331
B9
  5
12B
331
C6
  5
12C
331
D3
  5
12D
331
E0
  5
12E
331
ED
  5
12F
331
FC
  5
130
331
109
  5
13A
331
116
  5
13B
331
123
  5
8A
331
124
  5
86
331
125
  5
84
331
126
  5
13C
331
127
  5
145
331
128
  5
146
331
129
  5
147
331
12A
  5
148
331
12B
  5
149
331
12C
  5
14A
331
12D
  5
14B
331
12E
  5
87
331
12F
  5
88
331
130
  5
154
331
13A
  5
15D
331
13B
  5
15E
331
13C
  5
15F
331
145
  5
125
331
146
  5
109
331
147
  5
160
331
148
  5
163
331
149
  5
116
331
14A
  5
161
331
14B
  5
164
331
154
  5
165
331
15D
  5
123
331
15E
  5
162
331
15F
  5
126
331
160
  5
C6
331
161
  5
ED
331
162
  5
D3
331
163
  5
E0
331
164
  5
FC
331
165
  5
127
331
175
  5
177
331
176
  5
178
331
177
  5
175
331
178
  5
176
  0
ACDBDETAILVIEWSTYLE
  5
6B
102
{ACAD_REACTORS
330
6A
102
}
330
6A
100
AcDbModelDocViewStyle
 70
     0
  3
Imperial24
290
     1
300
Imperial24
 90
        0
100
AcDbDetailViewStyle
 70
     0
 71
     0
 90
        3
 71
     1
340
55
 62
   256
 40
0.24
340
0
 62
   256
 40
0.24
300

 40
0.36
280
     3
 71
     2
340
5D
 90
       25
 62
   256
 71
     3
340
55
 62
   256
 40
0.24
 90
        1
 40
0.75
 90
        1
300
%<\AcVar ViewType \f "%tc1">% %<\AcVar ViewDetailId>%\PSCALE %<\AcVar ViewScale \f "%sn">%
 71
     4
340
5D
 90
       25
 62
   256
340
5D
 90
       25
 62
   256
280
     0
  0
ACDBDETAILVIEWSTYLE
  5
4D3
102
{ACAD_REACTORS
330
6A
102
}
330
6A
100
AcDbModelDocViewStyle
 70
     0
  3
Metric50
290
     1
300
Metric50
 90
        0
100
AcDbDetailViewStyle
 70
     0
 71
     0
 90
        3
 71
     1
340
55
 62
   256
 40
5.0
340
0
 62
   256
 40
5.0
300

 40
0.0
280
     1
 71
     2
340
5D
 90
       25
 62
   256
 71
     3
340
55
 62
   256
 40
5.0
 90
        0
 40
15.0
 90
        1
300
%<\AcVar ViewDetailId>% (%<\AcVar ViewScale \f "%sn">%)
 71
     4
340
5D
 90
       25
 62
   256
340
5D
 90
       25
 62
   256
280
     0
  0
LAYOUT
  5
73
102
{ACAD_XDICTIONARY
360
4DA
102
}
102
{ACAD_REACTORS
330
62
102
}
330
62
100
AcDbPlotSettings
  1

  2
RICOH MP C3003 JPN RPCS V2
  4
A4
  6

 40
5.079999923706054
 41
5.154022216796875
 42
5.106658935546875
 43
5.079986572265625
 44
210.0
 45
297.0
 46
0.0
 47
0.0
 48
0.0
 49
0.0
140
0.0
141
0.0
142
1.0
143
1.771650700781273
 70
 11952
 72
     1
 73
     1
 74
     0
  7

 75
     0
147
0.5644453500676029
 76
     0
 77
     2
 78
   300
148
116.5613622864236
149
1.011431798100787
100
AcDbLayout
  1
Model
 70
     1
 71
     0
 10
0.0
 20
0.0
 11
12.0
 21
9.0
 12
0.0
 22
0.0
 32
0.0
 14
0.0
 24
0.0
 34
0.0
 15
0.0
 25
0.0
 35
0.0
146
0.0
 13
0.0
 23
0.0
 33
0.0
 16
1.0
 26
0.0
 36
0.0
 17
0.0
 27
1.0
 37
0.0
 76
     0
330
70
331
57
1001
ACAD_PSEXT
1000
RICOH MP C3003 JPN RPCS V2
1000
RICOH MP C3003 JPN RPCS V2
1000
IP_192.168.1.100
1000
RPCS Driver (For Windows)
1070
     0
  0
LAYOUT
  5
6F
102
{ACAD_REACTORS
330
62
102
}
330
62
100
AcDbPlotSettings
  1

  2
RICOH MP C3003 JPN RPCS V2
  4

  6

 40
0.0
 41
0.0
 42
0.0
 43
0.0
 44
0.0
 45
0.0
 46
0.0
 47
0.0
 48
0.0
 49
0.0
140
0.0
141
0.0
142
1.0
143
1.0
 70
   688
 72
     0
 73
     0
 74
     5
  7

 75
    16
147
1.0
 76
     0
 77
     2
 78
   300
148
0.0
149
0.0
100
AcDbLayout
  1
レイアウト1
 70
     0
 71
     1
 10
0.0
 20
0.0
 11
12.0
 21
9.0
 12
0.0
 22
0.0
 32
0.0
 14
1.000000000000000E+20
 24
1.000000000000000E+20
 34
1.000000000000000E+20
 15
-1.000000000000000E+20
 25
-1.000000000000000E+20
 35
-1.000000000000000E+20
146
0.0
 13
0.0
 23
0.0
 33
0.0
 16
1.0
 26
0.0
 36
0.0
 17
0.0
 27
1.0
 37
0.0
 76
     0
330
6C
  0
LAYOUT
  5
77
102
{ACAD_REACTORS
330
62
102
}
330
62
100
AcDbPlotSettings
  1

  2
RICOH MP C3003 JPN RPCS V2
  4

  6

 40
0.0
 41
0.0
 42
0.0
 43
0.0
 44
0.0
 45
0.0
 46
0.0
 47
0.0
 48
0.0
 49
0.0
140
0.0
141
0.0
142
1.0
143
1.0
 70
   688
 72
     0
 73
     0
 74
     5
  7

 75
    16
147
1.0
 76
     0
 77
     2
 78
   300
148
0.0
149
0.0
100
AcDbLayout
  1
レイアウト2
 70
     1
 71
     2
 10
0.0
 20
0.0
 11
12.0
 21
9.0
 12
0.0
 22
0.0
 32
0.0
 14
0.0
 24
0.0
 34
0.0
 15
0.0
 25
0.0
 35
0.0
146
0.0
 13
0.0
 23
0.0
 33
0.0
 16
1.0
 26
0.0
 36
0.0
 17
0.0
 27
1.0
 37
0.0
 76
     0
330
74
  0
MATERIAL
  5
19
102
{ACAD_XDICTIONARY
360
1A
102
}
102
{ACAD_REACTORS
330
10
102
}
330
10
100
AcDbMaterial
  1
ByBlock
 72
     0
 43
0.0208333333333333
 43
0.0
 43
0.0
 43
0.0
 43
0.0
 43
0.0208333333333333
 43
0.0
 43
0.0
 43
0.0
 43
0.0
 43
1.0
 43
0.0
 43
0.0
 43
0.0
 43
0.0
 43
1.0
 77
     0
 47
0.0208333333333333
 47
0.0
 47
0.0
 47
0.0
 47
0.0
 47
0.0208333333333333
 47
0.0
 47
0.0
 47
0.0
 47
0.0
 47
1.0
 47
0.0
 47
0.0
 47
0.0
 47
0.0
 47
1.0
171
     0
 49
0.0208333333333333
 49
0.0
 49
0.0
 49
0.0
 49
0.0
 49
0.0208333333333333
 49
0.0
 49
0.0
 49
0.0
 49
0.0
 49
1.0
 49
0.0
 49
0.0
 49
0.0
 49
0.0
 49
1.0
175
     0
142
0.0208333333333333
142
0.0
142
0.0
142
0.0
142
0.0
142
0.0208333333333333
142
0.0
142
0.0
142
0.0
142
0.0
142
1.0
142
0.0
142
0.0
142
0.0
142
0.0
142
1.0
179
     0
144
0.0208333333333333
144
0.0
144
0.0
144
0.0
144
0.0
144
0.0208333333333333
144
0.0
144
0.0
144
0.0
144
0.0
144
1.0
144
0.0
144
0.0
144
0.0
144
0.0
144
1.0
147
0.0208333333333333
147
0.0
147
0.0
147
0.0
147
0.0
147
0.0208333333333333
147
0.0
147
0.0
147
0.0
147
0.0
147
1.0
147
0.0
147
0.0
147
0.0
147
0.0
147
1.0
  0
MATERIAL
  5
11
102
{ACAD_XDICTIONARY
360
12
102
}
102
{ACAD_REACTORS
330
10
102
}
330
10
100
AcDbMaterial
  1
ByLayer
 72
     0
 43
0.0208333333333333
 43
0.0
 43
0.0
 43
0.0
 43
0.0
 43
0.0208333333333333
 43
0.0
 43
0.0
 43
0.0
 43
0.0
 43
1.0
 43
0.0
 43
0.0
 43
0.0
 43
0.0
 43
1.0
 77
     0
 47
0.0208333333333333
 47
0.0
 47
0.0
 47
0.0
 47
0.0
 47
0.0208333333333333
 47
0.0
 47
0.0
 47
0.0
 47
0.0
 47
1.0
 47
0.0
 47
0.0
 47
0.0
 47
0.0
 47
1.0
171
     0
 49
0.0208333333333333
 49
0.0
 49
0.0
 49
0.0
 49
0.0
 49
0.0208333333333333
 49
0.0
 49
0.0
 49
0.0
 49
0.0
 49
1.0
 49
0.0
 49
0.0
 49
0.0
 49
0.0
 49
1.0
175
     0
142
0.0208333333333333
142
0.0
142
0.0
142
0.0
142
0.0
142
0.0208333333333333
142
0.0
142
0.0
142
0.0
142
0.0
142
1.0
142
0.0
142
0.0
142
0.0
142
0.0
142
1.0
179
     0
144
0.0208333333333333
144
0.0
144
0.0
144
0.0
144
0.0
144
0.0208333333333333
144
0.0
144
0.0
144
0.0
144
0.0
144
1.0
144
0.0
144
0.0
144
0.0
144
0.0
144
1.0
147
0.0208333333333333
147
0.0
147
0.0
147
0.0
147
0.0
147
0.0208333333333333
147
0.0
147
0.0
147
0.0
147
0.0
147
1.0
147
0.0
147
0.0
147
0.0
147
0.0
147
1.0
  0
MATERIAL
  5
21
102
{ACAD_XDICTIONARY
360
22
102
}
102
{ACAD_REACTORS
330
10
102
}
330
10
100
AcDbMaterial
  1
Global
 72
     0
 43
0.0208333333333333
 43
0.0
 43
0.0
 43
0.0
 43
0.0
 43
0.0208333333333333
 43
0.0
 43
0.0
 43
0.0
 43
0.0
 43
1.0
 43
0.0
 43
0.0
 43
0.0
 43
0.0
 43
1.0
 77
     0
 47
0.0208333333333333
 47
0.0
 47
0.0
 47
0.0
 47
0.0
 47
0.0208333333333333
 47
0.0
 47
0.0
 47
0.0
 47
0.0
 47
1.0
 47
0.0
 47
0.0
 47
0.0
 47
0.0
 47
1.0
171
     0
 49
0.0208333333333333
 49
0.0
 49
0.0
 49
0.0
 49
0.0
 49
0.0208333333333333
 49
0.0
 49
0.0
 49
0.0
 49
0.0
 49
1.0
 49
0.0
 49
0.0
 49
0.0
 49
0.0
 49
1.0
175
     0
142
0.0208333333333333
142
0.0
142
0.0
142
0.0
142
0.0
142
0.0208333333333333
142
0.0
142
0.0
142
0.0
142
0.0
142
1.0
142
0.0
142
0.0
142
0.0
142
0.0
142
1.0
179
     0
144
0.0208333333333333
144
0.0
144
0.0
144
0.0
144
0.0
144
0.0208333333333333
144
0.0
144
0.0
144
0.0
144
0.0
144
1.0
144
0.0
144
0.0
144
0.0
144
0.0
144
1.0
147
0.0208333333333333
147
0.0
147
0.0
147
0.0
147
0.0
147
0.0208333333333333
147
0.0
147
0.0
147
0.0
147
0.0
147
1.0
147
0.0
147
0.0
147
0.0
147
0.0
147
1.0
  0
MLEADERSTYLE
  5
67
102
{ACAD_REACTORS
330
66
102
}
330
66
100
AcDbMLeaderStyle
179
     2
170
     2
171
     1
172
     0
 90
        2
 40
0.0
 41
0.0
173
     1
 91
-1056964608
340
5B
 92
       -2
290
     1
 42
0.09
291
     1
 43
0.36
  3
Standard
 44
0.18
300

342
55
174
     1
178
     6
175
     1
176
     0
 93
-1056964608
 45
0.18
292
     0
297
     0
 46
0.18
 94
-1056964608
 47
1.0
 49
1.0
140
1.0
293
     1
141
0.0
294
     1
177
     0
142
1.0
295
     1
296
     0
143
0.125
271
     0
272
     9
273
     9
298
     1
  0
MLINESTYLE
  5
60
102
{ACAD_REACTORS
330
5F
102
}
330
5F
100
AcDbMlineStyle
  2
STANDARD
 70
     0
  3

 62
   256
 51
90.0
 52
90.0
 71
     2
 49
0.5
 62
   256
  6
BYLAYER
 49
-0.5
 62
   256
  6
BYLAYER
  0
ACDBPLACEHOLDER
  5
F
102
{ACAD_REACTORS
330
E
102
}
330
E
  0
SCALE
  5
43
102
{ACAD_REACTORS
330
42
102
}
330
42
100
AcDbScale
 70
     0
300
1:1
140
1.0
141
1.0
290
     1
  0
SCALE
  5
44
102
{ACAD_REACTORS
330
42
102
}
330
42
100
AcDbScale
 70
     0
300
1:2
140
1.0
141
2.0
290
     0
  0
SCALE
  5
45
102
{ACAD_REACTORS
330
42
102
}
330
42
100
AcDbScale
 70
     0
300
1:4
140
1.0
141
4.0
290
     0
  0
SCALE
  5
46
102
{ACAD_REACTORS
330
42
102
}
330
42
100
AcDbScale
 70
     0
300
1:5
140
1.0
141
5.0
290
     0
  0
SCALE
  5
47
102
{ACAD_REACTORS
330
42
102
}
330
42
100
AcDbScale
 70
     0
300
1:8
140
1.0
141
8.0
290
     0
  0
SCALE
  5
48
102
{ACAD_REACTORS
330
42
102
}
330
42
100
AcDbScale
 70
     0
300
1:10
140
1.0
141
10.0
290
     0
  0
SCALE
  5
49
102
{ACAD_REACTORS
330
42
102
}
330
42
100
AcDbScale
 70
     0
300
1:16
140
1.0
141
16.0
290
     0
  0
SCALE
  5
4A
102
{ACAD_REACTORS
330
42
102
}
330
42
100
AcDbScale
 70
     0
300
1:20
140
1.0
141
20.0
290
     0
  0
SCALE
  5
4B
102
{ACAD_REACTORS
330
42
102
}
330
42
100
AcDbScale
 70
     0
300
1:30
140
1.0
141
30.0
290
     0
  0
SCALE
  5
4C
102
{ACAD_REACTORS
330
42
102
}
330
42
100
AcDbScale
 70
     0
300
1:40
140
1.0
141
40.0
290
     0
  0
SCALE
  5
4D
102
{ACAD_REACTORS
330
42
102
}
330
42
100
AcDbScale
 70
     0
300
1:50
140
1.0
141
50.0
290
     0
  0
SCALE
  5
4E
102
{ACAD_REACTORS
330
42
102
}
330
42
100
AcDbScale
 70
     0
300
1:100
140
1.0
141
100.0
290
     0
  0
SCALE
  5
4F
102
{ACAD_REACTORS
330
42
102
}
330
42
100
AcDbScale
 70
     0
300
2:1
140
2.0
141
1.0
290
     0
  0
SCALE
  5
50
102
{ACAD_REACTORS
330
42
102
}
330
42
100
AcDbScale
 70
     0
300
4:1
140
4.0
141
1.0
290
     0
  0
SCALE
  5
51
102
{ACAD_REACTORS
330
42
102
}
330
42
100
AcDbScale
 70
     0
300
8:1
140
8.0
141
1.0
290
     0
  0
SCALE
  5
52
102
{ACAD_REACTORS
330
42
102
}
330
42
100
AcDbScale
 70
     0
300
10:1
140
10.0
141
1.0
290
     0
  0
SCALE
  5
53
102
{ACAD_REACTORS
330
42
102
}
330
42
100
AcDbScale
 70
     0
300
100:1
140
100.0
141
1.0
290
     0
  0
ACDBSECTIONVIEWSTYLE
  5
69
102
{ACAD_REACTORS
330
68
102
}
330
68
100
AcDbModelDocViewStyle
 70
     0
  3
Imperial24
290
     1
300
Imperial24
 90
        0
100
AcDbSectionViewStyle
 70
     0
 71
     0
 90
       78
 71
     1
340
55
 62
   256
 40
0.24
340
0
340
0
 62
   256
 40
0.24
300
I, O, Q, S, X, Z
 40
0.48
 90
        3
 40
0.18
 90
        1
 71
     2
340
5D
 90
       25
 62
   256
340
5D
 90
       50
 62
   256
 40
0.24
 40
0.0
 40
0.24
 71
     3
340
55
 62
   256
 40
0.24
 90
        1
 40
0.75
 90
        1
300
%<\AcVar ViewType \f "%tc1">% %<\AcVar ViewSectionStartId>%-%<\AcVar ViewSectionEndId>%\PSCALE %<\AcVar ViewScale \f "%sn">%
 71
     4
 62
   256
 62
   257
300
ANSI31
 40
1.0
 90
        0
290
     0
290
     0
 90
        6
 40
0.0
 40
1.570796326794896
 40
0.2617993877991494
 40
1.308996938995747
 40
-0.2617993877991494
 40
1.832595714594046
  0
ACDBSECTIONVIEWSTYLE
  5
4D2
102
{ACAD_REACTORS
330
68
102
}
330
68
100
AcDbModelDocViewStyle
 70
     0
  3
Metric50
290
     1
300
Metric50
 90
        0
100
AcDbSectionViewStyle
 70
     0
 71
     0
 90
      102
 71
     1
340
55
 62
   256
 40
5.0
340
0
340
0
 62
   256
 40
5.0
300
I, O, Q, S, X, Z
 40
10.0
 90
        0
 40
2.5
 90
        0
 71
     2
340
5D
 90
       25
 62
   256
340
5D
 90
       50
 62
   256
 40
5.0
 40
2.5
 40
5.0
 71
     3
340
55
 62
   256
 40
5.0
 90
        0
 40
15.0
 90
        1
300
%<\AcVar ViewSectionStartId>%-%<\AcVar ViewSectionEndId>% (%<\AcVar ViewScale \f "%sn">%)
 71
     4
 62
   256
 62
   257
300
ANSI31
 40
1.0
 90
        0
290
     0
290
     0
 90
        6
 40
0.0
 40
1.570796326794896
 40
0.2617993877991494
 40
1.308996938995747
 40
-0.2617993877991494
 40
1.832595714594046
  0
TABLESTYLE
  5
65
102
{ACAD_XDICTIONARY
360
4DF
102
}
102
{ACAD_REACTORS
330
64
102
}
330
64
100
AcDbTableStyle
280
     0
  3
Standard
 70
     0
 71
     3
 40
1.5
 41
1.5
280
     0
281
     0
  7
STANDARD
140
2.5
170
     2
 62
     0
 63
     7
283
     0
 90
      512
 91
        0
  1

274
    -2
284
     1
 64
     0
275
    -2
285
     1
 65
     0
276
    -2
286
     1
 66
     0
277
    -2
287
     1
 67
     0
278
    -2
288
     1
 68
     0
279
    -2
289
     1
 69
     0
  7
STANDARD
140
2.5
170
     5
 62
     0
 63
     7
283
     0
 90
      512
 91
        0
  1

274
    -2
284
     1
 64
     0
275
    -2
285
     1
 65
     0
276
    -2
286
     1
 66
     0
277
    -2
287
     1
 67
     0
278
    -2
288
     1
 68
     0
279
    -2
289
     1
 69
     0
  7
STANDARD
140
2.5
170
     5
 62
     0
 63
     7
283
     0
 90
      512
 91
        0
  1

274
    -2
284
     1
 64
     0
275
    -2
285
     1
 65
     0
276
    -2
286
     1
 66
     0
277
    -2
287
     1
 67
     0
278
    -2
288
     1
 68
     0
279
    -2
289
     1
 69
     0
  0
VISUALSTYLE
  5
2F
102
{ACAD_REACTORS
330
29
102
}
330
29
100
AcDbVisualStyle
  2
2dWireframe
 70
     4
177
     3
291
     0
 70
    58
 90
        0
176
     1
 90
        2
176
     1
 90
        0
176
     1
 90
        0
176
     1
 40
0.6
176
     1
 40
30.0
176
     1
 62
     7
420
 16777215
176
     1
 90
        1
176
     1
 90
        4
176
     1
 62
     7
176
     1
 62
   257
176
     1
 90
        1
176
     1
 90
        1
176
     1
 40
1.0
176
     1
 90
        0
176
     1
 62
   257
176
     1
 40
1.0
176
     1
 90
        1
176
     1
 90
        6
176
     1
 90
        2
176
     1
 62
     7
176
     1
 90
        5
176
     1
 90
        0
176
     1
 90
        0
176
     1
290
     0
176
     1
 90
        1
176
     1
 40
0.0
176
     1
 90
        0
176
     1
290
     1
176
     1
290
     1
176
     1
290
     0
176
     1
290
     0
176
     1
290
     0
176
     1
290
     0
176
     1
290
     0
176
     1
290
     0
176
     1
290
     0
176
     1
 90
       50
176
     1
 40
0.0
176
     1
 40
1.0
176
     1
 90
        0
176
     1
 62
    18
420
        0
176
     1
 90
       50
176
     1
 90
        3
176
     1
 62
     5
420
      255
176
     1
290
     0
176
     1
 90
       50
176
     1
 90
       50
176
     1
 90
       50
176
     1
290
     0
176
     1
 90
       50
176
     1
 62
   256
176
     0
 40
1.0
176
     0
 90
        2
176
     1
  1
strokes_ogs.tif
176
     1
290
     0
176
     1
 40
1.0
176
     1
 40
1.0
176
     1
  0
VISUALSTYLE
  5
2E
102
{ACAD_REACTORS
330
29
102
}
330
29
100
AcDbVisualStyle
  2
Basic
 70
     7
177
     3
291
     1
 70
    58
 90
        1
176
     1
 90
        0
176
     1
 90
        1
176
     1
 90
        0
176
     1
 40
0.6
176
     1
 40
30.0
176
     1
 62
     7
420
 16777215
176
     1
 90
        0
176
     1
 90
        4
176
     1
 62
     7
176
     1
 62
   257
176
     1
 90
        1
176
     1
 90
        1
176
     1
 40
1.0
176
     1
 90
        8
176
     1
 62
     7
176
     1
 40
1.0
176
     1
 90
        1
176
     1
 90
        6
176
     1
 90
        2
176
     1
 62
     7
176
     1
 90
        5
176
     1
 90
        0
176
     1
 90
        0
176
     1
290
     0
176
     1
 90
        1
176
     1
 40
0.0
176
     1
 90
        0
176
     1
290
     0
176
     1
290
     1
176
     1
290
     1
176
     1
290
     0
176
     1
290
     0
176
     1
290
     0
176
     1
290
     0
176
     1
290
     0
176
     1
290
     0
176
     1
 90
       50
176
     1
 40
0.0
176
     1
 40
1.0
176
     1
 90
        0
176
     1
 62
    18
420
        0
176
     1
 90
       50
176
     1
 90
        3
176
     1
 62
     5
420
      255
176
     1
290
     0
176
     1
 90
       50
176
     1
 90
       50
176
     1
 90
       50
176
     1
290
     0
176
     1
 90
       50
176
     1
 62
   256
176
     0
 40
1.0
176
     0
 90
        2
176
     1
  1
strokes_ogs.tif
176
     1
290
     0
176
     1
 40
1.0
176
     1
 40
1.0
176
     1
  0
VISUALSTYLE
  5
35
102
{ACAD_REACTORS
330
29
102
}
330
29
100
AcDbVisualStyle
  2
Brighten
 70
    12
177
     3
291
     1
 70
    58
 90
        2
176
     1
 90
        2
176
     1
 90
        0
176
     1
 90
        0
176
     1
 40
0.6
176
     1
 40
30.0
176
     1
 62
     7
420
 16777215
176
     1
 90
        1
176
     1
 90
        4
176
     1
 62
     7
176
     1
 62
   257
176
     1
 90
        1
176
     1
 90
        1
176
     1
 40
1.0
176
     1
 90
        8
176
     1
 62
     7
176
     1
 40
1.0
176
     1
 90
        1
176
     1
 90
        6
176
     1
 90
        2
176
     1
 62
     7
176
     1
 90
        5
176
     1
 90
        0
176
     1
 90
        0
176
     1
290
     0
176
     1
 90
        1
176
     1
 40
50.0
176
     1
 90
        0
176
     1
290
     0
176
     1
290
     1
176
     1
290
     1
176
     1
290
     0
176
     1
290
     0
176
     1
290
     0
176
     1
290
     0
176
     1
290
     0
176
     1
290
     0
176
     1
 90
       50
176
     1
 40
0.0
176
     1
 40
1.0
176
     1
 90
        0
176
     1
 62
    18
420
        0
176
     1
 90
       50
176
     1
 90
        3
176
     1
 62
     5
420
      255
176
     1
290
     0
176
     1
 90
       50
176
     1
 90
       50
176
     1
 90
       50
176
     1
290
     0
176
     1
 90
       50
176
     1
 62
   256
176
     0
 40
1.0
176
     0
 90
        2
176
     1
  1
strokes_ogs.tif
176
     1
290
     0
176
     1
 40
1.0
176
     1
 40
1.0
176
     1
  0
VISUALSTYLE
  5
39
102
{ACAD_REACTORS
330
29
102
}
330
29
100
AcDbVisualStyle
  2
ColorChange
 70
    16
177
     3
291
     1
 70
    58
 90
        2
176
     1
 90
        2
176
     1
 90
        3
176
     1
 90
        0
176
     1
 40
0.6
176
     1
 40
30.0
176
     1
 62
     8
420
  8421504
176
     1
 90
        1
176
     1
 90
        4
176
     1
 62
     7
176
     1
 62
   257
176
     1
 90
        1
176
     1
 90
        1
176
     1
 40
1.0
176
     1
 90
        8
176
     1
 62
     8
420
  8421504
176
     1
 40
1.0
176
     1
 90
        1
176
     1
 90
        6
176
     1
 90
        2
176
     1
 62
     7
176
     1
 90
        5
176
     1
 90
        0
176
     1
 90
        0
176
     1
290
     0
176
     1
 90
        1
176
     1
 40
0.0
176
     1
 90
        0
176
     1
290
     0
176
     1
290
     1
176
     1
290
     1
176
     1
290
     0
176
     1
290
     0
176
     1
290
     0
176
     1
290
     0
176
     1
290
     0
176
     1
290
     0
176
     1
 90
       50
176
     1
 40
0.0
176
     1
 40
1.0
176
     1
 90
        0
176
     1
 62
    18
420
        0
176
     1
 90
       50
176
     1
 90
        3
176
     1
 62
     5
420
      255
176
     1
290
     0
176
     1
 90
       50
176
     1
 90
       50
176
     1
 90
       50
176
     1
290
     0
176
     1
 90
       50
176
     1
 62
   256
176
     0
 40
1.0
176
     0
 90
        2
176
     1
  1
strokes_ogs.tif
176
     1
290
     0
176
     1
 40
1.0
176
     1
 40
1.0
176
     1
  0
VISUALSTYLE
  5
32
102
{ACAD_REACTORS
330
29
102
}
330
29
100
AcDbVisualStyle
  2
Conceptual
 70
     9
177
     3
291
     0
 70
    58
 90
        3
176
     1
 90
        2
176
     1
 90
        0
176
     1
 90
        0
176
     1
 40
0.6
176
     1
 40
30.0
176
     1
 62
     7
420
 16777215
176
     1
 90
        2
176
     1
 90
        2
176
     1
 62
     7
176
     1
 62
   257
176
     1
 90
        1
176
     1
 90
        1
176
     1
 40
179.0
176
     1
 90
        8
176
     1
 62
     7
176
     1
 40
1.0
176
     1
 90
        1
176
     1
 90
        6
176
     1
 90
        2
176
     1
 62
     7
176
     1
 90
        3
176
     1
 90
        0
176
     1
 90
        0
176
     1
290
     0
176
     1
 90
        1
176
     1
 40
0.0
176
     1
 90
        0
176
     1
290
     0
176
     1
290
     1
176
     1
290
     1
176
     1
290
     0
176
     1
290
     0
176
     1
290
     0
176
     1
290
     0
176
     1
290
     0
176
     1
290
     0
176
     1
 90
       50
176
     1
 40
0.0
176
     1
 40
1.0
176
     1
 90
        0
176
     1
 62
    18
420
        0
176
     1
 90
       50
176
     1
 90
        3
176
     1
 62
     5
420
      255
176
     1
290
     0
176
     1
 90
       50
176
     1
 90
       50
176
     1
 90
       50
176
     1
290
     0
176
     1
 90
       50
176
     1
 62
   256
176
     0
 40
1.0
176
     0
 90
        2
176
     1
  1
strokes_ogs.tif
176
     1
290
     0
176
     1
 40
1.0
176
     1
 40
1.0
176
     1
  0
VISUALSTYLE
  5
34
102
{ACAD_REACTORS
330
29
102
}
330
29
100
AcDbVisualStyle
  2
Dim
 70
    11
177
     3
291
     1
 70
    58
 90
        2
176
     1
 90
        2
176
     1
 90
        0
176
     1
 90
        0
176
     1
 40
0.6
176
     1
 40
30.0
176
     1
 62
     7
420
 16777215
176
     1
 90
        1
176
     1
 90
        4
176
     1
 62
     7
176
     1
 62
   257
176
     1
 90
        1
176
     1
 90
        1
176
     1
 40
1.0
176
     1
 90
        8
176
     1
 62
     7
176
     1
 40
1.0
176
     1
 90
        1
176
     1
 90
        6
176
     1
 90
        2
176
     1
 62
     7
176
     1
 90
        5
176
     1
 90
        0
176
     1
 90
        0
176
     1
290
     0
176
     1
 90
        1
176
     1
 40
-50.0
176
     1
 90
        0
176
     1
290
     0
176
     1
290
     1
176
     1
290
     1
176
     1
290
     0
176
     1
290
     0
176
     1
290
     0
176
     1
290
     0
176
     1
290
     0
176
     1
290
     0
176
     1
 90
       50
176
     1
 40
0.0
176
     1
 40
1.0
176
     1
 90
        0
176
     1
 62
    18
420
        0
176
     1
 90
       50
176
     1
 90
        3
176
     1
 62
     5
420
      255
176
     1
290
     0
176
     1
 90
       50
176
     1
 90
       50
176
     1
 90
       50
176
     1
290
     0
176
     1
 90
       50
176
     1
 62
   256
176
     0
 40
1.0
176
     0
 90
        2
176
     1
  1
strokes_ogs.tif
176
     1
290
     0
176
     1
 40
1.0
176
     1
 40
1.0
176
     1
  0
VISUALSTYLE
  5
41
102
{ACAD_REACTORS
330
29
102
}
330
29
100
AcDbVisualStyle
  2
EdgeColorOff
 70
    22
177
     3
291
     1
 70
    58
 90
        2
176
     0
 90
        2
176
     0
 90
        0
176
     0
 90
        0
176
     0
 40
0.6
176
     0
 40
30.0
176
     0
 62
     7
420
 16777215
176
     0
 90
        1
176
     0
 90
        4
176
     0
 62
     7
176
     0
 62
   257
176
     0
 90
        1
176
     0
 90
        1
176
     0
 40
1.0
176
     0
 90
        8
176
     2
 62
     7
176
     0
 40
1.0
176
     0
 90
        1
176
     0
 90
        6
176
     0
 90
        2
176
     0
 62
     7
176
     0
 90
        5
176
     0
 90
        0
176
     0
 90
        0
176
     0
290
     0
176
     0
 90
        1
176
     0
 40
0.0
176
     0
 90
        0
176
     0
290
     0
176
     0
290
     1
176
     0
290
     1
176
     0
290
     0
176
     0
290
     0
176
     0
290
     0
176
     0
290
     0
176
     0
290
     0
176
     0
290
     0
176
     0
 90
       50
176
     0
 40
0.0
176
     0
 40
1.0
176
     0
 90
        0
176
     0
 62
    18
420
        0
176
     0
 90
       50
176
     0
 90
        3
176
     0
 62
     5
420
      255
176
     0
290
     0
176
     0
 90
       50
176
     0
 90
       50
176
     0
 90
       50
176
     0
290
     0
176
     0
 90
       50
176
     0
 62
   256
176
     0
 40
1.0
176
     0
 90
        2
176
     0
  1
strokes_ogs.tif
176
     0
290
     0
176
     0
 40
1.0
176
     0
 40
1.0
176
     0
  0
VISUALSTYLE
  5
38
102
{ACAD_REACTORS
330
29
102
}
330
29
100
AcDbVisualStyle
  2
Facepattern
 70
    15
177
     3
291
     1
 70
    58
 90
        2
176
     1
 90
        2
176
     1
 90
        0
176
     1
 90
        0
176
     1
 40
0.6
176
     1
 40
30.0
176
     1
 62
     7
420
 16777215
176
     1
 90
        1
176
     1
 90
        4
176
     1
 62
     7
176
     1
 62
   257
176
     1
 90
        1
176
     1
 90
        1
176
     1
 40
1.0
176
     1
 90
        8
176
     1
 62
     7
176
     1
 40
1.0
176
     1
 90
        1
176
     1
 90
        6
176
     1
 90
        2
176
     1
 62
     7
176
     1
 90
        5
176
     1
 90
        0
176
     1
 90
        0
176
     1
290
     0
176
     1
 90
        1
176
     1
 40
0.0
176
     1
 90
        0
176
     1
290
     0
176
     1
290
     1
176
     1
290
     1
176
     1
290
     0
176
     1
290
     0
176
     1
290
     0
176
     1
290
     0
176
     1
290
     0
176
     1
290
     0
176
     1
 90
       50
176
     1
 40
0.0
176
     1
 40
1.0
176
     1
 90
        0
176
     1
 62
    18
420
        0
176
     1
 90
       50
176
     1
 90
        3
176
     1
 62
     5
420
      255
176
     1
290
     0
176
     1
 90
       50
176
     1
 90
       50
176
     1
 90
       50
176
     1
290
     0
176
     1
 90
       50
176
     1
 62
   256
176
     0
 40
1.0
176
     0
 90
        2
176
     1
  1
strokes_ogs.tif
176
     1
290
     0
176
     1
 40
1.0
176
     1
 40
1.0
176
     1
  0
VISUALSTYLE
  5
2A
102
{ACAD_REACTORS
330
29
102
}
330
29
100
AcDbVisualStyle
  2
Flat
 70
     0
177
     3
291
     1
 70
    58
 90
        2
176
     1
 90
        1
176
     1
 90
        1
176
     1
 90
        2
176
     1
 40
0.6
176
     1
 40
30.0
176
     1
 62
     7
420
 16777215
176
     1
 90
        0
176
     1
 90
        0
176
     1
 62
     7
176
     1
 62
   257
176
     1
 90
        1
176
     1
 90
        1
176
     1
 40
1.0
176
     1
 90
        8
176
     1
 62
     7
176
     1
 40
1.0
176
     1
 90
        1
176
     1
 90
        6
176
     1
 90
        2
176
     1
 62
     7
176
     1
 90
        5
176
     1
 90
        0
176
     1
 90
        0
176
     1
290
     0
176
     1
 90
       13
176
     1
 40
0.0
176
     1
 90
        0
176
     1
290
     0
176
     1
290
     1
176
     1
290
     1
176
     1
290
     0
176
     1
290
     0
176
     1
290
     0
176
     1
290
     0
176
     1
290
     0
176
     1
290
     0
176
     1
 90
       50
176
     1
 40
0.0
176
     1
 40
1.0
176
     1
 90
        0
176
     1
 62
    18
420
        0
176
     1
 90
       50
176
     1
 90
        3
176
     1
 62
     5
420
      255
176
     1
290
     0
176
     1
 90
       50
176
     1
 90
       50
176
     1
 90
       50
176
     1
290
     0
176
     1
 90
       50
176
     1
 62
   256
176
     0
 40
1.0
176
     0
 90
        2
176
     1
  1
strokes_ogs.tif
176
     1
290
     0
176
     1
 40
1.0
176
     1
 40
1.0
176
     1
  0
VISUALSTYLE
  5
2B
102
{ACAD_REACTORS
330
29
102
}
330
29
100
AcDbVisualStyle
  2
FlatWithEdges
 70
     1
177
     3
291
     1
 70
    58
 90
        2
176
     1
 90
        1
176
     1
 90
        1
176
     1
 90
        2
176
     1
 40
0.6
176
     1
 40
30.0
176
     1
 62
     7
420
 16777215
176
     1
 90
        1
176
     1
 90
        0
176
     1
 62
     7
176
     1
 62
   257
176
     1
 90
        1
176
     1
 90
        1
176
     1
 40
1.0
176
     1
 90
        0
176
     1
 62
   257
176
     1
 40
1.0
176
     1
 90
        1
176
     1
 90
        6
176
     1
 90
        2
176
     1
 62
     7
176
     1
 90
        5
176
     1
 90
        0
176
     1
 90
        0
176
     1
290
     0
176
     1
 90
       13
176
     1
 40
0.0
176
     1
 90
        0
176
     1
290
     0
176
     1
290
     1
176
     1
290
     1
176
     1
290
     0
176
     1
290
     0
176
     1
290
     0
176
     1
290
     0
176
     1
290
     0
176
     1
290
     0
176
     1
 90
       50
176
     1
 40
0.0
176
     1
 40
1.0
176
     1
 90
        0
176
     1
 62
    18
420
        0
176
     1
 90
       50
176
     1
 90
        3
176
     1
 62
     5
420
      255
176
     1
290
     0
176
     1
 90
       50
176
     1
 90
       50
176
     1
 90
       50
176
     1
290
     0
176
     1
 90
       50
176
     1
 62
   256
176
     0
 40
1.0
176
     0
 90
        2
176
     1
  1
strokes_ogs.tif
176
     1
290
     0
176
     1
 40
1.0
176
     1
 40
1.0
176
     1
  0
VISUALSTYLE
  5
2C
102
{ACAD_REACTORS
330
29
102
}
330
29
100
AcDbVisualStyle
  2
Gouraud
 70
     2
177
     3
291
     1
 70
    58
 90
        2
176
     1
 90
        2
176
     1
 90
        1
176
     1
 90
        2
176
     1
 40
0.6
176
     1
 40
30.0
176
     1
 62
     7
420
 16777215
176
     1
 90
        0
176
     1
 90
        0
176
     1
 62
     7
176
     1
 62
   257
176
     1
 90
        1
176
     1
 90
        1
176
     1
 40
1.0
176
     1
 90
        0
176
     1
 62
     7
176
     1
 40
1.0
176
     1
 90
        1
176
     1
 90
        6
176
     1
 90
        2
176
     1
 62
     7
176
     1
 90
        5
176
     1
 90
        0
176
     1
 90
        0
176
     1
290
     0
176
     1
 90
       13
176
     1
 40
0.0
176
     1
 90
        0
176
     1
290
     0
176
     1
290
     1
176
     1
290
     1
176
     1
290
     0
176
     1
290
     0
176
     1
290
     0
176
     1
290
     0
176
     1
290
     0
176
     1
290
     0
176
     1
 90
       50
176
     1
 40
0.0
176
     1
 40
1.0
176
     1
 90
        0
176
     1
 62
    18
420
        0
176
     1
 90
       50
176
     1
 90
        3
176
     1
 62
     5
420
      255
176
     1
290
     0
176
     1
 90
       50
176
     1
 90
       50
176
     1
 90
       50
176
     1
290
     0
176
     1
 90
       50
176
     1
 62
   256
176
     0
 40
1.0
176
     0
 90
        2
176
     1
  1
strokes_ogs.tif
176
     1
290
     0
176
     1
 40
1.0
176
     1
 40
1.0
176
     1
  0
VISUALSTYLE
  5
2D
102
{ACAD_REACTORS
330
29
102
}
330
29
100
AcDbVisualStyle
  2
GouraudWithEdges
 70
     3
177
     3
291
     1
 70
    58
 90
        2
176
     1
 90
        2
176
     1
 90
        1
176
     1
 90
        2
176
     1
 40
0.6
176
     1
 40
30.0
176
     1
 62
     7
420
 16777215
176
     1
 90
        1
176
     1
 90
        0
176
     1
 62
     7
176
     1
 62
   257
176
     1
 90
        1
176
     1
 90
        1
176
     1
 40
1.0
176
     1
 90
        0
176
     1
 62
   257
176
     1
 40
1.0
176
     1
 90
        1
176
     1
 90
        6
176
     1
 90
        2
176
     1
 62
     7
176
     1
 90
        5
176
     1
 90
        0
176
     1
 90
        0
176
     1
290
     0
176
     1
 90
       13
176
     1
 40
0.0
176
     1
 90
        0
176
     1
290
     0
176
     1
290
     1
176
     1
290
     1
176
     1
290
     0
176
     1
290
     0
176
     1
290
     0
176
     1
290
     0
176
     1
290
     0
176
     1
290
     0
176
     1
 90
       50
176
     1
 40
0.0
176
     1
 40
1.0
176
     1
 90
        0
176
     1
 62
    18
420
        0
176
     1
 90
       50
176
     1
 90
        3
176
     1
 62
     5
420
      255
176
     1
290
     0
176
     1
 90
       50
176
     1
 90
       50
176
     1
 90
       50
176
     1
290
     0
176
     1
 90
       50
176
     1
 62
   256
176
     0
 40
1.0
176
     0
 90
        2
176
     1
  1
strokes_ogs.tif
176
     1
290
     0
176
     1
 40
1.0
176
     1
 40
1.0
176
     1
  0
VISUALSTYLE
  5
31
102
{ACAD_REACTORS
330
29
102
}
330
29
100
AcDbVisualStyle
  2
Hidden
 70
     6
177
     3
291
     0
 70
    58
 90
        1
176
     1
 90
        2
176
     1
 90
        2
176
     1
 90
        0
176
     1
 40
0.6
176
     1
 40
30.0
176
     1
 62
     7
420
 16777215
176
     1
 90
        2
176
     1
 90
        2
176
     1
 62
     7
176
     1
 62
   257
176
     1
 90
        2
176
     1
 90
        1
176
     1
 40
40.0
176
     1
 90
        0
176
     1
 62
   257
176
     1
 40
1.0
176
     1
 90
        1
176
     1
 90
        6
176
     1
 90
        2
176
     1
 62
     7
176
     1
 90
        3
176
     1
 90
        0
176
     1
 90
        0
176
     1
290
     0
176
     1
 90
        1
176
     1
 40
0.0
176
     1
 90
        0
176
     1
290
     0
176
     1
290
     1
176
     1
290
     1
176
     1
290
     0
176
     1
290
     0
176
     1
290
     0
176
     1
290
     0
176
     1
290
     0
176
     1
290
     0
176
     1
 90
       50
176
     1
 40
0.0
176
     1
 40
1.0
176
     1
 90
        0
176
     1
 62
    18
420
        0
176
     1
 90
       50
176
     1
 90
        3
176
     1
 62
     5
420
      255
176
     1
290
     0
176
     1
 90
       50
176
     1
 90
       50
176
     1
 90
       50
176
     1
290
     0
176
     1
 90
       50
176
     1
 62
   256
176
     0
 40
1.0
176
     0
 90
        2
176
     1
  1
strokes_ogs.tif
176
     1
290
     0
176
     1
 40
1.0
176
     1
 40
1.0
176
     1
  0
VISUALSTYLE
  5
3F
102
{ACAD_REACTORS
330
29
102
}
330
29
100
AcDbVisualStyle
  2
JitterOff
 70
    20
177
     3
291
     1
 70
    58
 90
        2
176
     0
 90
        2
176
     0
 90
        0
176
     0
 90
        0
176
     0
 40
0.6
176
     0
 40
30.0
176
     0
 62
     7
420
 16777215
176
     0
 90
        1
176
     0
 90
        4
176
     0
 62
     7
176
     0
 62
   257
176
     0
 90
        1
176
     0
 90
        1
176
     0
 40
1.0
176
     0
 90
       10
176
     2
 62
     7
176
     0
 40
1.0
176
     0
 90
        1
176
     0
 90
        6
176
     0
 90
        2
176
     0
 62
     7
176
     0
 90
        5
176
     0
 90
        0
176
     0
 90
        0
176
     0
290
     0
176
     0
 90
        1
176
     0
 40
0.0
176
     0
 90
        0
176
     0
290
     0
176
     0
290
     1
176
     0
290
     1
176
     0
290
     0
176
     0
290
     0
176
     0
290
     0
176
     0
290
     0
176
     0
290
     0
176
     0
290
     0
176
     0
 90
       50
176
     0
 40
0.0
176
     0
 40
1.0
176
     0
 90
        0
176
     0
 62
    18
420
        0
176
     0
 90
       50
176
     0
 90
        3
176
     0
 62
     5
420
      255
176
     0
290
     0
176
     0
 90
       50
176
     0
 90
       50
176
     0
 90
       50
176
     0
290
     0
176
     0
 90
       50
176
     0
 62
   256
176
     0
 40
1.0
176
     0
 90
        2
176
     0
  1
strokes_ogs.tif
176
     0
290
     0
176
     0
 40
1.0
176
     0
 40
1.0
176
     0
  0
VISUALSTYLE
  5
37
102
{ACAD_REACTORS
330
29
102
}
330
29
100
AcDbVisualStyle
  2
Linepattern
 70
    14
177
     3
291
     1
 70
    58
 90
        2
176
     1
 90
        2
176
     1
 90
        0
176
     1
 90
        0
176
     1
 40
0.6
176
     1
 40
30.0
176
     1
 62
     7
420
 16777215
176
     1
 90
        1
176
     1
 90
        4
176
     1
 62
     7
176
     1
 62
   257
176
     1
 90
        7
176
     1
 90
        7
176
     1
 40
1.0
176
     1
 90
        8
176
     1
 62
     7
176
     1
 40
1.0
176
     1
 90
        1
176
     1
 90
        6
176
     1
 90
        2
176
     1
 62
     7
176
     1
 90
        5
176
     1
 90
        0
176
     1
 90
        0
176
     1
290
     0
176
     1
 90
        1
176
     1
 40
0.0
176
     1
 90
        0
176
     1
290
     0
176
     1
290
     1
176
     1
290
     1
176
     1
290
     0
176
     1
290
     0
176
     1
290
     0
176
     1
290
     0
176
     1
290
     0
176
     1
290
     0
176
     1
 90
       50
176
     1
 40
0.0
176
     1
 40
1.0
176
     1
 90
        0
176
     1
 62
    18
420
        0
176
     1
 90
       50
176
     1
 90
        3
176
     1
 62
     5
420
      255
176
     1
290
     0
176
     1
 90
       50
176
     1
 90
       50
176
     1
 90
       50
176
     1
290
     0
176
     1
 90
       50
176
     1
 62
   256
176
     0
 40
1.0
176
     0
 90
        2
176
     1
  1
strokes_ogs.tif
176
     1
290
     0
176
     1
 40
1.0
176
     1
 40
1.0
176
     1
  0
VISUALSTYLE
  5
40
102
{ACAD_REACTORS
330
29
102
}
330
29
100
AcDbVisualStyle
  2
OverhangOff
 70
    21
177
     3
291
     1
 70
    58
 90
        2
176
     0
 90
        2
176
     0
 90
        0
176
     0
 90
        0
176
     0
 40
0.6
176
     0
 40
30.0
176
     0
 62
     7
420
 16777215
176
     0
 90
        1
176
     0
 90
        4
176
     0
 62
     7
176
     0
 62
   257
176
     0
 90
        1
176
     0
 90
        1
176
     0
 40
1.0
176
     0
 90
        9
176
     2
 62
     7
176
     0
 40
1.0
176
     0
 90
        1
176
     0
 90
        6
176
     0
 90
        2
176
     0
 62
     7
176
     0
 90
        5
176
     0
 90
        0
176
     0
 90
        0
176
     0
290
     0
176
     0
 90
        1
176
     0
 40
0.0
176
     0
 90
        0
176
     0
290
     0
176
     0
290
     1
176
     0
290
     1
176
     0
290
     0
176
     0
290
     0
176
     0
290
     0
176
     0
290
     0
176
     0
290
     0
176
     0
290
     0
176
     0
 90
       50
176
     0
 40
0.0
176
     0
 40
1.0
176
     0
 90
        0
176
     0
 62
    18
420
        0
176
     0
 90
       50
176
     0
 90
        3
176
     0
 62
     5
420
      255
176
     0
290
     0
176
     0
 90
       50
176
     0
 90
       50
176
     0
 90
       50
176
     0
290
     0
176
     0
 90
       50
176
     0
 62
   256
176
     0
 40
1.0
176
     0
 90
        2
176
     0
  1
strokes_ogs.tif
176
     0
290
     0
176
     0
 40
1.0
176
     0
 40
1.0
176
     0
  0
VISUALSTYLE
  5
33
102
{ACAD_REACTORS
330
29
102
}
330
29
100
AcDbVisualStyle
  2
Realistic
 70
     8
177
     3
291
     0
 70
    58
 90
        2
176
     1
 90
        3
176
     1
 90
        0
176
     1
 90
        2
176
     1
 40
0.6
176
     1
 40
30.0
176
     1
 62
     7
420
 16777215
176
     1
 90
        0
176
     1
 90
        0
176
     1
 62
     7
176
     1
 62
   257
176
     1
 90
        1
176
     1
 90
        1
176
     1
 40
1.0
176
     1
 90
        8
176
     1
 62
   257
176
     1
 40
1.0
176
     1
 90
        1
176
     1
 90
        6
176
     1
 90
        2
176
     1
 62
     7
176
     1
 90
        3
176
     1
 90
        0
176
     1
 90
        0
176
     1
290
     0
176
     1
 90
       13
176
     1
 40
0.0
176
     1
 90
        0
176
     1
290
     0
176
     1
290
     1
176
     1
290
     1
176
     1
290
     0
176
     1
290
     0
176
     1
290
     0
176
     1
290
     0
176
     1
290
     0
176
     1
290
     0
176
     1
 90
       50
176
     1
 40
0.0
176
     1
 40
1.0
176
     1
 90
        0
176
     1
 62
    18
420
        0
176
     1
 90
       50
176
     1
 90
        3
176
     1
 62
     5
420
      255
176
     1
290
     0
176
     1
 90
       50
176
     1
 90
       50
176
     1
 90
       50
176
     1
290
     0
176
     1
 90
       50
176
     1
 62
   256
176
     0
 40
1.0
176
     0
 90
        2
176
     1
  1
strokes_ogs.tif
176
     1
290
     0
176
     1
 40
1.0
176
     1
 40
1.0
176
     1
  0
VISUALSTYLE
  5
3E
102
{ACAD_REACTORS
330
29
102
}
330
29
100
AcDbVisualStyle
  2
Shaded
 70
    27
177
     3
291
     0
 70
    58
 90
        2
176
     1
 90
        2
176
     1
 90
        1
176
     1
 90
        2
176
     1
 40
0.6
176
     1
 40
30.0
176
     1
 62
     7
420
 16777215
176
     1
 90
        0
176
     1
 90
        4
176
     1
 62
     7
176
     1
 62
   257
176
     1
 90
        1
176
     1
 90
        1
176
     1
 40
1.0
176
     1
 90
        8
176
     1
 62
   257
176
     1
 40
1.0
176
     1
 90
        1
176
     1
 90
        6
176
     1
 90
        2
176
     1
 62
     8
420
  7895160
176
     1
 90
        3
176
     1
 90
        0
176
     1
 90
        0
176
     1
290
     0
176
     1
 90
        5
176
     1
 40
0.0
176
     1
 90
        0
176
     1
290
     0
176
     1
290
     1
176
     1
290
     1
176
     1
290
     0
176
     1
290
     0
176
     1
290
     0
176
     1
290
     0
176
     1
290
     0
176
     1
290
     0
176
     1
 90
       50
176
     1
 40
0.0
176
     1
 40
1.0
176
     1
 90
        0
176
     1
 62
    18
420
        0
176
     1
 90
       50
176
     1
 90
        3
176
     1
 62
     5
420
      255
176
     1
290
     0
176
     1
 90
       50
176
     1
 90
       50
176
     1
 90
       50
176
     1
290
     0
176
     1
 90
       50
176
     1
 62
   256
176
     0
 40
1.0
176
     0
 90
        2
176
     1
  1
strokes_ogs.tif
176
     1
290
     0
176
     1
 40
1.0
176
     1
 40
1.0
176
     1
  0
VISUALSTYLE
  5
3D
102
{ACAD_REACTORS
330
29
102
}
330
29
100
AcDbVisualStyle
  2
Shaded with edges
 70
    26
177
     3
291
     0
 70
    58
 90
        2
176
     1
 90
        2
176
     1
 90
        1
176
     1
 90
        2
176
     1
 40
0.6
176
     1
 40
30.0
176
     1
 62
     7
420
 16777215
176
     1
 90
        1
176
     1
 90
        2
176
     1
 62
     7
176
     1
 62
   257
176
     1
 90
        2
176
     1
 90
        1
176
     1
 40
1.0
176
     1
 90
        8
176
     1
 62
   257
176
     1
 40
1.0
176
     1
 90
        1
176
     1
 90
        6
176
     1
 90
        2
176
     1
 62
     7
176
     1
 90
        3
176
     1
 90
        0
176
     1
 90
        0
176
     1
290
     0
176
     1
 90
        5
176
     1
 40
0.0
176
     1
 90
        0
176
     1
290
     0
176
     1
290
     1
176
     1
290
     1
176
     1
290
     0
176
     1
290
     0
176
     1
290
     0
176
     1
290
     0
176
     1
290
     0
176
     1
290
     0
176
     1
 90
       50
176
     1
 40
0.0
176
     1
 40
1.0
176
     1
 90
        0
176
     1
 62
    18
420
        0
176
     1
 90
       50
176
     1
 90
        3
176
     1
 62
     5
420
      255
176
     1
290
     0
176
     1
 90
       50
176
     1
 90
       50
176
     1
 90
       50
176
     1
290
     0
176
     1
 90
       50
176
     1
 62
   256
176
     0
 40
1.0
176
     0
 90
        2
176
     1
  1
strokes_ogs.tif
176
     1
290
     0
176
     1
 40
1.0
176
     1
 40
1.0
176
     1
  0
VISUALSTYLE
  5
3A
102
{ACAD_REACTORS
330
29
102
}
330
29
100
AcDbVisualStyle
  2
Shades of Gray
 70
    23
177
     3
291
     0
 70
    58
 90
        2
176
     1
 90
        2
176
     1
 90
        3
176
     1
 90
        0
176
     1
 40
0.6
176
     1
 40
30.0
176
     1
 62
     7
420
 16777215
176
     1
 90
        2
176
     1
 90
        2
176
     1
 62
     7
176
     1
 62
     7
176
     1
 90
        1
176
     1
 90
        1
176
     1
 40
40.0
176
     1
 90
        8
176
     1
 62
     7
176
     1
 40
1.0
176
     1
 90
        1
176
     1
 90
        6
176
     1
 90
        2
176
     1
 62
     7
176
     1
 90
        3
176
     1
 90
        0
176
     1
 90
        0
176
     1
290
     0
176
     1
 90
        1
176
     1
 40
0.0
176
     1
 90
        0
176
     1
290
     0
176
     1
290
     1
176
     1
290
     1
176
     1
290
     0
176
     1
290
     0
176
     1
290
     0
176
     1
290
     0
176
     1
290
     0
176
     1
290
     0
176
     1
 90
       50
176
     1
 40
0.0
176
     1
 40
1.0
176
     1
 90
        0
176
     1
 62
    18
420
        0
176
     1
 90
       50
176
     1
 90
        3
176
     1
 62
     5
420
      255
176
     1
290
     0
176
     1
 90
       50
176
     1
 90
       50
176
     1
 90
       50
176
     1
290
     0
176
     1
 90
       50
176
     1
 62
   256
176
     0
 40
1.0
176
     0
 90
        2
176
     1
  1
strokes_ogs.tif
176
     1
290
     0
176
     1
 40
1.0
176
     1
 40
1.0
176
     1
  0
VISUALSTYLE
  5
3B
102
{ACAD_REACTORS
330
29
102
}
330
29
100
AcDbVisualStyle
  2
Sketchy
 70
    24
177
     3
291
     0
 70
    58
 90
        1
176
     1
 90
        2
176
     1
 90
        2
176
     1
 90
        0
176
     1
 40
0.6
176
     1
 40
30.0
176
     1
 62
     7
420
 16777215
176
     1
 90
        2
176
     1
 90
        2
176
     1
 62
     7
176
     1
 62
     7
176
     1
 90
        1
176
     1
 90
        1
176
     1
 40
40.0
176
     1
 90
       11
176
     1
 62
     7
176
     1
 40
1.0
176
     1
 90
        1
176
     1
 90
        6
176
     1
 90
        2
176
     1
 62
     7
176
     1
 90
        6
176
     1
 90
        0
176
     1
 90
        0
176
     1
290
     0
176
     1
 90
        1
176
     1
 40
0.0
176
     1
 90
        0
176
     1
290
     0
176
     1
290
     1
176
     1
290
     1
176
     1
290
     0
176
     1
290
     0
176
     1
290
     0
176
     1
290
     0
176
     1
290
     0
176
     1
290
     0
176
     1
 90
       50
176
     1
 40
0.0
176
     1
 40
1.0
176
     1
 90
        0
176
     1
 62
    18
420
        0
176
     1
 90
       50
176
     1
 90
        3
176
     1
 62
     5
420
      255
176
     1
290
     0
176
     1
 90
       50
176
     1
 90
       50
176
     1
 90
       50
176
     1
290
     0
176
     1
 90
       50
176
     1
 62
   256
176
     0
 40
1.0
176
     0
 90
        2
176
     1
  1
strokes_ogs.tif
176
     1
290
     0
176
     1
 40
1.0
176
     1
 40
1.0
176
     1
  0
VISUALSTYLE
  5
36
102
{ACAD_REACTORS
330
29
102
}
330
29
100
AcDbVisualStyle
  2
Thicken
 70
    13
177
     3
291
     1
 70
    58
 90
        2
176
     1
 90
        2
176
     1
 90
        0
176
     1
 90
        0
176
     1
 40
0.6
176
     1
 40
30.0
176
     1
 62
     7
420
 16777215
176
     1
 90
        1
176
     1
 90
        4
176
     1
 62
     7
176
     1
 62
   257
176
     1
 90
        1
176
     1
 90
        1
176
     1
 40
1.0
176
     1
 90
       12
176
     1
 62
     7
176
     1
 40
1.0
176
     1
 90
        1
176
     1
 90
        6
176
     1
 90
        2
176
     1
 62
     7
176
     1
 90
        5
176
     1
 90
        0
176
     1
 90
        0
176
     1
290
     0
176
     1
 90
        1
176
     1
 40
0.0
176
     1
 90
        0
176
     1
290
     0
176
     1
290
     1
176
     1
290
     1
176
     1
290
     0
176
     1
290
     0
176
     1
290
     0
176
     1
290
     0
176
     1
290
     0
176
     1
290
     0
176
     1
 90
       50
176
     1
 40
0.0
176
     1
 40
1.0
176
     1
 90
        0
176
     1
 62
    18
420
        0
176
     1
 90
       50
176
     1
 90
        3
176
     1
 62
     5
420
      255
176
     1
290
     0
176
     1
 90
       50
176
     1
 90
       50
176
     1
 90
       50
176
     1
290
     0
176
     1
 90
       50
176
     1
 62
   256
176
     0
 40
1.0
176
     0
 90
        2
176
     1
  1
strokes_ogs.tif
176
     1
290
     0
176
     1
 40
1.0
176
     1
 40
1.0
176
     1
  0
VISUALSTYLE
  5
30
102
{ACAD_REACTORS
330
29
102
}
330
29
100
AcDbVisualStyle
  2
Wireframe
 70
     5
177
     3
291
     0
 70
    58
 90
        0
176
     1
 90
        2
176
     1
 90
        0
176
     1
 90
        0
176
     1
 40
0.6
176
     1
 40
30.0
176
     1
 62
     7
420
 16777215
176
     1
 90
        1
176
     1
 90
        4
176
     1
 62
     7
176
     1
 62
   257
176
     1
 90
        1
176
     1
 90
        1
176
     1
 40
1.0
176
     1
 90
        0
176
     1
 62
   257
176
     1
 40
1.0
176
     1
 90
        1
176
     1
 90
        6
176
     1
 90
        2
176
     1
 62
     7
176
     1
 90
        3
176
     1
 90
        0
176
     1
 90
        0
176
     1
290
     0
176
     1
 90
        1
176
     1
 40
0.0
176
     1
 90
        0
176
     1
290
     0
176
     1
290
     1
176
     1
290
     1
176
     1
290
     0
176
     1
290
     0
176
     1
290
     0
176
     1
290
     0
176
     1
290
     0
176
     1
290
     0
176
     1
 90
       50
176
     1
 40
0.0
176
     1
 40
1.0
176
     1
 90
        0
176
     1
 62
    18
420
        0
176
     1
 90
       50
176
     1
 90
        3
176
     1
 62
     5
420
      255
176
     1
290
     0
176
     1
 90
       50
176
     1
 90
       50
176
     1
 90
       50
176
     1
290
     0
176
     1
 90
       50
176
     1
 62
   256
176
     0
 40
1.0
176
     0
 90
        2
176
     1
  1
strokes_ogs.tif
176
     1
290
     0
176
     1
 40
1.0
176
     1
 40
1.0
176
     1
  0
VISUALSTYLE
  5
3C
102
{ACAD_REACTORS
330
29
102
}
330
29
100
AcDbVisualStyle
  2
X-Ray
 70
    25
177
     3
291
     0
 70
    58
 90
        2
176
     1
 90
        2
176
     1
 90
        1
176
     1
 90
        1
176
     1
 40
0.5
176
     1
 40
30.0
176
     1
 62
     7
420
 16777215
176
     1
 90
        1
176
     1
 90
        0
176
     1
 62
     7
176
     1
 62
   257
176
     1
 90
        1
176
     1
 90
        1
176
     1
 40
1.0
176
     1
 90
        8
176
     1
 62
     7
176
     1
 40
1.0
176
     1
 90
        1
176
     1
 90
        6
176
     1
 90
        2
176
     1
 62
     7
176
     1
 90
        3
176
     1
 90
        0
176
     1
 90
        0
176
     1
290
     0
176
     1
 90
       13
176
     1
 40
0.0
176
     1
 90
        0
176
     1
290
     0
176
     1
290
     1
176
     1
290
     1
176
     1
290
     0
176
     1
290
     0
176
     1
290
     0
176
     1
290
     0
176
     1
290
     0
176
     1
290
     0
176
     1
 90
       50
176
     1
 40
0.0
176
     1
 40
1.0
176
     1
 90
        0
176
     1
 62
    18
420
        0
176
     1
 90
       50
176
     1
 90
        3
176
     1
 62
     5
420
      255
176
     1
290
     0
176
     1
 90
       50
176
     1
 90
       50
176
     1
 90
       50
176
     1
290
     0
176
     1
 90
       50
176
     1
 62
   256
176
     0
 40
1.0
176
     0
 90
        2
176
     1
  1
strokes_ogs.tif
176
     1
290
     0
176
     1
 40
1.0
176
     1
 40
1.0
176
     1
  0
DICTIONARYVAR
  5
4CC
102
{ACAD_REACTORS
330
4C6
102
}
330
4C6
100
DictionaryVariables
280
     0
  1
0
  0
DICTIONARYVAR
  5
4CD
102
{ACAD_REACTORS
330
4C6
102
}
330
4C6
100
DictionaryVariables
280
     0
  1
1:1
  0
DICTIONARYVAR
  5
4C8
102
{ACAD_REACTORS
330
4C6
102
}
330
4C6
100
DictionaryVariables
280
     0
  1
STANDARD
  0
DICTIONARYVAR
  5
4C7
102
{ACAD_REACTORS
330
4C6
102
}
330
4C6
100
DictionaryVariables
280
     0
  1
STANDARD
  0
DICTIONARYVAR
  5
4C9
102
{ACAD_REACTORS
330
4C6
102
}
330
4C6
100
DictionaryVariables
280
     0
  1
Imperial24
  0
DICTIONARYVAR
  5
4CA
102
{ACAD_REACTORS
330
4C6
102
}
330
4C6
100
DictionaryVariables
280
     0
  1
Imperial24
  0
DICTIONARYVAR
  5
4CF
102
{ACAD_REACTORS
330
4C6
102
}
330
4C6
100
DictionaryVariables
280
     0
  1
1
  0
DICTIONARYVAR
  5
4D0
102
{ACAD_REACTORS
330
4C6
102
}
330
4C6
100
DictionaryVariables
280
     0
  1
15
  0
DICTIONARYVAR
  5
4CE
102
{ACAD_REACTORS
330
4C6
102
}
330
4C6
100
DictionaryVariables
280
     0
  1
0
  0
DICTIONARYVAR
  5
4CB
102
{ACAD_REACTORS
330
4C6
102
}
330
4C6
100
DictionaryVariables
280
     0
  1
0
  0
DICTIONARY
  5
4DA
330
73
100
AcDbDictionary
280
     1
281
     1
  3
AcPublish_PlotSettingsOverride
360
4DB
  0
DICTIONARY
  5
1A
330
19
100
AcDbDictionary
280
     1
281
     1
  3
BUMPTILE
360
1C
  3
DIFFUSETILE
360
1B
  3
OPACITYTILE
360
1F
  3
REFLECTIONTILE
360
1E
  3
REFRACTIONTILE
360
20
  3
SPECULARTILE
360
1D
  0
DICTIONARY
  5
12
330
11
100
AcDbDictionary
280
     1
281
     1
  3
BUMPTILE
360
14
  3
DIFFUSETILE
360
13
  3
OPACITYTILE
360
17
  3
REFLECTIONTILE
360
16
  3
REFRACTIONTILE
360
18
  3
SPECULARTILE
360
15
  0
DICTIONARY
  5
22
330
21
100
AcDbDictionary
280
     1
281
     1
  3
BUMPTILE
360
24
  3
DIFFUSETILE
360
23
  3
OPACITYTILE
360
27
  3
REFLECTIONTILE
360
26
  3
REFRACTIONTILE
360
28
  3
SPECULARTILE
360
25
  0
DICTIONARY
  5
4DF
330
65
100
AcDbDictionary
280
     1
281
     1
  3
ACAD_ROUNDTRIP_2008_TABLESTYLE_CELLSTYLEMAP
360
4E0
  0
PLOTSETTINGS
  5
4DB
102
{ACAD_REACTORS
330
4DA
102
}
330
4DA
100
AcDbPlotSettings
  1

  2
RICOH MP C3003 JPN RPCS V2
  4
A4
  6

 40
5.079999923706054
 41
5.154022216796875
 42
5.106658935546875
 43
5.079986572265625
 44
210.0
 45
297.0
 46
0.0
 47
0.0
 48
0.0
 49
0.0
140
0.0
141
0.0
142
1.0
143
1.771652525374492
 70
 11952
 72
     1
 73
     1
 74
     0
  7

 75
     0
147
0.5644447687554417
 76
     0
 77
     2
 78
   300
148
116.5616239020652
149
0.9954355195968673
1001
ACAD_PSEXT
1000
RICOH MP C3003 JPN RPCS V2
1000
RICOH MP C3003 JPN RPCS V2
1000
IP_192.168.1.100
1000
RPCS Driver (For Windows)
1070
     0
  0
XRECORD
  5
1C
102
{ACAD_REACTORS
330
1A
102
}
330
1A
100
AcDbXrecord
280
     1
270
     1
271
     1
  0
XRECORD
  5
1B
102
{ACAD_REACTORS
330
1A
102
}
330
1A
100
AcDbXrecord
280
     1
270
     1
271
     1
  0
XRECORD
  5
1F
102
{ACAD_REACTORS
330
1A
102
}
330
1A
100
AcDbXrecord
280
     1
270
     1
271
     1
  0
XRECORD
  5
1E
102
{ACAD_REACTORS
330
1A
102
}
330
1A
100
AcDbXrecord
280
     1
270
     1
271
     1
  0
XRECORD
  5
20
102
{ACAD_REACTORS
330
1A
102
}
330
1A
100
AcDbXrecord
280
     1
270
     1
271
     1
  0
XRECORD
  5
1D
102
{ACAD_REACTORS
330
1A
102
}
330
1A
100
AcDbXrecord
280
     1
270
     1
271
     1
  0
XRECORD
  5
14
102
{ACAD_REACTORS
330
12
102
}
330
12
100
AcDbXrecord
280
     1
270
     1
271
     1
  0
XRECORD
  5
13
102
{ACAD_REACTORS
330
12
102
}
330
12
100
AcDbXrecord
280
     1
270
     1
271
     1
  0
XRECORD
  5
17
102
{ACAD_REACTORS
330
12
102
}
330
12
100
AcDbXrecord
280
     1
270
     1
271
     1
  0
XRECORD
  5
16
102
{ACAD_REACTORS
330
12
102
}
330
12
100
AcDbXrecord
280
     1
270
     1
271
     1
  0
XRECORD
  5
18
102
{ACAD_REACTORS
330
12
102
}
330
12
100
AcDbXrecord
280
     1
270
     1
271
     1
  0
XRECORD
  5
15
102
{ACAD_REACTORS
330
12
102
}
330
12
100
AcDbXrecord
280
     1
270
     1
271
     1
  0
XRECORD
  5
24
102
{ACAD_REACTORS
330
22
102
}
330
22
100
AcDbXrecord
280
     1
270
     1
271
     1
  0
XRECORD
  5
23
102
{ACAD_REACTORS
330
22
102
}
330
22
100
AcDbXrecord
280
     1
270
     1
271
     1
  0
XRECORD
  5
27
102
{ACAD_REACTORS
330
22
102
}
330
22
100
AcDbXrecord
280
     1
270
     1
271
     1
  0
XRECORD
  5
26
102
{ACAD_REACTORS
330
22
102
}
330
22
100
AcDbXrecord
280
     1
270
     1
271
     1
  0
XRECORD
  5
28
102
{ACAD_REACTORS
330
22
102
}
330
22
100
AcDbXrecord
280
     1
270
     1
271
     1
  0
XRECORD
  5
25
102
{ACAD_REACTORS
330
22
102
}
330
22
100
AcDbXrecord
280
     1
270
     1
271
     1
  0
CELLSTYLEMAP
  5
4E0
102
{ACAD_REACTORS
330
4DF
102
}
330
4DF
100
AcDbCellStyleMap
 90
        3
300
CELLSTYLE
  1
TABLEFORMAT_BEGIN
 90
        5
170
     1
 91
        0
 92
    32768
 62
   257
 93
        1
300
CONTENTFORMAT
  1
CONTENTFORMAT_BEGIN
 90
        0
 91
        0
 92
      512
 93
        0
300

 40
0.0
140
1.0
 94
        5
 62
     0
340
55
144
2.5
309
CONTENTFORMAT_END
171
     1
301
MARGIN
  1
CELLMARGIN_BEGIN
 40
1.5
 40
1.5
 40
1.5
 40
1.5
 40
4.5
 40
4.5
309
CELLMARGIN_END
 94
        6
 95
        1
302
GRIDFORMAT
  1
GRIDFORMAT_BEGIN
 90
        0
 91
        1
 62
     0
 92
       -2
340
0
 93
        0
 40
1.125
309
GRIDFORMAT_END
 95
        2
302
GRIDFORMAT
  1
GRIDFORMAT_BEGIN
 90
        0
 91
        1
 62
     0
 92
       -2
340
0
 93
        0
 40
1.125
309
GRIDFORMAT_END
 95
        4
302
GRIDFORMAT
  1
GRIDFORMAT_BEGIN
 90
        0
 91
        1
 62
     0
 92
       -2
340
0
 93
        0
 40
1.125
309
GRIDFORMAT_END
 95
        8
302
GRIDFORMAT
  1
GRIDFORMAT_BEGIN
 90
        0
 91
        1
 62
     0
 92
       -2
340
0
 93
        0
 40
1.125
309
GRIDFORMAT_END
 95
       16
302
GRIDFORMAT
  1
GRIDFORMAT_BEGIN
 90
        0
 91
        1
 62
     0
 92
       -2
340
0
 93
        0
 40
1.125
309
GRIDFORMAT_END
 95
       32
302
GRIDFORMAT
  1
GRIDFORMAT_BEGIN
 90
        0
 91
        1
 62
     0
 92
       -2
340
0
 93
        0
 40
1.125
309
GRIDFORMAT_END
309
TABLEFORMAT_END
  1
CELLSTYLE_BEGIN
 90
        1
 91
        1
300
_TITLE
309
CELLSTYLE_END
300
CELLSTYLE
  1
TABLEFORMAT_BEGIN
 90
        5
170
     1
 91
        0
 92
        0
 62
   257
 93
        1
300
CONTENTFORMAT
  1
CONTENTFORMAT_BEGIN
 90
        0
 91
        0
 92
      512
 93
        0
300

 40
0.0
140
1.0
 94
        5
 62
     0
340
55
144
2.5
309
CONTENTFORMAT_END
171
     1
301
MARGIN
  1
CELLMARGIN_BEGIN
 40
1.5
 40
1.5
 40
1.5
 40
1.5
 40
4.5
 40
4.5
309
CELLMARGIN_END
 94
        6
 95
        1
302
GRIDFORMAT
  1
GRIDFORMAT_BEGIN
 90
        0
 91
        1
 62
     0
 92
       -2
340
0
 93
        0
 40
1.125
309
GRIDFORMAT_END
 95
        2
302
GRIDFORMAT
  1
GRIDFORMAT_BEGIN
 90
        0
 91
        1
 62
     0
 92
       -2
340
0
 93
        0
 40
1.125
309
GRIDFORMAT_END
 95
        4
302
GRIDFORMAT
  1
GRIDFORMAT_BEGIN
 90
        0
 91
        1
 62
     0
 92
       -2
340
0
 93
        0
 40
1.125
309
GRIDFORMAT_END
 95
        8
302
GRIDFORMAT
  1
GRIDFORMAT_BEGIN
 90
        0
 91
        1
 62
     0
 92
       -2
340
0
 93
        0
 40
1.125
309
GRIDFORMAT_END
 95
       16
302
GRIDFORMAT
  1
GRIDFORMAT_BEGIN
 90
        0
 91
        1
 62
     0
 92
       -2
340
0
 93
        0
 40
1.125
309
GRIDFORMAT_END
 95
       32
302
GRIDFORMAT
  1
GRIDFORMAT_BEGIN
 90
        0
 91
        1
 62
     0
 92
       -2
340
0
 93
        0
 40
1.125
309
GRIDFORMAT_END
309
TABLEFORMAT_END
  1
CELLSTYLE_BEGIN
 90
        2
 91
        1
300
_HEADER
309
CELLSTYLE_END
300
CELLSTYLE
  1
TABLEFORMAT_BEGIN
 90
        5
170
     1
 91
        0
 92
        0
 62
   257
 93
        1
300
CONTENTFORMAT
  1
CONTENTFORMAT_BEGIN
 90
        0
 91
        0
 92
      512
 93
        0
300

 40
0.0
140
1.0
 94
        2
 62
     0
340
55
144
2.5
309
CONTENTFORMAT_END
171
     1
301
MARGIN
  1
CELLMARGIN_BEGIN
 40
1.5
 40
1.5
 40
1.5
 40
1.5
 40
4.5
 40
4.5
309
CELLMARGIN_END
 94
        6
 95
        1
302
GRIDFORMAT
  1
GRIDFORMAT_BEGIN
 90
        0
 91
        1
 62
     0
 92
       -2
340
0
 93
        0
 40
1.125
309
GRIDFORMAT_END
 95
        2
302
GRIDFORMAT
  1
GRIDFORMAT_BEGIN
 90
        0
 91
        1
 62
     0
 92
       -2
340
0
 93
        0
 40
1.125
309
GRIDFORMAT_END
 95
        4
302
GRIDFORMAT
  1
GRIDFORMAT_BEGIN
 90
        0
 91
        1
 62
     0
 92
       -2
340
0
 93
        0
 40
1.125
309
GRIDFORMAT_END
 95
        8
302
GRIDFORMAT
  1
GRIDFORMAT_BEGIN
 90
        0
 91
        1
 62
     0
 92
       -2
340
0
 93
        0
 40
1.125
309
GRIDFORMAT_END
 95
       16
302
GRIDFORMAT
  1
GRIDFORMAT_BEGIN
 90
        0
 91
        1
 62
     0
 92
       -2
340
0
 93
        0
 40
1.125
309
GRIDFORMAT_END
 95
       32
302
GRIDFORMAT
  1
GRIDFORMAT_BEGIN
 90
        0
 91
        1
 62
     0
 92
       -2
340
0
 93
        0
 40
1.125
309
GRIDFORMAT_END
309
TABLEFORMAT_END
  1
CELLSTYLE_BEGIN
 90
        3
 91
        2
300
_DATA
309
CELLSTYLE_END
  0
ENDSEC
  0
EOF
